osu file format v4

[General]
AudioFilename: Magnet Man.mp3
AudioLeadIn: 0
AudioHash: ec1c681e9752df07ae563470647bae02
PreviewTime: -1
SampleSet: Normal
EditorBookmarks: 69542,69773,70003,70465,70695,71157,71387,71618,71848,72310,72540,73002,73232,73463,73694,74155,74386,74847,75078,75308,75539,75770,75885,76116,76231,76692,76923,77153,77384,77845,78076,78537,78768,78999,79229,79691,79921,80152,80383,80613,80844,81075,81421,81767,81997,82228,82458,82689,82920,83381,83612,83842,84073,84304,84419,84650,84880,85226,85457,85572,85688,85918,86149,86264,86495,86726,87071,87302,87417,87533,87763,87994,88109,88340,88571,88686,88917,89147,90273,90735,91081,91888,92118,92349,92580,92695,92926,93964,94425,94771,94886,95578,95694,95809,96040,96270,96386,96501,96616,96962,97078,97193,97308,97423,97539,97654,98115,98346,98461,98577,98923,99269,99499,99845,100191,100422,101345,101691,102037,102498,102728,102959,103190,103420,103536,103766,103882,105266,105496,105727,105958,106419,106650,107111,107342,107572,107803,108264,108495,108956,109187,109417,109648,110109,110340,110801,111032,111263,111493,111609,111724,111839,111955,112070,112185,112301,112647,112877,113108,113338,113800,114030,114492,114722,114953,115184,115645,115876,116337,116568,116798,117029,117490,117721,117951,118182,118413,118528,119797,120027,120258,120373,120604,120835,121181,121411,121527,121642,121873,122103,122219,122449,122680,123026,123256,123372,123487,123718,123948,124064,124294,124525,124640,124871,125102,132718,132797,132876,138404,139351,139509,139667,139825,140141,140299,140457,143142,145353,145511,145984,146300,146458,146774,147248,147564,147722,147879,147958,148037,148116,150406,150564,151038,151354,151512,151828,152302,152617,152775,152933,153012,153091,153170,155460,155618,156092,156408,156566,156881,157355,157671,157829,157987,158066,158145,158224,158303,160514,160672,161146,161461,161619,161935,162409,162725,163041,163120,163199,163278,163357,163672,163988,164146,164462,164778,165094,165410,165568,165726,166199,166515,166673,166989,167305,167621,168410,170937,172201,172359,172674,172990,173306,173464

[Metadata]
Title:Magnet Man & Top Man
Artist:Super Entertainment System
Creator:Mifune24
Version:Hard

[Difficulty]
HPDrainRate:6
CircleSize:5
OverallDifficulty:6
SliderMultiplier: 1.4
SliderTickRate: 1

[Events]
0,0,"megaman 3.jpg"
2,125302,129457

[TimingPoints]
50371,461.303745566087,4,1,0
125454,315.859143738009,4,1,0

[HitObjects]
224,128,50601,5,0
224,128,51062,5,0
224,128,51524,5,0
224,128,51985,1,0
224,128,52446,1,0
224,128,52908,1,0
224,128,53369,5,0
224,128,53830,5,0
320,160,54292,5,0
416,192,54753,2,0,B|416:192|480:256|480:320|416:352|384:320|352:288|320:256|320:224,1,280
256,224,55906,1,0
256,288,56137,1,0
192,320,56367,1,0
128,288,56598,1,0
128,288,56713,1,0
128,224,56944,2,0,B|128:224|128:128|192:96|224:96,1,175
320,96,57982,6,0,B|320:96|224:64|160:96,1,140
96,96,58789,1,0
96,96,58905,2,0,B|96:96|32:160,1,70
96,224,59481,5,0
96,224,59597,2,0,B|96:224|96:288|160:288,1,70
192,256,60058,1,0
256,288,60289,1,0
320,256,60519,1,0
256,224,60750,1,0
192,192,60980,5,0
192,192,61096,1,0
192,192,61211,1,0
192,192,61326,1,0
192,192,61442,1,0
192,192,61557,1,0
192,192,61672,2,0,B|192:192|192:96|320:64|352:96,1,210
352,128,62480,1,0
352,160,62595,1,0
448,160,62941,5,0
448,256,63287,2,0,B|448:256|416:288|352:288,1,70
320,320,63864,1,0
224,288,64210,1,0
160,256,64440,2,0,B|160:256|96:256|32:224|0:128,1,210
64,96,65363,5,0
128,160,65709,1,0
192,96,66055,2,0,B|192:96|224:160|288:32|320:96,1,140
352,128,66747,1,0
416,96,66977,1,0
480,128,67208,1,0
416,160,67439,1,0
416,160,67554,1,0
352,192,67785,5,0
352,192,67900,2,0,B|352:192|288:256|192:288|160:160|192:96|288:64,1,350
256,128,69284,5,0
288,192,69515,1,0
224,192,69745,1,0
192,256,69976,2,0,B|192:256|352:256,1,140
352,192,70668,1,0
448,192,71129,5,2
416,128,71360,1,2
480,128,71590,1,2
512,64,71821,2,2,B|512:64|352:64,1,140
352,128,72513,1,2
224,128,72974,5,0
160,160,73205,1,0
160,96,73436,1,0
96,64,73666,2,0,B|96:64|96:224,1,140
32,192,74358,1,0
128,192,74820,5,2
192,160,75050,1,2
192,224,75281,1,2
256,256,75512,1,2
256,192,75742,1,2
256,192,75858,1,2
256,128,76088,1,2
256,128,76204,1,2
352,192,76665,5,0
384,128,76895,1,0
448,96,77126,1,0
512,128,77357,2,0,B|512:128|512:192|416:224,1,140
416,288,78049,1,0
320,224,78510,5,2
320,224,78741,1,2
320,224,78971,1,2
320,224,79202,2,2,B|320:224|160:224,1,140
180,224,79894,1,2
96,160,80355,5,0
32,128,80586,1,0
32,64,80817,1,0
96,32,81047,2,0,B|96:32|224:32,2,105
96,96,81970,5,0
160,96,82200,1,0
224,96,82431,1,0
224,160,82662,2,0,B|224:160|0:160,1,210
32,224,83584,1,0
32,288,83815,5,0
64,352,84046,1,0
128,352,84276,1,0
128,352,84392,1,0
160,288,84622,1,0
96,288,84853,2,0,B|96:288|96:160,1,105
96,128,85430,5,2
96,128,85545,1,2
96,128,85660,1,2
96,64,85891,1,2
160,32,86122,5,2
160,32,86237,1,2
224,64,86468,1,2
224,128,86698,2,2,B|224:128|224:256,1,105
224,288,87275,5,0
224,288,87390,1,0
224,288,87505,1,0
256,352,87736,1,0
288,288,87967,1,0
288,288,88082,1,0
288,224,88313,5,2
288,160,88543,1,2
288,160,88659,1,2
320,96,88889,1,2
256,96,89120,1,4
128,96,90273,5,0
64,192,90735,5,0
128,256,91081,2,0,B|128:256|192:320|320:320|352:256,1,245
352,192,92118,5,0
288,160,92349,1,0
224,192,92580,1,0
224,192,92695,1,0
160,160,92926,2,0,B|160:160|64:160|32:96|32:32|96:0,1,245
128,64,93964,6,0,B|128:64|224:96|288:64,1,140
352,64,94771,1,0
352,64,94886,2,0,B|352:64|448:192,1,140
384,224,95578,5,2
384,224,95694,1,2
384,224,95809,1,2
352,288,96040,1,2
320,224,96270,1,2
320,224,96386,1,2
288,160,96616,1,2
192,160,96962,5,0
192,160,97078,1,0
192,160,97193,1,0
192,160,97308,1,0
192,160,97423,1,0
192,160,97539,1,0
192,160,97654,2,0,B|192:160|128:224|192:288,1,140
256,288,98346,5,0
256,288,98461,1,0
256,288,98577,2,0,B|256:288|352:288|384:256,1,105
352,192,99269,1,0
416,160,99499,1,0
480,96,99845,1,0
384,64,100191,1,0
320,32,100422,2,0,B|320:32|288:64|224:128|96:64|64:32,1,280
64,128,101691,5,0
64,224,102037,2,0,B|64:224|160:256|224:224,1,140
256,192,102728,1,0
288,128,102959,1,0
352,96,103190,1,0
288,64,103420,1,0
288,64,103536,1,0
224,32,103766,1,0
224,32,103882,2,0,B|224:32|96:64|64:192|128:288|192:320,1,350
224,320,105266,5,0
224,256,105496,1,0
288,256,105727,1,0
288,320,105958,2,0,B|288:320|448:320,1,140
480,320,106650,1,0
480,192,107111,5,4
480,128,107342,1,4
416,128,107572,1,4
416,192,107803,2,4,B|416:192|256:192,1,140
224,192,108495,1,4
96,192,108956,5,2
96,128,109187,1,2
160,128,109417,1,2
160,192,109648,2,2,B|160:192|160:352,1,140
224,320,110340,1,2
320,320,110801,5,0
320,256,111032,1,0
256,256,111263,1,0
256,192,111493,1,0
256,192,111609,1,0
256,192,111724,1,0
256,192,111839,1,0
256,192,111955,1,0
256,192,112070,1,0
256,192,112185,1,0
256,192,112301,1,0
256,96,112647,5,0
224,32,112877,1,0
288,32,113108,1,0
320,96,113338,2,0,B|320:96|384:224,1,140
448,224,114030,1,0
352,288,114492,5,2
288,288,114722,1,2
224,288,114953,1,2
160,288,115184,2,2,B|160:288|64:288|32:192,1,140
32,160,115876,1,2
96,96,116337,5,0
128,160,116568,1,0
160,224,116798,1,0
224,224,117029,2,0,B|224:224|160:96,1,140
224,96,117721,5,0
288,96,117951,1,0
256,32,118182,1,0
192,32,118413,1,0
192,32,118528,2,0,B|192:32|64:32|64:192|96:224,1,245
128,256,119566,1,0
160,320,119797,5,0
192,256,120027,1,0
224,320,120258,1,0
224,320,120373,1,0
256,256,120604,1,0
288,320,120835,2,0,B|288:320|416:320,1,105
448,320,121411,5,0
448,320,121527,1,0
448,320,121642,1,0
480,256,121873,1,0
416,256,122103,1,0
416,256,122219,1,0
448,192,122449,1,0
448,128,122680,2,0,B|448:128|320:128,1,105
288,128,123256,5,2
288,128,123372,1,2
288,128,123487,1,2
256,192,123718,1,2
192,160,123948,1,2
192,160,124064,1,2
224,96,124294,1,2
160,64,124525,1,2
160,64,124640,1,2
128,128,124871,5,4
96,192,125102,1,4
224,64,130507,5,0
320,128,130823,1,0
384,224,131139,1,0
320,320,131455,1,0
224,352,131771,1,0
128,320,132087,1,0
64,224,132402,1,0
128,128,132718,2,2,B|128:128|192:192,1,70
256,32,133350,6,0,B|256:32|256:128,1,70
320,96,133666,2,0,B|320:96|320:0,1,70
384,32,133982,2,0,B|384:32|384:128,1,70
384,160,134298,2,0,B|384:160|288:160,1,70
320,224,134613,2,0,B|320:224|416:224,1,70
384,288,134929,2,0,B|384:288|384:384,1,70
320,352,135245,2,2,B|320:352|320:256,1,70
256,192,135877,5,0
256,192,136035,1,0
224,256,136193,1,0
224,256,136351,1,0
192,192,136509,1,0
192,192,136666,1,0
224,128,136824,1,0
224,128,136982,5,0
160,128,137140,1,0
160,128,137298,1,0
128,192,137456,1,0
128,192,137614,1,0
96,128,137772,1,4
96,128,137930,1,4
64,288,138404,5,0
160,288,138720,1,0
256,288,139035,1,0
352,288,139351,1,2
352,288,139509,1,2
416,192,139825,1,2
352,96,140141,1,2
352,96,140299,1,2
352,96,140457,1,4
256,192,140931,12,0,142510
256,96,143142,5,0
256,96,143457,1,0
256,96,143773,1,0
256,96,144089,1,0
256,192,144405,5,0
192,288,144721,1,0
128,192,145037,1,0
64,288,145353,1,0
64,288,145511,2,0,B|64:288|64:64,1,210
160,64,146300,1,0
224,64,146458,1,0
320,64,146774,2,0,B|320:64|320:288,1,210
416,288,147564,1,0
480,288,147722,1,0
480,224,147879,6,0,B|480:224|480:160,4,35
480,96,148511,5,2
416,0,148827,1,2
352,96,149143,1,2
288,0,149459,1,2
224,96,149775,1,2
160,0,150091,1,2
96,96,150406,1,2
96,96,150564,2,2,B|96:96|96:320,1,210
192,288,151354,5,2
256,288,151512,1,2
352,288,151828,2,2,B|352:288|352:64,1,210
256,64,152617,1,2
256,128,152775,1,2
256,192,152933,2,0,B|256:192|256:224,3,35
256,288,153565,6,0,B|256:288|96:288,5,140
160,192,155460,5,0
128,128,155618,2,0,B|128:128|352:128,1,210
448,96,156408,5,0
416,32,156566,1,0
288,32,156881,2,0,B|288:32|64:32,1,210
32,128,157671,1,0
64,192,157829,1,0
96,128,157987,5,0
96,128,158066,1,0
96,128,158145,1,0
96,128,158224,1,0
96,128,158303,1,0
192,192,158619,5,0
288,128,158935,1,0
384,192,159250,1,0
288,256,159566,1,0
384,192,159882,1,0
288,128,160198,1,0
192,192,160514,1,4
192,192,160672,1,4
192,32,161146,6,0,B|192:32|352:32,1,140
384,32,161619,1,0
384,128,161935,1,0
224,128,162409,2,0,B|224:128|224:288,1,140
320,288,163041,1,0
320,288,163120,1,0
320,288,163199,1,0
320,288,163278,1,0
320,288,163357,1,0
192,288,163672,5,4
128,192,163988,1,0
128,128,164146,1,0
192,32,164462,1,4
256,128,164778,1,0
256,224,165094,1,0
352,192,165410,1,4
384,128,165568,1,4
416,192,165726,1,4
384,352,166199,5,0
288,288,166515,1,0
224,288,166673,1,0
128,224,166989,1,0
224,160,167305,1,0
320,160,167621,2,0,B|320:160|384:128|416:96|416:64|384:0|320:0|256:0|224:32|224:96,1,350
128,160,168726,5,4
32,224,169042,1,0
32,96,169358,1,4
128,160,169674,1,0
224,96,169990,1,4
128,32,170305,1,0
32,96,170621,1,4
128,160,170937,1,2
128,224,171095,1,2
192,224,171253,1,2
192,160,171411,1,2
256,160,171569,1,2
256,224,171727,1,2
256,288,171885,1,2
192,288,172043,1,2
128,288,172201,1,2
128,352,172359,5,0
224,352,172674,1,0
320,352,172990,1,0
416,352,173306,1,4
480,352,173464,1,4
