osu file format v14

[General]
AudioFilename: fairytale.mp3
AudioLeadIn: 2000
PreviewTime: 45101
Countdown: 0
SampleSet: Soft
StackLeniency: 0.7
Mode: 0
LetterboxInBreaks: 0
EpilepsyWarning: 1
WidescreenStoryboard: 1

[Editor]
Bookmarks: 319,149884,179449,186405
DistanceSpacing: 1.2
BeatDivisor: 4
GridSize: 4
TimelineZoom: 1

[Metadata]
Title:Fairytale Gone Bad
TitleUnicode:Fairytale Gone Bad
Artist:Sunrise Avenue
ArtistUnicode:Sunrise Avenue
Creator:Squirrel
Version:Normal
Source:
Tags:ave on the way to wonderland singstar pop hits out of my head mind
BeatmapID:728822
BeatmapSetID:328520

[Difficulty]
HPDrainRate:4
CircleSize:3
OverallDifficulty:4
ApproachRate:4.5
SliderMultiplier:1
SliderTickRate:1

[Events]
//Background and Video events
0,0,"BG.jpg",0,0
//Break Periods
//Storyboard Layer 0 (Background)
//Storyboard Layer 1 (Fail)
//Storyboard Layer 2 (Pass)
//Storyboard Layer 3 (Foreground)
//Storyboard Sound Samples

[TimingPoints]
319,434.782608695652,4,2,1,20,1,0
31623,-100,4,2,1,30,0,0
45536,-100,4,2,1,40,0,0
73362,-100,4,2,1,50,0,0
116840,-100,4,2,2,70,0,1
144558,-100,4,2,1,70,0,0
144666,-100,4,2,2,70,0,1
172492,-100,4,2,1,30,0,0

[Colours]
Combo1 : 211,52,52
Combo2 : 138,208,200
Combo3 : 244,176,36
Combo4 : 68,172,102

[HitObjects]
382,138,319,6,0,P|336:158|286:164,1,100,2|8,0:0|0:0,0:0:0:0:
230,144,971,1,0,0:0:0:0:
184,104,1188,2,0,P|160:104|135:108,1,50,2|0,0:0|0:0,0:0:0:0:
79,132,1623,1,8,0:0:0:0:
45,247,2058,2,0,L|28:307,2,50,2|0|8,0:0|0:0|0:0,0:0:0:0:
104,239,2710,1,0,0:0:0:0:
161,255,2927,2,0,P|200:284|220:330,1,100,2|8,0:0|0:0,0:0:0:0:
335,363,3797,5,2,0:0:0:0:
419,278,4232,1,8,0:0:0:0:
437,159,4666,2,0,P|476:153|504:156,2,50,2|0|8,0:0|0:0|0:0,0:0:0:0:
378,173,5318,1,0,0:0:0:0:
326,142,5536,2,0,P|279:130|230:141,1,100,2|8,0:0|0:0,0:0:0:0:
177,249,6405,2,0,P|174:273|183:304,1,50,2|0,0:0|0:0,0:0:0:0:
216,345,6840,1,8,0:0:0:0:
310,270,7275,6,0,L|247:264,2,50,2|0|8,0:0|0:0|0:0,0:0:0:0:
368,254,7927,2,0,P|376:211|350:154,1,100,0|0,0:0|0:0,0:0:0:0:
309,120,8579,2,0,L|245:113,1,50,8|0,0:0|0:0,0:0:0:0:
199,107,9014,1,2,0:0:0:0:
94,165,9449,1,8,0:0:0:0:
48,276,9884,2,0,P|48:300|55:324,2,50,2|0|8,0:0|0:0|0:0,0:0:0:0:
94,165,10753,5,2,0:0:0:0:
182,83,11188,2,0,L|231:78,1,50,8|0,0:0|0:0,0:0:0:0:
289,95,11623,2,0,P|313:139|320:189,1,100,2|8,0:0|0:0,0:0:0:0:
294,305,12492,1,2,0:0:0:0:
294,305,12710,2,0,L|194:316,1,100,0|0,0:0|0:0,0:0:0:0:
137,297,13362,1,2,0:0:0:0:
137,297,13579,2,0,P|113:253|106:203,1,100,0|0,0:0|0:0,0:0:0:0:
118,145,14232,5,2,0:0:0:0:
206,63,14666,1,8,0:0:0:0:
325,52,15101,2,0,P|357:54|381:61,1,50,2|0,0:0|0:0,0:0:0:0:
429,82,15536,1,8,0:0:0:0:
471,194,15971,2,0,L|477:243,2,50,2|0|8,0:0|0:0|0:0,0:0:0:0:
413,174,16623,1,0,0:0:0:0:
358,149,16840,2,0,P|308:147|262:166,1,100,2|8,0:0|0:0,0:0:0:0:
209,274,17710,5,2,0:0:0:0:
288,364,18145,1,8,0:0:0:0:
407,365,18579,2,0,P|431:361|460:350,2,50,2|0|8,0:0|0:0|0:0,0:0:0:0:
316,286,19449,2,0,L|329:177,1,100,2|8,0:0|0:0,0:0:0:0:
421,111,20318,2,0,L|415:61,1,50,2|0,0:0|0:0,0:0:0:0:
365,27,20753,1,8,0:0:0:0:
246,7,21188,5,2,0:0:0:0:
138,61,21623,2,0,L|144:110,1,50,8|0,0:0|0:0,0:0:0:0:
126,168,22058,2,0,L|116:267,1,100,2|8,0:0|0:0,0:0:0:0:
144,320,22710,1,0,0:0:0:0:
144,320,22927,2,0,P|193:316|237:293,1,100,2|8,0:0|0:0,0:0:0:0:
283,182,23797,2,0,P|299:134|342:91,1,100,2|8,0:0|0:0,0:0:0:0:
450,75,24666,5,2,0:0:0:0:
511,178,25101,1,8,0:0:0:0:
484,295,25536,2,0,B|464:296|444:287|444:287|410:305|368:299,1,100,2|8,0:0|0:0,0:0:0:0:
327,291,26188,1,0,0:0:0:0:
274,261,26405,2,0,L|252:209,1,50,2|0,0:0|0:0,0:0:0:0:
270,156,26840,2,0,P|320:143|381:158,1,100,8|2,0:0|0:0,0:0:0:0:
487,151,27710,1,8,0:0:0:0:
494,31,28145,6,0,L|392:35,1,100,2|8,0:0|0:0,0:0:0:0:
276,60,29014,2,0,L|217:58,1,50,2|0,0:0|0:0,0:0:0:0:
165,54,29449,1,8,0:0:0:0:
61,114,29884,2,0,P|51:163|55:213,1,100,2|8,0:0|0:0,0:0:0:0:
174,230,30753,2,0,L|228:220,2,50,2|0|8,0:0|0:0|0:0,0:0:0:0:
100,325,31623,6,0,L|198:343,1,100,2|8,0:0|0:0,0:0:0:0:
317,353,32492,1,2,0:0:0:0:
415,284,32927,1,8,0:0:0:0:
477,181,33362,2,0,P|470:146|462:128,1,50,2|0,0:0|0:0,0:0:0:0:
422,89,33797,2,0,L|309:73,1,100,8|2,0:0|0:0,0:0:0:0:
207,43,34666,2,0,L|157:52,1,50,8|0,0:0|0:0,0:0:0:0:
108,86,35101,6,0,P|92:132|96:182,1,100,2|8,0:0|0:0,0:0:0:0:
201,239,35971,1,2,0:0:0:0:
283,151,36405,1,8,0:0:0:0:
399,121,36840,2,0,L|410:169,1,50,2|0,0:0|0:0,0:0:0:0:
437,223,37275,2,0,L|414:320,1,100,8|0,0:0|0:0,0:0:0:0:
299,357,38145,2,0,P|265:349|242:337,1,50,8|0,0:0|0:0,0:0:0:0:
211,297,38579,5,2,0:0:0:0:
240,180,39014,2,0,P|248:156|249:131,1,50,8|0,0:0|0:0,0:0:0:0:
231,73,39449,1,2,0:0:0:0:
117,33,39884,1,8,0:0:0:0:
27,112,40318,2,0,L|16:166,1,50,2|0,0:0|0:0,0:0:0:0:
53,208,40753,2,0,P|100:220|154:213,1,100,8|2,0:0|0:0,0:0:0:0:
253,151,41623,2,0,P|277:147|314:153,1,50,8|0,0:0|0:0,0:0:0:0:
351,183,42058,6,0,L|357:289,1,100,2|8,0:0|0:0,0:0:0:0:
330,336,42710,1,0,0:0:0:0:
330,336,42927,2,0,P|280:343|232:333,1,100,2|8,0:0|0:0,0:0:0:0:
159,237,43797,1,2,0:0:0:0:
189,120,44232,1,8,0:0:0:0:
299,72,44666,2,0,L|349:67,2,50,2|0|8,0:0|0:0|0:0,0:0:0:0:
189,120,45536,6,0,L|68:106,2,100,2|8|2,0:0|0:0|0:0,0:0:0:0:
275,202,46840,1,8,0:0:0:0:
216,306,47275,2,0,P|191:308|166:304,1,50,2|0,0:0|0:0,0:0:0:0:
120,266,47710,2,0,P|105:245|97:222,1,50,8|0,0:0|0:0,0:0:0:0:
95,162,48145,2,0,L|203:134,1,100,2|8,0:0|0:0,0:0:0:0:
311,150,49014,5,2,0:0:0:0:
427,119,49449,2,0,L|490:137,1,50,8|0,0:0|0:0,0:0:0:0:
512,180,49884,2,0,P|510:233|492:278,1,100,2|8,0:0|0:0,0:0:0:0:
381,321,50753,1,2,0:0:0:0:
293,239,51188,2,0,P|255:234|230:234,1,50,8|0,0:0|0:0,0:0:0:0:
186,253,51623,1,2,0:0:0:0:
88,323,52058,2,0,P|50:318|34:308,1,50,8|0,0:0|0:0,0:0:0:0:
20,256,52492,5,2,0:0:0:0:
37,137,52927,2,0,L|97:131,1,50,8|0,0:0|0:0,0:0:0:0:
131,91,53362,2,0,L|241:103,1,100,2|8,0:0|0:0,0:0:0:0:
285,209,54232,2,0,L|185:197,1,100,2|8,0:0|0:0,0:0:0:0:
134,229,54884,1,0,0:0:0:0:
134,229,55101,2,0,P|132:271|151:330,1,100,2|8,0:0|0:0,0:0:0:0:
262,364,55971,5,2,0:0:0:0:
379,341,56405,2,0,L|370:287,1,50,8|0,0:0|0:0,0:0:0:0:
411,247,56840,2,0,L|425:147,1,100,2|8,0:0|0:0,0:0:0:0:
411,89,57492,1,0,0:0:0:0:
411,89,57710,2,0,P|363:75|314:84,1,100,2|8,0:0|0:0,0:0:0:0:
208,139,58579,2,0,P|178:153|149:153,1,50,2|0,0:0|0:0,0:0:0:0:
103,139,59014,1,8,0:0:0:0:
7,212,59449,6,0,L|3:313,2,100,2|8|2,0:0|0:0|0:0,0:0:0:0:
25,93,60753,1,8,0:0:0:0:
128,32,61188,2,0,P|163:26|181:27,1,50,2|0,0:0|0:0,0:0:0:0:
235,42,61623,2,0,P|270:48|288:47,1,50,8|0,0:0|0:0,0:0:0:0:
342,30,62058,2,0,P|395:31|443:51,1,100,2|8,0:0|0:0,0:0:0:0:
474,162,62927,5,2,0:0:0:0:
407,262,63362,2,0,L|342:258,1,50,8|0,0:0|0:0,0:0:0:0:
316,303,63797,2,0,L|201:309,1,100,2|8,0:0|0:0,0:0:0:0:
104,263,64666,1,2,0:0:0:0:
179,169,65101,2,0,P|187:137|187:116,1,50,8|0,0:0|0:0,0:0:0:0:
181,60,65536,1,2,0:0:0:0:
60,57,65971,2,0,P|52:89|52:110,1,50,8|0,0:0|0:0,0:0:0:0:
64,164,66405,5,2,0:0:0:0:
140,256,66840,2,0,B|251:260,1,100,8|2,0:0|0:0,0:0:0:0:
354,223,67710,2,0,P|368:188|368:162,1,50,8|0,0:0|0:0,0:0:0:0:
364,116,68145,1,2,0:0:0:0:
263,51,68579,1,8,0:0:0:0:
263,51,68797,2,0,L|148:62,1,100,0|0,0:0|0:0,0:0:0:0:
114,95,69449,2,0,P|104:126|103:153,1,50,8|0,0:0|0:0,0:0:0:0:
110,202,69884,5,2,0:0:0:0:
181,298,70318,2,0,L|280:288,1,100,8|2,0:0|0:0,0:0:0:0:
375,215,71188,1,8,0:0:0:0:
374,94,71623,2,0,P|326:78|277:80,1,100,2|8,0:0|0:0,0:0:0:0:
230,118,72275,1,0,0:0:0:0:
230,118,72492,2,0,L|238:228,1,100,2|8,0:0|0:0,0:0:0:0:
283,328,73362,5,4,0:1:0:0:
336,301,73579,2,0,L|341:233,2,50,2|8|0,0:0|0:0|0:0,0:0:0:0:
382,340,74232,1,2,0:0:0:0:
468,257,74666,1,8,0:0:0:0:
454,137,75101,6,0,P|411:110|355:107,1,100,6|8,0:0|0:0,0:0:0:0:
251,150,75971,1,2,0:0:0:0:
151,216,76405,2,0,P|118:223|93:224,1,50,8|0,0:0|0:0,0:0:0:0:
48,195,76840,2,0,L|40:141,1,50,2|0,0:0|0:0,0:0:0:0:
92,114,77275,2,0,L|100:60,1,50,8|0,0:0|0:0,0:0:0:0:
153,39,77710,1,2,0:0:0:0:
267,74,78145,2,0,P|305:78|332:76,1,50,8|0,0:0|0:0,0:0:0:0:
375,73,78579,6,0,P|424:85|464:113,2,100,2|8|0,0:0|0:0|0:0,0:0:0:0:
278,144,79884,2,0,P|255:160|221:165,1,50,8|0,0:0|0:0,0:0:0:0:
174,155,80318,2,0,P|119:151|74:166,1,100,0|8,0:0|0:0,0:0:0:0:
46,217,80971,1,0,0:0:0:0:
46,217,81188,2,0,L|53:316,1,100,2|8,0:0|0:0,0:0:0:0:
161,369,82058,5,2,0:0:0:0:
272,325,82492,1,8,0:0:0:0:
293,206,82927,2,0,P|270:178|252:162,1,50,2|0,0:0|0:0,0:0:0:0:
234,113,83362,2,0,P|230:76|231:52,1,50,8|0,0:0|0:0,0:0:0:0:
273,20,83797,2,0,L|380:25,2,100,2|8|2,0:0|0:0|0:0,0:0:0:0:
162,67,85101,2,0,L|99:69,1,50,8|0,0:0|0:0,0:0:0:0:
60,100,85536,6,0,P|43:146|55:205,1,100,2|8,0:0|0:0,0:0:0:0:
145,269,86405,2,0,L|194:270,1,50,2|0,0:0|0:0,0:0:0:0:
236,227,86840,2,0,L|285:225,1,50,8|0,0:0|0:0,0:0:0:0:
344,240,87275,1,2,0:0:0:0:
451,293,87710,1,8,0:0:0:0:
508,187,88145,2,0,P|505:153|494:129,2,50,2|0|8,0:0|0:0|0:0,0:0:0:0:
451,293,89014,6,0,L|345:308,1,100,2|8,0:0|0:0,0:0:0:0:
296,284,89666,1,0,0:0:0:0:
296,284,89884,2,0,P|281:235|285:180,1,100,2|8,0:0|0:0,0:0:0:0:
258,69,90753,2,0,P|236:50|208:38,1,50,2|0,0:0|0:0,0:0:0:0:
157,31,91188,2,0,P|94:51|62:86,1,100,8|2,0:0|0:0,0:0:0:0:
68,194,92058,1,8,0:0:0:0:
138,290,92492,6,0,L|237:279,1,100,2|8,0:0|0:0,0:0:0:0:
284,241,93145,1,0,0:0:0:0:
284,241,93362,2,0,L|383:251,1,100,2|8,0:0|0:0,0:0:0:0:
461,342,94232,1,2,0:0:0:0:
345,375,94666,2,0,P|316:374|283:363,1,50,8|0,0:0|0:0,0:0:0:0:
240,345,95101,2,0,P|210:338|128:355,1,100,2|8,0:0|0:0,0:0:0:0:
26,314,95971,5,2,0:0:0:0:
28,194,96405,1,8,0:0:0:0:
116,112,96840,2,0,P|145:112|174:118,1,50,2|0,0:0|0:0,0:0:0:0:
220,140,97275,1,8,0:0:0:0:
322,203,97710,1,2,0:0:0:0:
436,165,98145,1,8,0:0:0:0:
436,165,98362,2,0,P|442:123|412:64,1,100,0|0,0:0|0:0,0:0:0:0:
365,44,99014,2,0,L|301:53,1,50,8|0,0:0|0:0,0:0:0:0:
255,46,99449,6,0,L|151:34,1,100,2|8,0:0|0:0,0:0:0:0:
65,113,100318,2,0,L|2:122,2,50,2|0|8,0:0|0:0|0:0,0:0:0:0:
178,151,101188,1,2,0:0:0:0:
193,269,101623,1,8,0:0:0:0:
290,339,102058,2,0,P|334:344|356:340,1,50,2|0,0:0|0:0,0:0:0:0:
396,324,102492,2,0,P|430:296|443:278,1,50,8|0,0:0|0:0,0:0:0:0:
459,237,102927,5,4,0:1:0:0:
450,117,103362,1,8,0:0:0:0:
348,53,103797,2,0,L|285:60,1,50,2|0,0:0|0:0,0:0:0:0:
239,46,104232,1,8,0:0:0:0:
127,88,104666,2,0,P|96:101|70:103,1,50,2|0,0:0|0:0,0:0:0:0:
20,96,105101,2,0,L|26:195,1,100,8|2,0:0|0:0,0:0:0:0:
136,242,105971,2,0,L|132:291,1,50,8|0,0:0|0:0,0:0:0:0:
158,345,106405,5,2,0:0:0:0:
277,337,106840,1,8,0:0:0:0:
382,280,107275,2,0,P|407:281|440:291,2,50,2|0|8,0:0|0:0|0:0,0:0:0:0:
277,337,108145,2,0,P|265:286|277:225,1,100,2|8,0:0|0:0,0:0:0:0:
293,183,108797,1,0,0:0:0:0:
293,183,109014,2,0,P|305:132|293:71,1,100,2|8,0:0|0:0,0:0:0:0:
188,36,109884,5,2,0:0:0:0:
85,98,110318,2,0,P|89:133|99:158,1,50,8|0,0:0|0:0,0:0:0:0:
136,189,110753,2,0,L|251:182,1,100,2|8,0:0|0:0,0:0:0:0:
344,130,111623,2,0,L|459:137,1,100,2|8,0:0|0:0,0:0:0:0:
491,172,112275,1,0,0:0:0:0:
491,172,112492,2,0,P|498:224|483:273,1,100,2|8,0:0|0:0,0:0:0:0:
392,346,113362,5,2,0:0:0:0:
271,348,113797,2,0,L|217:357,1,50,8|0,0:0|0:0,0:0:0:0:
169,326,114232,2,0,L|115:317,2,50,2|0|8,0:0|0:0|0:0,0:0:0:0:
265,255,115101,1,2,0:0:0:0:
265,255,115318,2,0,P|267:203|238:148,1,100,2|2,0:0|0:0,0:0:0:0:
203,119,115971,2,0,L|149:112,1,50,2|2,0:0|0:0,0:0:0:0:
98,137,116405,2,0,L|44:144,1,50,8|2,0:0|0:0,0:0:0:0:
14,193,116840,6,0,P|8:216|7:241,1,50,4|0,0:1|0:0,0:0:0:0:
28,298,117275,2,0,L|138:289,1,100,8|2,0:0|0:0,0:0:0:0:
236,238,118145,1,8,0:0:0:0:
343,289,118579,2,0,P|373:285|400:271,1,50,2|0,0:0|0:0,0:0:0:0:
434,235,119014,2,0,P|446:213|452:189,1,50,8|0,0:0|0:0,0:0:0:0:
449,129,119449,1,2,0:0:0:0:
372,36,119884,1,8,0:0:0:0:
253,51,120318,5,2,0:0:0:0:
209,162,120753,2,0,L|221:219,1,50,8|0,0:0|0:0,0:0:0:0:
248,263,121188,2,0,L|225:360,1,100,2|8,0:0|0:0,0:0:0:0:
109,329,122058,2,0,L|131:231,1,100,2|8,0:0|0:0,0:0:0:0:
171,186,122710,1,0,0:0:0:0:
171,186,122927,2,0,P|214:158|283:162,1,100,2|8,0:0|0:0,0:0:0:0:
362,221,123797,5,2,0:0:0:0:
477,186,124232,2,0,L|484:136,1,50,8|0,0:0|0:0,0:0:0:0:
480,76,124666,2,0,P|436:52|386:51,1,100,2|8,0:0|0:0,0:0:0:0:
268,79,125536,2,0,P|245:86|220:86,1,50,2|0,0:0|0:0,0:0:0:0:
161,74,125971,2,0,P|131:64|59:72,1,100,8|2,0:0|0:0,0:0:0:0:
27,184,126840,1,8,0:0:0:0:
112,268,127275,5,2,0:0:0:0:
224,225,127710,2,0,L|234:171,2,50,8|0|2,0:0|0:0|0:0,0:0:0:0:
286,327,128579,2,0,P|317:332|354:327,1,50,8|0,0:0|0:0,0:0:0:0:
387,301,129014,1,2,0:0:0:0:
427,187,129449,1,8,0:0:0:0:
384,74,129884,2,0,L|328:79,1,50,2|8,0:0|0:0,0:0:0:0:
278,56,130318,2,0,L|222:51,1,50,8|8,0:0|0:0,0:0:0:0:
173,76,130753,5,2,0:0:0:0:
150,193,131188,1,8,0:0:0:0:
227,284,131623,1,2,0:0:0:0:
345,295,132058,2,0,P|357:272|365:249,1,50,8|0,0:0|0:0,0:0:0:0:
342,193,132492,2,0,P|328:135|331:91,1,100,2|8,0:0|0:0,0:0:0:0:
367,47,133145,1,0,0:0:0:0:
367,47,133362,2,0,L|470:42,1,100,2|8,0:0|0:0,0:0:0:0:
512,154,134232,5,2,0:0:0:0:
463,263,134666,2,0,P|428:259|397:247,1,50,8|0,0:0|0:0,0:0:0:0:
362,222,135101,2,0,P|310:214|257:229,1,100,2|8,0:0|0:0,0:0:0:0:
217,262,135753,1,0,0:0:0:0:
217,262,135971,2,0,P|175:278|106:271,1,100,2|8,0:0|0:0,0:0:0:0:
34,192,136840,1,2,0:0:0:0:
82,82,137275,2,0,L|138:71,1,50,8|0,0:0|0:0,0:0:0:0:
191,67,137710,5,2,0:0:0:0:
305,32,138145,2,0,L|361:43,1,50,8|0,0:0|0:0,0:0:0:0:
410,62,138579,2,0,P|422:97|417:159,1,100,2|8,0:0|0:0,0:0:0:0:
379,206,139232,1,0,0:0:0:0:
379,206,139449,2,0,P|367:241|372:303,1,100,2|8,0:0|0:0,0:0:0:0:
483,348,140318,1,2,0:0:0:0:
500,229,140753,1,8,0:0:0:0:
481,110,141188,5,4,0:1:0:0:
371,59,141623,2,0,P|344:57|318:46,1,50,8|0,0:0|0:0,0:0:0:0:
266,27,142058,2,0,P|217:18|168:29,1,100,2|8,0:0|0:0,0:0:0:0:
122,67,142710,1,0,0:0:0:0:
122,67,142927,2,0,P|105:127|110:172,1,100,2|8,0:0|0:0,0:0:0:0:
140,214,143579,1,2,0:0:0:0:
140,214,143797,2,0,L|197:207,1,50,2|2,0:0|0:0,0:0:0:0:
247,192,144232,2,0,L|304:199,1,50,8|2,0:0|0:0,0:0:0:0:
343,235,144666,5,4,0:1:0:0:
328,354,145101,1,8,0:0:0:0:
209,375,145536,1,2,0:0:0:0:
151,269,145971,1,8,0:0:0:0:
227,176,146405,2,0,P|246:166|282:159,1,50,2|0,0:0|0:0,0:0:0:0:
331,176,146840,2,0,P|350:185|386:193,1,50,8|0,0:0|0:0,0:0:0:0:
437,185,147275,2,0,P|477:162|503:103,1,100,2|8,0:0|0:0,0:0:0:0:
414,32,148144,5,2,0:0:0:0:
294,40,148579,2,0,P|268:47|236:47,1,50,8|0,0:0|0:0,0:0:0:0:
185,36,149014,2,0,P|134:30|86:46,1,100,2|8,0:0|0:0,0:0:0:0:
36,153,149884,2,0,L|45:262,1,100,2|8,0:0|0:0,0:0:0:0:
81,299,150536,1,0,0:0:0:0:
81,299,150753,2,0,P|132:305|180:289,1,100,2|8,0:0|0:0,0:0:0:0:
270,214,151623,5,2,0:0:0:0:
376,158,152058,2,0,P|405:164|431:182,1,50,8|0,0:0|0:0,0:0:0:0:
456,223,152492,2,0,L|446:322,1,100,2|8,0:0|0:0,0:0:0:0:
333,364,153362,2,0,L|330:314,1,50,2|0,0:0|0:0,0:0:0:0:
302,260,153797,2,0,P|263:257|199:292,1,100,8|2,0:0|0:0,0:0:0:0:
95,322,154666,1,8,0:0:0:0:
17,230,155101,5,2,0:0:0:0:
79,127,155536,2,0,P|78:99|73:69,2,50,8|0|2,0:0|0:0|0:0,0:0:0:0:
151,222,156405,2,0,P|182:227|219:222,1,50,8|0,0:0|0:0,0:0:0:0:
256,204,156840,1,2,0:0:0:0:
341,120,157275,1,8,0:0:0:0:
460,110,157710,2,0,L|466:168,1,50,2|2,0:0|0:0,0:0:0:0:
444,216,158145,2,0,L|438:274,1,50,8|2,0:0|0:0,0:0:0:0:
465,319,158579,5,4,0:1:0:0:
353,362,159014,1,8,0:0:0:0:
259,287,159449,1,2,0:0:0:0:
295,172,159884,2,0,L|311:117,1,50,8|0,0:0|0:0,0:0:0:0:
302,64,160318,2,0,P|263:37|196:41,1,100,2|8,0:0|0:0,0:0:0:0:
158,64,160971,1,0,0:0:0:0:
158,64,161188,2,0,L|128:164,1,100,2|8,0:0|0:0,0:0:0:0:
121,279,162058,5,2,0:0:0:0:
202,367,162492,2,0,P|226:365|251:359,1,50,8|0,0:0|0:0,0:0:0:0:
301,327,162927,2,0,P|339:295|391:286,1,100,2|8,0:0|0:0,0:0:0:0:
445,302,163579,1,0,0:0:0:0:
445,302,163797,2,0,L|467:189,1,100,2|8,0:0|0:0,0:0:0:0:
428,89,164666,1,2,0:0:0:0:
313,53,165101,2,0,P|292:59|263:62,1,50,8|0,0:0|0:0,0:0:0:0:
204,56,165536,5,2,0:0:0:0:
84,72,165971,2,0,P|71:92|61:115,1,50,8|0,0:0|0:0,0:0:0:0:
81,172,166405,2,0,P|93:207|88:269,1,100,2|8,0:0|0:0,0:0:0:0:
56,320,167058,1,0,0:0:0:0:
56,320,167275,2,0,L|155:310,1,100,2|8,0:0|0:0,0:0:0:0:
271,280,168144,1,2,0:0:0:0:
375,339,168579,1,8,0:0:0:0:
472,268,169014,5,2,0:0:0:0:
442,151,169449,2,0,P|412:138|389:138,1,50,8|0,0:0|0:0,0:0:0:0:
341,164,169884,2,0,P|286:173|223:159,1,100,2|8,0:0|0:0,0:0:0:0:
141,101,170753,1,2,0:0:0:0:
141,101,170971,2,0,P|123:152|129:204,1,100,0|0,0:0|0:0,0:0:0:0:
168,239,171623,2,0,L|217:251,1,50,2|0,0:0|0:0,0:0:0:0:
272,228,172058,2,0,L|321:216,1,50,8|2,0:0|0:0,0:0:0:0:
376,237,172492,6,0,P|379:286|361:333,2,100,4|8|2,0:1|0:0|0:0,0:0:0:0:
353,118,173797,2,0,P|353:93|358:68,1,50,8|0,0:0|0:0,0:0:0:0:
380,12,174232,2,0,L|273:20,1,100,2|8,0:0|0:0,0:0:0:0:
235,59,174884,1,0,0:0:0:0:
235,59,175101,2,0,L|128:51,1,100,2|8,0:0|0:0,0:0:0:0:
26,102,175971,6,0,P|12:149|21:202,1,100,2|8,0:0|0:0,0:0:0:0:
60,242,176623,1,0,0:0:0:0:
60,242,176840,2,0,L|159:234,1,100,2|8,0:0|0:0,0:0:0:0:
276,258,177710,2,0,P|302:301|309:350,2,100,2|8|2,0:0|0:0|0:0,0:0:0:0:
197,169,179014,2,0,P|186:146|183:121,1,50,8|0,0:0|0:0,0:0:0:0:
198,63,179449,5,2,0:0:0:0:
311,23,179884,1,8,0:0:0:0:
406,94,180318,2,0,P|437:87|459:78,2,50,2|0|8,0:0|0:0|0:0,0:0:0:0:
293,136,181188,2,0,P|284:170|285:194,1,50,2|0,0:0|0:0,0:0:0:0:
304,241,181623,2,0,P|313:275|312:299,1,50,8|0,0:0|0:0,0:0:0:0:
288,344,182058,2,0,L|166:351,1,100,2|8,0:0|0:0,0:0:0:0:
95,273,182927,5,2,0:0:0:0:
122,156,183362,2,0,P|155:149|185:152,1,50,8|0,0:0|0:0,0:0:0:0:
230,160,183797,1,2,0:0:0:0:
306,252,184232,2,0,P|324:269|346:281,1,50,8|0,0:0|0:0,0:0:0:0:
403,297,184666,2,0,P|468:283|500:253,1,100,2|8,0:0|0:0,0:0:0:0:
503,203,185318,1,0,0:0:0:0:
503,203,185536,2,0,L|497:103,1,100,2|8,0:0|0:0,0:0:0:0:
382,139,186405,5,4,0:1:0:0:
