osu file format v14

[General]
AudioFilename: fairytale.mp3
AudioLeadIn: 2000
PreviewTime: 45101
Countdown: 0
SampleSet: Soft
StackLeniency: 0.7
Mode: 0
LetterboxInBreaks: 0
EpilepsyWarning: 1
WidescreenStoryboard: 1

[Editor]
Bookmarks: 319,149884,179449,186405
DistanceSpacing: 1.2
BeatDivisor: 2
GridSize: 4
TimelineZoom: 1

[Metadata]
Title:Fairytale Gone Bad
TitleUnicode:Fairytale Gone Bad
Artist:Sunrise Avenue
ArtistUnicode:Sunrise Avenue
Creator:Squirrel
Version:Easy
Source:
Tags:ave on the way to wonderland singstar pop hits out of my head mind
BeatmapID:766268
BeatmapSetID:328520

[Difficulty]
HPDrainRate:2
CircleSize:3
OverallDifficulty:2
ApproachRate:3
SliderMultiplier:0.8
SliderTickRate:1

[Events]
//Background and Video events
0,0,"BG.jpg",0,0
//Break Periods
//Storyboard Layer 0 (Background)
//Storyboard Layer 1 (Fail)
//Storyboard Layer 2 (Pass)
//Storyboard Layer 3 (Foreground)
//Storyboard Sound Samples

[TimingPoints]
319,434.782608695652,4,2,1,20,1,0
31623,-100,4,2,1,30,0,0
45536,-100,4,2,1,40,0,0
73362,-100,4,2,1,50,0,0
116840,-100,4,2,2,70,0,1
144558,-100,4,2,1,70,0,0
144666,-100,4,2,2,70,0,1
172492,-100,4,2,1,30,0,0

[Colours]
Combo1 : 211,52,52
Combo2 : 138,208,200
Combo3 : 244,176,36
Combo4 : 68,172,102

[HitObjects]
298,134,319,6,0,P|264:115|225:110,1,80,2|8,0:0|0:0,0:0:0:0:
160,182,1188,2,0,P|194:202|234:207,1,80,2|8,0:0|0:0,0:0:0:0:
327,229,2058,2,0,P|344:269|366:304,1,80,2|8,0:0|0:0,0:0:0:0:
457,281,2927,1,2,0:0:0:0:
476,187,3362,1,8,0:0:0:0:
465,91,3797,6,0,P|393:64|324:100,1,160,2|2,0:0|0:0,0:0:0:0:
289,190,5101,1,8,0:0:0:0:
193,179,5536,2,0,P|134:173|101:185,1,80,2|8,0:0|0:0,0:0:0:0:
51,251,6405,1,2,0:0:0:0:
63,346,6840,1,8,0:0:0:0:
156,368,7275,6,0,B|243:355,1,80,2|8,0:0|0:0,0:0:0:0:
292,278,8145,2,0,B|212:266,1,80,2|8,0:0|0:0,0:0:0:0:
124,228,9014,1,2,0:0:0:0:
124,228,9449,2,0,P|112:173|168:88,1,160,8|8,0:0|0:0,0:0:0:0:
259,73,10753,5,2,0:0:0:0:
259,73,11188,2,0,L|337:89,1,80,8|2,0:0|0:0,0:0:0:0:
416,144,12058,1,8,0:0:0:0:
427,239,12492,2,0,P|405:294|368:341,2,120,2|0|8,0:0|0:0|0:0,0:0:0:0:
416,144,14232,6,0,L|336:133,1,80,2|8,0:0|0:0,0:0:0:0:
263,71,15101,2,0,L|183:82,1,80,2|8,0:0|0:0,0:0:0:0:
100,132,15971,2,0,P|95:171|96:211,1,80,2|8,0:0|0:0,0:0:0:0:
151,290,16840,1,2,0:0:0:0:
246,276,17275,1,8,0:0:0:0:
330,323,17710,6,0,P|367:336|406:334,1,80,2|8,0:0|0:0,0:0:0:0:
457,251,18579,2,0,P|419:238|379:240,1,80,2|8,0:0|0:0,0:0:0:0:
286,216,19449,2,0,P|287:171|296:133,1,80,2|8,0:0|0:0,0:0:0:0:
360,66,20318,1,2,0:0:0:0:
360,66,20753,1,8,0:0:0:0:
454,85,21188,6,0,P|462:124|462:163,1,80,2|8,0:0|0:0,0:0:0:0:
423,251,22058,1,2,0:0:0:0:
385,339,22492,1,8,0:0:0:0:
384,338,22927,2,0,P|307:322|228:331,1,160,2|2,0:0|0:0,0:0:0:0:
132,341,24232,1,8,0:0:0:0:
43,304,24666,6,0,P|38:268|38:222,2,80,2|8|2,0:0|0:0|0:0,0:0:0:0:
132,341,25971,1,8,0:0:0:0:
217,296,26405,1,2,0:0:0:0:
217,296,26840,2,0,B|225:252|206:218|206:218|219:177|207:139,1,160,8|8,0:0|0:0,0:0:0:0:
131,81,28145,6,0,L|29:89,1,80,2|8,0:0|0:0,0:0:0:0:
38,182,29014,2,0,L|117:175,1,80,2|8,0:0|0:0,0:0:0:0:
211,199,29884,2,0,P|225:236|227:276,1,80,2|8,0:0|0:0,0:0:0:0:
281,355,30753,1,2,0:0:0:0:
377,357,31188,1,8,0:0:0:0:
451,296,31623,5,2,0:0:0:0:
374,118,32492,2,0,P|335:116|295:123,1,80,2|8,0:0|0:0,0:0:0:0:
206,158,33362,2,0,P|143:173|85:166,2,120,2|0|8,0:0|0:0|0:0,0:0:0:0:
222,63,35101,5,2,0:0:0:0:
413,72,35971,2,0,P|429:108|439:155,1,80,2|8,0:0|0:0,0:0:0:0:
399,235,36840,2,0,L|267:262,2,120,2|0|8,0:0|0:0|0:0,0:0:0:0:
484,280,38579,5,0,0:0:0:0:
304,348,39449,2,0,P|262:346|214:320,1,80,2|8,0:0|0:0,0:0:0:0:
178,247,40318,2,0,P|182:207|171:145,2,80,2|8|2,0:0|0:0|0:0,0:0:0:0:
135,334,41623,1,8,0:0:0:0:
39,321,42058,6,0,L|25:240,1,80,2|8,0:0|0:0,0:0:0:0:
69,157,42927,2,0,L|83:76,1,80,2|8,0:0|0:0,0:0:0:0:
168,34,43797,2,0,P|205:36|249:57,1,80,2|8,0:0|0:0,0:0:0:0:
301,130,44666,1,2,0:0:0:0:
288,225,45101,1,8,0:0:0:0:
200,265,45536,6,0,B|145:271|103:239|103:239|85:270|46:283,1,160,2|2,0:0|0:0,0:0:0:0:
21,88,47275,1,2,0:0:0:0:
108,48,47710,2,0,L|197:32,1,80,8|2,0:0|0:0,0:0:0:0:
276,68,48579,1,8,0:0:0:0:
368,42,49014,5,2,0:0:0:0:
447,95,49449,2,0,P|438:172|363:217,1,160,8|8,0:0|0:0,0:0:0:0:
282,186,50753,1,2,0:0:0:0:
282,186,51188,2,0,P|243:177|203:182,1,80,8|2,0:0|0:0,0:0:0:0:
133,248,52058,1,8,0:0:0:0:
137,343,52492,5,2,0:0:0:0:
328,357,53362,2,0,P|351:324|359:285,1,80,2|8,0:0|0:0,0:0:0:0:
378,191,54232,2,0,B|405:193|425:209|425:209|421:171|436:127,2,120,2|0|8,0:0|0:0|0:0,0:0:0:0:
286,220,55971,5,2,0:0:0:0:
130,332,56840,2,0,P|88:333|34:318,1,80,2|8,0:0|0:0,0:0:0:0:
38,229,57710,2,0,P|80:228|134:243,1,80,2|8,0:0|0:0,0:0:0:0:
212,236,58579,1,2,0:0:0:0:
268,158,59014,1,8,0:0:0:0:
238,67,59449,6,0,B|178:82|178:82|80:69,1,160,2|2,0:0|0:0,0:0:0:0:
16,250,61188,1,2,0:0:0:0:
80,320,61623,2,0,P|130:329|172:323,1,80,8|2,0:0|0:0,0:0:0:0:
247,290,62492,1,8,0:0:0:0:
230,195,62927,5,2,0:0:0:0:
260,101,63362,2,0,B|283:82|323:87|323:87|363:58|412:75,1,160,8|8,0:0|0:0,0:0:0:0:
378,165,64666,1,2,0:0:0:0:
378,165,65101,2,0,P|379:217|399:264,1,80,8|2,0:0|0:0,0:0:0:0:
416,335,65971,1,8,0:0:0:0:
330,377,66405,5,2,0:0:0:0:
244,335,66840,2,0,B|241:292|241:292|202:230|202:230|197:181,1,160,8|8,0:0|0:0,0:0:0:0:
132,116,68145,2,0,P|73:123|15:110,2,120,2|0|8,0:0|0:0|0:0,0:0:0:0:
212,61,69884,5,2,0:0:0:0:
305,41,70318,2,0,B|310:81|289:115|289:115|330:104|386:128,1,160,8|8,0:0|0:0,0:0:0:0:
431,196,71623,2,0,P|430:255|404:308,2,120,2|0|0,0:0|0:0|0:0,0:0:0:0:
387,110,73362,5,4,0:1:0:0:
302,154,73797,1,8,0:0:0:0:
209,127,74232,2,0,P|169:129|128:144,1,80,2|8,0:0|0:0,0:0:0:0:
69,215,75101,6,0,L|54:343,2,120,6|0|8,0:0|0:0|0:0,0:0:0:0:
158,250,76840,2,0,L|143:378,2,120,2|0|8,0:0|0:0|0:0,0:0:0:0:
212,171,78579,6,0,P|260:168|296:177,1,80,2|8,0:0|0:0,0:0:0:0:
374,223,79449,2,0,P|413:216|449:199,1,80,0|8,0:0|0:0,0:0:0:0:
456,104,80318,1,0,0:0:0:0:
456,104,80754,2,0,B|408:75|408:75|304:80,1,160,8|8,0:0|0:0,0:0:0:0:
213,49,82058,5,2,0:0:0:0:
213,49,82492,2,0,L|131:45,1,80,8|2,0:0|0:0,0:0:0:0:
57,104,83362,1,8,0:0:0:0:
72,198,83797,2,0,P|61:266|70:339,2,120,2|0|8,0:0|0:0|0:0,0:0:0:0:
152,144,85536,6,0,L|236:155,1,80,2|8,0:0|0:0,0:0:0:0:
273,240,86405,2,0,L|193:250,1,80,2|8,0:0|0:0,0:0:0:0:
148,335,87275,2,0,L|232:346,1,80,2|8,0:0|0:0,0:0:0:0:
323,337,88145,1,2,0:0:0:0:
381,261,88579,1,8,0:0:0:0:
363,166,89014,6,0,P|312:162|278:167,1,80,2|8,0:0|0:0,0:0:0:0:
221,239,89884,2,0,P|182:249|142:252,1,80,2|8,0:0|0:0,0:0:0:0:
75,184,90753,2,0,L|67:87,1,80,2|8,0:0|0:0,0:0:0:0:
156,64,91623,2,0,L|162:143,1,80,2|8,0:0|0:0,0:0:0:0:
245,192,92492,5,2,0:0:0:0:
315,126,92927,1,8,0:0:0:0:
315,126,93362,2,0,P|370:120|401:126,1,80,2|8,0:0|0:0,0:0:0:0:
434,211,94232,1,2,0:0:0:0:
434,211,94666,2,0,B|415:254|415:254|362:295|362:295|345:338,1,160,8|8,0:0|0:0,0:0:0:0:
254,370,95971,6,0,P|209:367|174:358,1,80,2|8,0:0|0:0,0:0:0:0:
113,285,96840,2,0,P|103:246|86:210,1,80,2|8,0:0|0:0,0:0:0:0:
18,141,97710,1,2,0:0:0:0:
18,141,98145,2,0,B|66:98|130:123|130:123|151:111|185:110,1,160,8|8,0:0|0:0,0:0:0:0:
259,143,99449,6,0,L|271:228,1,80,2|8,0:0|0:0,0:0:0:0:
188,273,100318,2,0,L|176:193,1,80,2|8,0:0|0:0,0:0:0:0:
164,98,101188,2,0,P|194:58|234:41,1,80,2|8,0:0|0:0,0:0:0:0:
316,57,102058,1,2,0:0:0:0:
407,27,102492,1,8,0:0:0:0:
501,42,102927,6,0,L|498:123,1,80,4|8,0:1|0:0,0:0:0:0:
435,194,103797,2,0,L|438:275,1,80,2|8,0:0|0:0,0:0:0:0:
450,369,104666,2,0,B|423:372|401:364|401:364|365:380|332:372,2,120,2|0|8,0:0|0:0|0:0,0:0:0:0:
437,273,106405,5,2,0:0:0:0:
349,102,107275,2,0,L|255:111,1,80,2|8,0:0|0:0,0:0:0:0:
183,65,108145,2,0,L|63:53,2,120,2|0|8,0:0|0:0|0:0,0:0:0:0:
200,159,109884,5,2,0:0:0:0:
91,316,110753,2,0,P|121:344|158:356,1,80,2|8,0:0|0:0,0:0:0:0:
248,322,111623,2,0,P|299:292|358:292,2,120,2|0|8,0:0|0:0|0:0,0:0:0:0:
170,265,113362,5,2,0:0:0:0:
170,265,113797,2,0,B|172:216|172:216|145:159|145:159|152:97,1,160,8|8,0:0|0:0,0:0:0:0:
208,35,115101,2,0,P|247:30|328:46,1,120,2|0,0:0|0:0,0:0:0:0:
367,69,115971,2,0,P|397:94|440:164,1,120,2|2,0:0|0:0,0:0:0:0:
428,208,116840,6,0,L|351:232,1,80,4|8,0:1|0:0,0:0:0:0:
298,312,117710,2,0,L|221:287,1,80,2|8,0:0|0:0,0:0:0:0:
132,252,118579,1,2,0:0:0:0:
145,156,119014,2,0,P|190:135|221:134,2,80,8|2|8,0:0|0:0|0:0,0:0:0:0:
132,252,120318,5,2,0:0:0:0:
175,337,120753,2,0,P|252:329|302:269,1,160,8|8,0:0|0:0,0:0:0:0:
368,199,122058,2,0,P|422:222|482:230,2,120,2|0|8,0:0|0:0|0:0,0:0:0:0:
325,112,123797,5,2,0:0:0:0:
149,33,124666,2,0,B|60:38,1,80,2|8,0:0|0:0,0:0:0:0:
42,129,125536,2,0,B|161:123,2,120,2|0|8,0:0|0:0|0:0,0:0:0:0:
15,221,127275,5,2,0:0:0:0:
163,342,128145,2,0,P|217:353|250:351,1,80,2|8,0:0|0:0,0:0:0:0:
313,287,129014,2,0,P|351:278|391:279,1,80,2|8,0:0|0:0,0:0:0:0:
486,261,129884,1,2,0:0:0:0:
507,167,130318,1,8,0:0:0:0:
460,82,130753,6,0,L|380:92,1,80,2|8,0:0|0:0,0:0:0:0:
290,57,131623,2,0,L|210:46,1,80,2|8,0:0|0:0,0:0:0:0:
119,76,132492,1,2,0:0:0:0:
114,171,132927,2,0,B|141:199|185:204|185:204|195:249|222:273,1,160,8|8,0:0|0:0,0:0:0:0:
314,300,134232,5,2,0:0:0:0:
392,245,134666,2,0,P|382:170|332:103,1,160,8|8,0:0|0:0,0:0:0:0:
238,87,135971,1,2,0:0:0:0:
237,87,136405,2,0,P|198:90|158:86,1,80,8|2,0:0|0:0,0:0:0:0:
73,40,137275,1,8,0:0:0:0:
25,123,137710,5,2,0:0:0:0:
61,211,138145,2,0,P|131:248|210:256,1,160,8|8,0:0|0:0,0:0:0:0:
298,219,139449,1,2,0:0:0:0:
278,125,139884,2,0,P|292:49|361:14,1,160,8|8,0:0|0:0,0:0:0:0:
372,110,141188,5,4,0:1:0:0:
441,176,141623,2,0,P|448:217|373:313,1,160,8|8,0:0|0:0,0:0:0:0:
288,311,142927,1,2,0:0:0:0:
193,328,143362,1,8,0:0:0:0:
113,272,143797,2,0,P|117:213|151:165,1,120,2|2,0:0|0:0,0:0:0:0:
197,152,144666,6,0,L|290:162,1,80,4|8,0:1|0:0,0:0:0:0:
287,256,145536,2,0,L|194:246,1,80,2|8,0:0|0:0,0:0:0:0:
118,211,146405,1,2,0:0:0:0:
33,256,146840,2,0,P|17:299|16:349,2,80,8|2|8,0:0|0:0|0:0,0:0:0:0:
88,177,148144,5,2,0:0:0:0:
26,103,148579,2,0,B|79:81|79:81|185:96,1,160,8|8,0:0|0:0,0:0:0:0:
270,61,149884,2,0,L|391:43,2,120,2|0|8,0:0|0:0|0:0,0:0:0:0:
259,156,151623,5,2,0:0:0:0:
446,198,152492,2,0,P|467:235|481:280,1,80,2|8,0:0|0:0,0:0:0:0:
436,356,153362,2,0,B|314:340,2,120,2|0|8,0:0|0:0|0:0,0:0:0:0:
479,269,155101,5,2,0:0:0:0:
420,85,155971,2,0,P|381:82|293:122,1,120,2|0,0:0|0:0,0:0:0:0:
260,141,156840,2,0,P|220:148|181:145,1,80,2|8,0:0|0:0,0:0:0:0:
115,75,157710,2,0,P|82:124|92:182,1,120,2|2,0:0|0:0,0:0:0:0:
124,217,158579,6,0,L|203:206,1,80,4|8,0:1|0:0,0:0:0:0:
292,171,159449,2,0,L|371:181,1,80,2|8,0:0|0:0,0:0:0:0:
442,245,160318,1,2,0:0:0:0:
406,334,160753,2,0,P|341:350|236:338,1,160,8|8,0:0|0:0,0:0:0:0:
203,257,162058,5,2,0:0:0:0:
198,160,162492,2,0,B|170:157|141:178|141:178|92:162|80:105,1,160,8|8,0:0|0:0,0:0:0:0:
123,19,163797,1,2,0:0:0:0:
123,19,164231,2,0,L|203:22,1,80,8|2,0:0|0:0,0:0:0:0:
291,60,165101,1,8,0:0:0:0:
386,46,165536,5,2,0:0:0:0:
479,67,165971,2,0,B|466:103|443:121|443:121|472:160|465:235,1,160,8|8,0:0|0:0,0:0:0:0:
398,279,167275,1,2,0:0:0:0:
342,199,167710,2,0,B|303:202|303:202|228:185|228:185|174:187,1,160,8|8,0:0|0:0,0:0:0:0:
119,257,169014,5,2,0:0:0:0:
33,212,169449,2,0,P|32:133|87:78,1,160,8|8,0:0|0:0,0:0:0:0:
182,64,170753,2,0,B|258:68|258:68|322:56,2,120,2|0|8,0:0|0:0|0:0,0:0:0:0:
148,153,172492,6,0,P|151:203|161:242,1,80,4|8,0:1|0:0,0:0:0:0:
247,266,173362,2,0,P|244:316|234:355,1,80,2|8,0:0|0:0,0:0:0:0:
145,375,174232,2,0,L|63:377,1,80,2|8,0:0|0:0,0:0:0:0:
28,288,175101,2,0,L|107:286,1,80,2|8,0:0|0:0,0:0:0:0:
203,293,175971,5,2,0:0:0:0:
293,324,176405,2,0,P|336:317|375:293,1,80,8|2,0:0|0:0,0:0:0:0:
399,209,177275,1,8,0:0:0:0:
357,122,177710,2,0,L|218:124,2,120,2|0|8,0:0|0:0|0:0,0:0:0:0:
452,133,179449,6,0,P|483:169|495:207,1,80,2|8,0:0|0:0,0:0:0:0:
466,291,180318,2,0,L|376:292,1,80,2|8,0:0|0:0,0:0:0:0:
291,272,181188,2,0,P|259:235|247:197,1,80,2|8,0:0|0:0,0:0:0:0:
220,113,182058,2,0,P|192:84|156:66,1,80,2|8,0:0|0:0,0:0:0:0:
61,73,182927,5,2,0:0:0:0:
47,168,183362,2,0,B|54:208|92:229|92:229|74:277|98:327,2,160,8|8|8,0:0|0:0|0:0,0:0:0:0:
141,145,185536,2,0,P|170:117|207:105,1,80,2|8,0:0|0:0,0:0:0:0:
299,135,186405,5,4,0:1:0:0:
