osu file format v13

[General]
AudioFilename: Slow Dance.mp3
AudioLeadIn: 0
PreviewTime: 58486
Countdown: 0
SampleSet: Soft
StackLeniency: 0.7
Mode: 0
LetterboxInBreaks: 0
WidescreenStoryboard: 0

[Editor]
DistanceSpacing: 1.2
BeatDivisor: 4
GridSize: 4
TimelineZoom: 1

[Metadata]
Title:slow dance (TV Size)
TitleUnicode:slow dance (TV Size)
Artist:Suneohair
ArtistUnicode:スネオヘアー
Creator:Moway
Version:Easy
Source:Suki-tte Ii na yo.
Tags:say i love you ending 好きっていいなよ。
BeatmapID:316287
BeatmapSetID:123971

[Difficulty]
HPDrainRate:2
CircleSize:3
OverallDifficulty:2
ApproachRate:3
SliderMultiplier:0.8
SliderTickRate:1

[Events]
//Background and Video events
0,0,"bg.jpg",0,0
//Break Periods
//Storyboard Layer 0 (Background)
//Storyboard Layer 1 (Fail)
//Storyboard Layer 2 (Pass)
//Storyboard Layer 3 (Foreground)
//Storyboard Sound Samples
//Background Colour Transformations
3,100,163,162,255

[TimingPoints]
304.852312849437,363.636363636364,4,2,1,75,1,0
58486,-100,4,2,1,80,0,1
70032,-100,4,2,1,80,0,0
70123,-100,4,2,1,80,0,1
81759,-100,4,2,1,50,0,0

[Colours]
Combo1 : 128,255,128
Combo2 : 80,200,240
Combo3 : 255,255,128
Combo4 : 255,128,255

[HitObjects]
112,44,304,6,0,L|136:132,1,80,4|8,0:0|0:0,0:0:0:0:
176,208,1032,2,0,P|256:216|296:192,1,120,0|0,0:0|0:0,0:0:0:0:
368,144,1941,2,0,L|400:228,1,80,0|2,0:0|0:0,0:0:0:0:
314,337,2850,1,8,0:0:0:0:
228,296,3213,6,0,P|168:280|144:280,1,80,2|8,0:0|0:0,0:0:0:0:
84,212,3941,2,0,P|144:196|168:196,1,80,0|0,0:0|0:0,0:0:0:0:
256,204,4668,2,0,P|336:224|408:184,1,160,2|2,0:0|0:0,0:0:0:0:
232,108,6123,6,0,B|188:124|172:164,1,80,2|8,0:0|0:0,0:0:0:0:
80,136,6850,2,0,B|68:200|128:244,1,120,0|0,0:0|0:0,0:0:0:0:
212,284,7759,2,0,L|304:268,1,80,0|0,0:0|0:0,0:0:0:0:
405,183,8668,1,8,0:0:0:0:
381,89,9032,6,0,P|333:113|313:145,1,80,2|8,0:0|0:0,0:0:0:0:
221,125,9759,2,0,P|250:80|251:42,1,80,0|10,0:0|0:0,0:0:0:0:
157,55,10486,2,0,P|121:107|225:219,1,240,2|8,0:0|0:0,0:0:0:0:
312,241,11941,6,0,L|400:221,1,80,4|8,0:0|0:0,0:0:0:0:
380,128,12668,2,0,L|301:145,1,80,0|8,0:0|0:0,0:0:0:0:
204,152,13395,2,0,P|160:144|124:116,1,80,0|8,0:0|0:0,0:0:0:0:
92,212,14123,2,0,P|136:220|172:248,1,80,0|8,0:0|0:0,0:0:0:0:
96,308,14850,6,0,P|36:292|0:204,1,160,2|0,0:0|0:0,0:0:0:0:
24,116,15941,1,8,0:0:0:0:
116,96,16304,2,0,P|176:112|192:272,1,240,0|8,0:0|0:0,0:0:0:0:
252,344,17759,6,0,P|292:348|332:344,1,80,0|8,0:0|0:0,0:0:0:0:
372,256,18486,2,0,P|332:252|292:256,1,80,0|8,0:0|0:0,0:0:0:0:
198,266,19213,2,0,P|162:302|156:336,1,80,0|8,0:0|0:0,0:0:0:0:
64,358,19941,2,0,P|28:322|20:286,1,80,0|8,0:0|0:0,0:0:0:0:
27,199,20668,6,0,P|71:155|131:147,2,120,2|2|10,0:0|0:0|0:0,0:0:0:0:
116,234,22123,2,0,L|204:234,1,80,0|8,0:0|0:0,0:0:0:0:
230,144,22850,2,0,P|286:188|282:276,1,160,2|4,0:0|0:0,0:0:0:0:
112,354,24304,6,0,L|94:265,1,80,0|8,0:0|0:0,0:0:0:0:
83,180,25032,2,0,L|172:162,1,80,0|8,0:0|0:0,0:0:0:0:
256,148,25759,2,0,L|274:237,1,80,0|8,0:0|0:0,0:0:0:0:
323,307,26486,6,0,P|265:317|183:247,1,160
26,154,27941,2,0,P|10:118|14:74,2,80,0|8|0,0:0|0:0|0:0,0:0:0:0:
112,196,29032,1,8,0:0:0:0:
148,284,29395,6,0,P|184:308|310:295,1,160,0|0,0:0|0:0,0:0:0:0:
389,278,30486,1,8,0:0:0:0:
454,207,30850,2,0,P|468:129|392:90,1,160,0|0,0:0|0:0,0:0:0:0:
312,79,31941,1,8,0:0:0:0:
250,152,32304,6,0,P|186:216|112:216,1,160,2|0,0:0|0:0,0:0:0:0:
312,216,33759,2,0,P|376:152|450:152,1,160,2|12,0:0|0:0,0:0:0:0:
348,320,35213,6,0,B|284:320|284:320|252:296|252:296|188:296,1,160,4|0,0:0|0:0,0:0:0:0:
111,249,36304,1,8,0:0:0:0:
195,203,36668,2,0,B|259:203|259:203|291:179|291:179|355:179,1,160,0|0,0:0|0:0,0:0:0:0:
424,120,37759,1,8,0:0:0:0:
500,180,38123,6,0,P|509:224|497:264,1,80,0|8,0:0|0:0,0:0:0:0:
408,284,38850,2,0,L|312:304,2,80,0|8|0,0:0|0:0|0:0,0:0:0:0:
229,207,40304,2,0,L|153:181,1,80,0|8,0:0|0:0,0:0:0:0:
94,104,41032,6,0,P|52:163|79:244,1,160,0|0,0:0|0:0,0:0:0:0:
146,306,42123,1,8,0:0:0:0:
227,255,42486,2,0,P|302:226|387:235,1,160,0|0,0:0|0:0,0:0:0:0:
463,280,43577,1,8,0:0:0:0:
511,196,43941,6,0,P|516:157|510:115,1,80,0|8,0:0|0:0,0:0:0:0:
424,73,44668,2,0,P|419:112|425:154,1,80,0|8,0:0|0:0,0:0:0:0:
374,234,45395,2,0,P|301:299|159:275,1,240,0|12,0:0|0:0,0:0:0:0:
86,230,46850,6,0,P|75:154|142:152,1,160
224,195,47941,1,8,0:0:0:0:
308,240,48304,2,0,P|383:221|362:160,1,160,0|0,0:0|0:0,0:0:0:0:
318,74,49395,1,8,0:0:0:0:
227,40,49759,6,0,L|139:40,1,80,0|8,0:0|0:0,0:0:0:0:
124,132,50486,2,0,L|36:132,2,80,0|8|0,0:0|0:0|0:0,0:0:0:0:
316,132,51941,2,0,P|356:156|368:196,1,80,0|12,0:0|0:0,0:0:0:0:
280,224,52668,6,0,P|240:300|168:312,1,160,2|0,0:0|0:0,0:0:0:0:
48,168,54123,2,0,P|88:92|160:80,1,160,2|0,0:0|0:0,0:0:0:0:
348,76,55577,5,4,0:0:0:0:
400,260,56304,1,0,0:0:0:0:
216,200,57032,2,0,P|176:176|136:172,1,80,0|0,0:0|0:0,0:0:0:0:
76,240,57759,2,0,P|116:264|156:268,1,80,8|8,0:0|0:0,0:0:0:0:
244,284,58486,6,0,P|284:260|300:228,2,80,4|8|0,0:0|0:0|0:0,0:0:0:0:
304,360,59577,2,0,P|364:304|388:212,1,160,8|8,0:0|0:0,0:0:0:0:
360,140,60668,2,0,P|331:109|308:72,1,80,0|8,0:0|0:0,0:0:0:0:
216,68,61395,6,0,P|144:120|64:112,1,160,2|0,0:0|0:0,0:0:0:0:
216,248,62850,2,0,P|248:276|256:316,1,80,2|10,0:0|0:0,0:0:0:0:
160,320,63577,2,0,P|128:292|120:252,1,80,2|10,0:0|0:0,0:0:0:0:
160,168,64304,6,0,P|240:124|316:108,2,160,2|0|2,0:0|0:0|0:0,0:0:0:0:
12,292,66486,2,0,P|52:320|92:328,1,80,2|2,0:0|0:0,0:0:0:0:
176,308,67213,5,2,0:0:0:0:
256,256,67577,1,8,0:0:0:0:
336,308,67941,2,0,P|376:292|404:264,1,80,0|8,0:0|0:0,0:0:0:0:
416,172,68668,2,0,P|364:84|256:132,1,240,2|8,0:0|0:0,0:0:0:0:
208,212,70123,6,0,P|152:248|132:252,2,80,4|8|0,0:0|0:0|0:0,0:0:0:0:
292,257,71213,2,0,P|235:317|155:343,1,160,8|8,0:0|0:0,0:0:0:0:
67,345,72304,1,0,0:0:0:0:
20,260,72668,1,8,0:0:0:0:
46,167,73032,6,0,B|100:186|114:242|114:242|170:240,1,160,2|0,0:0|0:0,0:0:0:0:
359,241,74486,2,0,P|403:249|435:269,1,80,2|10,0:0|0:0,0:0:0:0:
368,338,75213,2,0,P|324:330|292:310,1,80,2|10,0:0|0:0,0:0:0:0:
359,241,75941,6,0,P|387:173|359:77,2,160,2|0|2,0:0|0:0|0:0,0:0:0:0:
180,292,78123,2,0,L|92:300,1,80,2|10,0:0|0:0,0:0:0:0:
40,224,78850,6,0,L|119:216,1,80,2|8,0:0|0:0,0:0:0:0:
156,128,79577,2,0,L|77:136,1,80,2|12,0:0|0:0,0:0:0:0:
120,48,80304,2,0,B|166:44|166:44|231:57|243:122,2,160,0|12|4,0:0|0:0|0:0,0:0:0:0:
