osu file format v12

[General]
AudioFilename: Suneohair-Sakasama_Bridge_TV_Size(myfreemp3.eu).mp3
AudioLeadIn: 0
PreviewTime: 48128
Countdown: 0
SampleSet: Normal
StackLeniency: 0.7
Mode: 0
LetterboxInBreaks: 0
WidescreenStoryboard: 0

[Editor]
Bookmarks: 4807,11933,18308,24308,35553,43809,46809,58436,69310,84321
DistanceSpacing: 1.3
BeatDivisor: 4
GridSize: 8

[Metadata]
Title:Sakasama Bridge (TV Size)
TitleUnicode:逆様ブリッジ (TV Size)
Artist:Suneohair
ArtistUnicode:スネオヘアー
Creator:Nanika133
Version:Hard
Source:荒川アンダー ザ ブリッジ
Tags:Dainesl PyaKura Arakawa under the bridge
BeatmapID:306518
BeatmapSetID:99583

[Difficulty]
HPDrainRate:6
CircleSize:3
OverallDifficulty:6
ApproachRate:7
SliderMultiplier:1.4
SliderTickRate:1

[Events]
//Background and Video events
0,0,"1371177236895.jpeg",0,0
//Break Periods
//Storyboard Layer 0 (Background)
//Storyboard Layer 1 (Fail)
//Storyboard Layer 2 (Pass)
//Storyboard Layer 3 (Foreground)
//Storyboard Sound Samples
//Background Colour Transformations
3,100,163,162,255

[TimingPoints]
6317,375,4,1,0,58,1,0
7714,-100,4,1,0,38,0,0
7995,-100,4,1,0,58,0,0
10714,-100,4,1,0,38,0,0
10995,-100,4,1,0,58,0,0
12402,-100,4,1,0,38,0,0
12589,-100,4,1,0,58,0,0
19621,-100,4,1,0,38,0,0
19761,-100,4,1,0,58,0,0
20417,-100,4,1,0,38,0,0
20511,-100,4,1,0,58,0,0
24402,-100,4,1,0,38,0,0
24590,-100,4,1,0,58,0,0
24871,-100,4,1,0,38,0,0
25011,-100,4,1,0,58,0,0
25902,-100,4,1,0,38,0,0
26090,-100,4,1,0,58,0,0
28902,-100,4,1,0,38,0,0
29090,-100,4,1,0,58,0,0
32371,-100,4,1,0,38,0,0
32512,-100,4,1,0,58,0,0
33402,-100,4,1,0,38,0,0
33590,-100,4,1,0,58,0,0
37996,-100,4,1,0,38,0,0
38090,-100,4,1,0,58,0,0
39403,-100,4,1,0,38,0,0
39590,-100,4,1,0,58,0,0
41278,-100,4,1,0,38,0,0
41465,-100,4,1,0,58,0,0
42497,-100,4,1,0,38,0,0
42684,-100,4,1,0,58,0,0
44090,-100,4,1,0,38,0,0
44184,-100,4,1,0,58,0,0
48318,-100,4,1,0,58,0,1
55716,-100,4,1,0,38,0,1
55810,-100,4,1,0,58,0,1
56466,-100,4,1,0,38,0,1
56560,-100,4,1,0,58,0,1
59466,-100,4,1,0,38,0,1
59560,-100,4,1,0,58,0,1
60122,-100,4,1,0,38,0,1
60216,-100,4,1,0,58,0,1
60966,-100,4,1,0,38,0,1
61060,-100,4,1,0,58,0,1
64623,-100,4,1,0,38,0,1
64810,-100,4,1,0,58,0,1
66123,-100,4,1,0,38,0,1
66310,-100,4,1,0,58,0,1
66873,-100,4,1,0,38,0,1
66966,-100,4,1,0,58,0,1
67716,-100,4,1,0,38,0,1
67810,-100,4,1,0,58,0,1
68466,-100,4,1,0,38,0,1
68560,-100,4,1,0,58,0,1
71567,-100,4,1,0,58,0,0
75498,-100,4,1,0,38,0,0
75592,-100,4,1,0,58,0,0
84311,-100,4,2,0,55,0,0

[Colours]
Combo1 : 230,230,230
Combo2 : 255,172,89
Combo3 : 18,124,255
Combo4 : 244,77,102

[HitObjects]
112,304,6317,2,0,P|160:288|192:264,1,70,8|0,0:0|0:0,0:0:0:0:
184,184,6692,2,0,P|240:96|272:88,1,140,0|8,0:0|0:0,0:0:0:0:
304,192,7254,1,0,0:0:0:0:
216,336,7629,2,0,L|144:304,1,70,0|8,0:0|0:0,0:0:0:0:
16,200,8192,1,0,0:0:0:0:
136,80,8567,1,8,0:0:0:0:
208,40,8754,2,0,P|264:40|296:48,1,70
336,100,9129,5,0,0:0:0:0:
408,56,9317,1,8,0:0:0:0:
472,288,9692,2,0,P|464:344|376:368,1,140,0|8,0:0|0:0,0:0:0:0:
308,344,10254,1,0,0:0:0:0:
152,256,10629,2,0,L|208:192,1,70,8|0,0:0|0:0,0:0:0:0:
336,48,11192,1,0,0:0:0:0:
336,48,11567,2,0,P|296:32|240:32,1,70,8|0,0:0|0:0,0:0:0:0:
256,56,11848,2,0,L|224:96,1,35
124,152,12129,2,0,L|104:192,1,35
148,200,12317,6,0,P|168:244|200:272,1,70,0|0,0:0|0:0,0:0:0:0:
264,272,12692,2,0,P|320:276|392:228,1,140,8|0,0:0|0:0,0:0:0:0:
408,152,13254,1,0,0:0:0:0:
296,72,13442,2,0,P|240:68|168:116,1,140,8|0,0:0|0:0,0:0:0:0:
128,184,14004,1,0,0:0:0:0:
56,304,14192,2,0,P|56:253|26:162,1,140,8|0,0:0|0:0,0:0:0:0:
88,88,14754,1,0,0:0:0:0:
232,72,14942,1,8,0:0:0:0:
232,80,15317,5,0,0:0:0:0:
184,152,15504,1,0,0:0:0:0:
252,200,15692,2,0,P|316:216|372:176,1,140,8|0,0:0|0:0,0:0:0:0:
416,96,16254,1,0,0:0:0:0:
300,88,16442,2,0,P|252:88|220:72,1,70,8|0,0:0|2:0,0:0:0:0:
184,152,16817,2,0,P|176:216|160:240,1,70
244,268,17192,2,0,P|300:260|396:276,1,140,8|0,0:0|0:0,0:0:0:0:
460,304,17754,1,0,0:0:0:0:
456,184,17942,1,8,0:0:0:0:
448,176,18317,5,0,0:0:0:0:
404,104,18504,1,0,0:0:0:0:
328,144,18692,2,0,P|272:152|216:96,1,140,8|0,0:0|0:0,0:0:0:0:
140,132,19254,1,0,0:0:0:0:
64,240,19442,2,0,P|96:296|144:304,1,105,8|0,0:0|0:0,0:0:0:0:
172,292,19817,2,0,P|217:271|236:268,1,70
368,232,20192,2,0,P|408:216|480:216,1,105,8|0,0:0|0:0,0:0:0:0:
488,176,20567,2,0,L|512:88,1,70
392,24,20942,1,8,0:0:0:0:
144,56,21317,6,0,P|88:72|56:88,1,70
112,152,21692,2,0,P|176:168|208:240,1,140,8|0,0:0|0:0,0:0:0:0:
160,304,22254,1,0,0:0:0:0:
40,264,22442,2,0,L|-16:184,1,70,8|0,0:0|0:0,0:0:0:0:
56,144,22817,2,0,L|97:87,1,70
224,32,23192,2,0,P|304:32|360:72,1,140,8|0,0:0|0:0,0:0:0:0:
400,128,23754,1,0,0:0:0:0:
400,128,23942,2,0,P|392:176|384:208,1,70,8|2,0:0|0:2,0:0:0:0:
288,328,24317,6,0,B|256:312|256:312|200:312,1,70
104,304,24692,2,0,B|88:248|88:248|104:176,1,105,8|0,0:0|0:0,0:0:0:0:
108,176,25067,1,0,0:0:0:0:
144,96,25254,2,0,B|176:112|176:112|224:112,1,70,8|0,0:2|2:0,0:0:0:0:
296,120,25629,1,0,0:0:0:0:
296,120,25817,2,0,L|376:96,1,70
352,216,26192,2,0,L|312:289,1,70,8|0,0:0|2:0,0:0:0:0:
248,328,26567,1,0,0:0:0:0:
128,296,26754,2,0,B|88:280|88:280|32:280,1,70,8|0,0:2|2:0,0:0:0:0:
28,196,27129,5,0,0:0:0:0:
96,120,27317,1,0,0:0:0:0:
296,56,27692,2,0,P|360:56|440:96,1,140,8|0,0:0|0:0,0:0:0:0:
344,184,28254,2,0,P|280:184|200:144,1,140,8|0,0:2|0:0,0:0:0:0:
136,120,28817,2,0,L|80:188,1,70,0|0,0:0|0:0,0:0:0:0:
132,272,29192,2,0,L|228:264,1,70,8|0,0:0|2:0,0:0:0:0:
288,264,29567,1,0,0:0:0:0:
416,200,29754,2,0,B|432:168|432:168|432:120,1,70,12|0,0:2|0:0,0:0:0:0:
360,40,30129,2,0,L|336:0,2,35,0|0|4,0:0|0:0|0:2,0:0:0:0:
168,96,30692,6,0,P|56:152|56:160,1,140,8|0,0:0|0:0,0:0:0:0:
160,216,31254,2,0,P|272:160|272:152,1,140,8|0,0:2|0:0,0:0:0:0:
320,64,31817,1,0,0:0:0:0:
440,168,32192,2,0,P|440:240|448:280,1,105,8|0,0:0|0:0,0:0:0:0:
452,300,32567,1,0,0:0:0:0:
336,280,32754,2,0,P|280:248|264:248,1,70,8|0,0:0|0:0,0:0:0:0:
192,232,33129,1,0,0:0:0:0:
112,248,33317,6,0,P|60:260|20:244,1,70
188,152,33692,2,0,P|252:176|268:252,1,140,8|0,0:0|0:0,0:0:0:0:
272,328,34254,2,0,L|368:352,1,70,8|0,0:2|2:0,0:0:0:0:
424,344,34629,1,0,0:0:0:0:
464,272,34817,2,0,P|472:208|472:176,1,70,0|0,0:0|2:0,0:0:0:0:
464,120,35192,1,8,0:0:0:0:
296,48,35567,1,0,0:0:0:0:
184,80,35754,1,12,1:2:0:0:
72,224,36129,6,0,L|32:264,1,35
120,224,36317,2,0,P|167:231|202:154,1,140,0|8,0:0|0:0,0:0:0:0:
384,200,37067,1,0,0:0:0:0:
272,256,37254,2,0,B|232:272|232:272|200:312,1,70,8|2,0:0|2:2,0:0:0:0:
144,352,37629,1,0,0:0:0:0:
104,264,37817,2,0,L|72:184,1,70
184,128,38192,2,0,P|312:80|320:72,1,140,8|0,0:0|0:0,0:0:0:0:
400,120,38754,2,0,P|496:200|512:200,1,140,8|2,0:2|0:2,0:0:0:0:
464,280,39317,6,0,L|400:344,1,70,0|0,2:0|0:0,0:0:0:0:
272,312,39692,2,0,P|240:272|136:280,1,140,8|0,0:0|0:0,0:0:0:0:
32,296,40254,2,0,L|16:144,1,140,8|2,0:0|0:2,0:0:0:0:
17,156,40817,1,0,0:0:0:0:
256,80,41192,2,0,P|312:72|352:88,1,70,8|0,0:0|0:0,0:0:0:0:
400,112,41567,1,0,0:0:0:0:
328,216,41754,2,4,P|272:256|256:272,1,70,12|0,0:2|2:0,2:0:0:0:
208,312,42129,1,0,0:0:0:0:
80,256,42317,6,0,P|72:176|56:136,1,105,4|0,0:0|0:0,0:0:0:0:
72,128,42692,2,0,P|168:112|200:88,1,140,8|0,0:0|0:0,0:0:0:0:
304,160,43254,2,0,P|352:208|376:224,1,70,8|2,0:0|0:2,0:0:0:0:
416,272,43629,1,0,0:0:0:0:
312,304,43817,2,0,L|192:272,1,105
192,256,44192,2,0,P|184:200|136:128,1,140,8|2,0:0|0:2,0:0:0:0:
256,80,44754,2,0,L|336:40,1,70,8|2,0:0|0:2,0:0:0:0:
408,28,45129,1,0,0:0:0:0:
436,116,45317,6,0,L|468:196,1,70,4|0,2:0|2:0,0:0:0:0:
344,248,45692,2,0,B|304:264|304:264|272:296,1,70,8|2,0:0|2:2,0:0:0:0:
224,344,46067,1,0,0:0:0:0:
128,304,46254,2,0,B|108:284|108:284|68:268,1,70,8|2,0:0|2:2,0:0:0:0:
32,184,46629,1,0,0:0:0:0:
96,120,46817,2,0,B|131:102|131:102|181:99,1,70,2|0,0:0|0:0,0:0:0:0:
248,128,47192,2,0,L|312:176,1,70,8|0,0:0|0:0,0:0:0:0:
392,208,47567,1,0,0:0:0:0:
456,144,47754,6,0,L|488:84,5,35
456,72,48317,2,0,P|400:48|368:32,1,70
264,40,48692,2,0,L|168:152,1,140,10|0,0:2|0:0,0:0:0:0:
144,240,49254,1,0,0:0:0:0:
240,216,49442,2,0,P|312:200|376:216,1,140,10|0,0:2|0:0,0:0:0:0:
472,240,50004,1,0,0:0:0:0:
456,124,50192,2,0,P|424:76|344:36,1,140,10|0,0:2|0:0,0:0:0:0:
256,48,50754,1,0,0:0:0:0:
136,104,50942,1,10,0:2:0:0:
128,120,51317,5,0,0:0:0:0:
200,176,51504,1,0,0:0:0:0:
304,264,51692,2,0,P|275:323|208:340,1,140,10|0,0:2|0:0,0:0:0:0:
160,264,52254,1,0,0:0:0:0:
184,136,52442,2,0,B|224:136|224:136|264:152,1,70,10|0,0:2|0:0,0:0:0:0:
328,200,52817,2,0,P|320:264|304:288,1,70
176,272,53192,2,0,P|168:216|184:120,1,140,10|0,0:2|0:0,0:0:0:0:
392,136,53754,1,0,0:0:0:0:
400,272,53942,1,10,0:2:0:0:
384,280,54317,5,0,0:0:0:0:
312,224,54504,1,0,0:0:0:0:
216,144,54692,2,0,B|160:128|160:128|120:152|72:152,1,140,10|0,0:2|0:0,0:0:0:0:
40,232,55254,1,0,0:0:0:0:
144,304,55442,2,0,P|200:224|200:208,1,105,10|0,0:2|0:0,0:0:0:0:
180,180,55817,2,0,P|201:135|214:121,1,70
328,64,56192,2,0,P|367:80|418:131,1,105,10|0,0:2|0:0,0:0:0:0:
436,160,56567,2,0,L|412:248,1,70
304,328,56942,1,10,0:2:0:0:
128,328,57317,6,0,B|104:296|104:296|96:240,1,70
128,128,57692,2,0,P|192:128|240:200,1,140,10|0,0:2|0:0,0:0:0:0:
272,264,58254,1,0,0:0:0:0:
352,168,58442,2,0,L|400:96,1,70,10|0,0:2|0:0,0:0:0:0:
344,32,58817,2,0,L|303:89,1,70
216,184,59192,2,0,B|170:194|170:194|114:178,1,105,10|0,0:2|0:0,0:0:0:0:
72,168,59567,1,0,0:0:0:0:
80,80,59754,1,0,0:0:0:0:
192,32,59942,2,0,P|248:28|288:32,1,70,10|0,0:2|0:0,0:0:0:0:
272,128,60317,6,0,P|216:132|176:128,1,70
72,160,60692,2,0,P|80:224|72:288,1,105,10|0,0:2|0:0,0:0:0:0:
68,308,61067,1,0,0:0:0:0:
160,312,61254,2,0,B|200:312|240:328,1,70,0|10,0:0|0:2,0:0:0:0:
312,288,61629,1,0,0:0:0:0:
352,208,61817,2,0,B|323:179|306:140,1,70
224,152,62192,2,0,B|212:180|183:208,1,70,10|0,0:2|0:0,0:0:0:0:
128,280,62567,1,0,0:0:0:0:
128,280,62754,2,0,B|88:280|88:280|48:256,1,70,0|10,0:0|0:2,0:0:0:0:
16,184,63129,1,0,0:0:0:0:
72,112,63317,6,0,B|112:112|112:112|137:96,1,70,0|0,0:0|0:0,0:0:0:0:
256,24,63692,2,0,B|320:24|320:24|352:56|400:64,1,140,10|0,0:2|0:0,0:0:0:0:
440,136,64254,1,0,0:0:0:0:
376,256,64442,2,0,P|328:272|296:296,1,70,10|0,0:2|0:0,0:0:0:0:
240,240,64817,2,0,P|250:190|245:150,1,70
384,160,65192,2,0,P|421:193|458:209,1,70,10|0,0:2|0:0,0:0:0:0:
440,296,65567,1,0,0:0:0:0:
440,296,65754,1,0,0:0:0:0:
312,320,65942,2,0,P|264:328|216:328,1,70,10|0,0:2|0:0,0:0:0:0:
160,296,66317,5,0,0:0:0:0:
88,240,66504,1,0,0:0:0:0:
168,112,66692,2,0,L|216:56,1,70,10|0,0:2|0:0,0:0:0:0:
304,48,67067,2,0,P|328:80|368:104,1,70
328,232,67442,2,0,P|280:264|248:328,1,105,10|0,0:2|0:0,0:0:0:0:
216,328,67817,2,0,P|176:312|120:304,1,70
144,176,68192,2,0,P|183:135|227:66,1,105,10|0,0:2|0:0,0:0:0:0:
232,56,68567,2,0,B|275:47|275:47|314:57,1,70
432,128,68942,1,10,0:2:0:0:
256,192,69317,12,0,71192,0:0:0:0:
440,104,71567,5,0,0:0:0:0:
360,152,71754,2,0,L|312:176,6,35,0|0|0|0|0|0|4,0:0|0:0|0:0|0:0|0:0|0:0|0:2,0:0:0:0:
128,256,72692,6,0,P|88:216|32:192,1,105
48,152,73067,1,0,0:0:0:0:
136,56,73254,2,0,P|176:40|208:40,1,70,0|0,0:0|2:0,0:0:0:0:
296,48,73629,1,0,0:0:0:0:
376,88,73817,1,4,0:2:0:0:
368,352,74192,2,0,P|288:320|264:320,1,105
232,304,74567,2,0,L|200:240,1,70,0|0,0:2|0:0,0:0:0:0:
168,216,74848,2,0,L|160:168,1,35
208,88,75129,2,0,L|264:72,1,35,0|0,0:0|0:0,0:0:0:0:
256,120,75317,6,0,L|328:152,1,70,4|0,0:2|0:0,0:0:0:0:
384,240,75692,2,0,L|336:312,1,70
264,328,76067,1,0,0:0:0:0:
144,288,76254,2,0,P|120:240|128:200,1,70
200,128,76629,2,0,P|195:93|176:64,1,70,0|4,0:0|0:2,0:0:0:0:
424,56,77192,5,0,0:0:0:0:
408,152,77379,2,0,L|400:200,2,35
344,72,77754,2,0,L|304:32,2,35
296,160,78129,2,0,L|264:200,2,35,0|0|4,0:0|0:0|0:2,0:0:0:0:
72,312,78692,6,0,P|56:248|48:184,1,105,4|0,0:2|0:0,0:0:0:0:
72,168,79067,2,0,L|168:136,1,70,0|0,0:2|0:0,0:0:0:0:
240,80,79442,2,0,P|288:104|328:112,1,70,4|0,0:2|0:0,0:0:0:0:
384,144,79817,2,0,P|392:184|392:232,1,70,4|0,0:2|0:0,0:0:0:0:
296,288,80192,2,0,P|216:296|168:320,1,105,4|0,0:2|0:0,0:0:0:0:
152,312,80567,2,0,L|96:240,1,70
120,168,80942,1,4,0:2:0:0:
184,96,81129,2,0,L|208:48,1,35
232,120,81317,6,0,P|280:136|320:160,1,70,4|0,0:2|0:0,0:0:0:0:
360,208,81692,2,0,P|376:272|376:312,1,105,4|0,0:2|0:0,0:0:0:0:
368,336,82067,1,0,0:0:0:0:
232,328,82254,2,0,P|192:296|144:288,1,70
40,272,82629,2,0,P|40:208|56:176,1,70,0|4,0:0|0:2,0:0:0:0:
72,120,83004,1,0,0:0:0:0:
176,88,83192,2,0,P|240:80|280:96,1,105,4|0,0:2|0:0,0:0:0:0:
304,128,83567,2,0,L|344:168,4,35
136,64,84317,6,0,L|16:112,1,105
56,168,84692,2,0,L|88:248,1,70
224,248,85067,2,0,P|276:252|296:248,2,70
160,152,85629,2,0,P|88:144|72:144,1,70
48,248,86004,2,0,L|16:312,1,70
160,328,86379,2,0,L|232:336,1,70
368,320,86754,2,0,L|336:257,1,70
