osu file format v4

[General]
AudioFilename: mozaiku_kakera.mp3
AudioLeadIn: 0
AudioHash: c51c557fe94e810df4aefe3049d961c6
PreviewTime: 44946
Countdown: 0
SampleSet: Soft

[Metadata]
Title:Mozaiku Kakera
Artist:SunSet Swish
Creator:Echo49
Version:Normal

[Difficulty]
HPDrainRate:5
CircleSize:4
OverallDifficulty:5
SliderMultiplier: 1.4
SliderTickRate: 1

[Events]
//Background and Video events
0,-100000,"codegeass1.png"
//Break Periods
2,18839,25560
2,44685,47710
//Storyboard Layer 0 (Background)
4,0,0,"text.png",30,370 M,1,0,1000,-400,370,30,370 M,2,4000,5000,30,370,-400,370 F,0,4000,5000,1,0
//Storyboard Layer 1 (Failing)
//Storyboard Layer 2 (Passing)
//Storyboard Layer 3 (Foreground)
//Storyboard Sound Samples
//Background Colour Transformations
3,100,147,146,230

[TimingPoints]
3870,461.538461538462,4,2,0,100

[HitObjects]
64,128,3177,5,0
120,64,3408,1,0
176,128,3639,1,0
216,200,3870,2,0,B|216:200|261:293|358:339|472:312,1,280
392,64,5254,5,0
336,128,5485,1,0
296,200,5716,2,0,B|296:200|251:293|154:339|40:312,1,280
96,192,7100,5,0
184,192,7331,1,0
264,144,7562,2,0,B|264:144|448:66|513:184|431:196|513:210|449:323|256:232,1,490
200,200,9408,1,0
136,152,9639,1,2
200,104,9870,1,0
136,56,10100,1,2
400,296,11254,5,0
304,296,11716,1,0
208,296,12177,1,2
112,296,12639,1,0
112,88,13100,1,0
208,88,13562,1,0
304,88,14023,1,2
400,88,14485,1,0
256,192,14946,12,0,18639
72,80,26023,5,0
96,192,26485,1,0
192,136,26946,1,2
216,248,27408,1,0
440,80,27870,5,0
416,192,28332,1,0
320,136,28793,1,2
296,248,29255,1,0
152,120,29716,6,0,B|152:120|264:72|376:128,1,210
256,192,30870,1,2
256,304,31331,1,4
144,232,33408,5,0
200,328,33870,1,0
312,328,34331,1,2
368,232,34793,1,0
256,264,35254,2,0,B|256:264|256:40,1,210
424,64,37100,5,0
312,96,37562,1,0
312,96,37793,1,2
392,240,38485,1,0
104,344,38946,5,0
104,248,39408,1,0
104,152,39870,1,2
104,56,40331,1,0
200,56,40793,5,0
296,56,41254,2,0,B|296:56|391:64|408:168,1,140
304,192,42177,2,0,B|304:192|209:200|192:304,1,140
296,320,43100,2,0,B|296:320|391:312|408:208,1,140
176,192,44023,5,2
256,192,44254,1,0
336,192,44485,1,4
56,56,48177,5,4
144,120,48639,2,0,B|144:120|176:88|184:40,2,70
232,184,49562,2,0,B|232:184|229:212|197:244,2,70
304,280,50485,1,0
376,320,50716,1,0
456,320,50946,1,2
456,216,51408,1,0
456,136,51639,1,0
456,56,51870,5,4
368,120,52332,2,0,B|368:120|336:88|328:40,2,70
280,184,53255,2,0,B|280:184|283:212|315:244,2,70
208,280,54178,1,0
136,320,54409,1,0
56,320,54639,1,2
56,216,55101,1,0
56,136,55332,1,0
56,56,55562,5,4
168,56,56023,2,0,B|168:56|257:60|312:88,1,140
400,136,56946,1,0
400,216,57177,1,0
400,296,57408,5,2
304,296,57870,1,0
208,296,58331,1,2
112,296,58793,1,0
160,192,59254,2,0,B|160:192|201:96|258:74|316:98|352:193,3,280
456,136,62485,5,0
400,80,62716,1,0
328,48,62946,1,2
184,48,63408,5,0
112,80,63638,1,0
56,136,63869,1,0
224,192,64331,6,0,B|224:192|312:192,2,70
56,248,65254,5,2
112,304,65485,1,0
188,336,65716,2,0,B|188:336|328:336,1,140
400,304,66407,1,0
456,248,66638,1,0
320,224,67100,6,0,B|320:224|252:277|176:212,1,140
176,128,68023,1,2
288,128,68485,2,0,B|288:128|360:128,3,70
448,272,69870,5,2
336,272,70331,2,0,B|336:272|304:240|296:192,2,70
176,216,71254,2,0,B|176:216|179:244|211:276,2,70
80,272,72177,2,0,B|80:272|48:240|40:192,2,70
256,192,73100,12,4,75639
448,128,77023,5,0
392,64,77254,1,2
336,128,77485,1,0
296,200,77716,2,0,B|296:200|251:293|154:339|40:312,1,280
120,64,79100,5,2
176,128,79331,1,0
216,200,79562,2,0,B|216:200|261:293|358:339|472:312,1,280
416,192,80946,5,2
328,192,81177,1,0
248,144,81408,2,0,B|248:144|64:66|-1:184|81:196|-1:210|63:323|256:232,1,490
312,200,83254,1,0
376,152,83485,1,2
312,104,83716,1,0
376,56,83946,1,4
112,296,85100,5,0
208,296,85562,1,0
304,296,86023,1,2
400,296,86485,1,0
400,88,86946,1,0
304,88,87408,1,0
208,88,87869,1,2
112,88,88331,1,0
256,192,88792,12,0,91793
