osu file format v9

[General]
AudioFilename: SunSet Swish - Mosaic Kakera (TV Size).mp3
AudioLeadIn: 2000
PreviewTime: 44717
Countdown: 0
SampleSet: Soft
StackLeniency: 0.7
Mode: 1
LetterboxInBreaks: 1

[Editor]
DistanceSpacing: 0.8
BeatDivisor: 4
GridSize: 8

[Metadata]
Title:Mosaic Kakera (TV Size)
Artist:SunSet Swish
Creator:Giorgos
Version:lepidon! - Taiko Oni
Source:Code Geass: Lelouch of the Rebellion
Tags:KanaRin lepidon lepidopodus Louis Cyphre Lucifer

[Difficulty]
HPDrainRate:5
CircleSize:5
OverallDifficulty:5
ApproachRate:5
SliderMultiplier:1.4
SliderTickRate:1

[Events]
//Background and Video events
0,0,"TaikoBG.png"
//Break Periods
//Storyboard Layer 0 (Background)
//Storyboard Layer 1 (Fail)
//Storyboard Layer 2 (Pass)
//Storyboard Layer 3 (Foreground)
//Storyboard Sound Samples
//Background Colour Transformations
3,100,163,162,255

[TimingPoints]
1102,461.538461538462,4,2,0,80,1,0
45409,-100,4,2,0,90,0,1
84178,-100,4,2,0,80,0,0

[Colours]
Combo1 : 0,255,255
Combo2 : 255,0,0
Combo3 : 128,0,255
Combo4 : 255,255,0
Combo5 : 0,255,0

[HitObjects]
272,144,1101,1,8
372,193,1563,1,8
367,248,1794,1,8
312,262,2025,1,8
202,285,2486,1,8
207,229,2717,1,8
213,173,2948,1,8
311,225,3409,1,8
360,250,3640,1,8
378,303,3871,1,8
327,325,4101,1,8
271,317,4332,1,8
225,284,4563,1,8
229,228,4794,1,8
340,224,5255,1,8
388,251,5486,1,8
372,304,5717,1,8
300,260,6178,1,8
273,210,6409,1,8
269,154,6640,1,8
325,153,6871,1,8
366,190,7101,1,8
370,245,7332,1,8
285,319,7794,1,8
231,302,8025,1,8
225,246,8255,1,8
196,197,8486,5,8
304,169,8948,1,8
351,198,9178,1,8
339,252,9409,1,8
241,308,9871,1,8
232,252,10101,1,8
278,283,10332,1,8
388,266,10794,1,8
321,176,11255,1,8
253,265,11717,1,8
341,197,12178,1,4
373,32,12871,2,4,B|306:191|236:212,1,210
327,178,14025,1,4
365,252,14371,1,4
282,270,14717,1,4
314,224,14948,1,0
331,201,15063,1,0
348,179,15178,1,0
403,175,15409,1,8
388,229,15640,1,0
359,276,15871,5,4
438,197,16332,1,8
389,168,16563,1,4
277,155,17025,1,0
319,118,17255,1,8
374,112,17486,1,12
461,181,17948,1,8
435,231,18178,1,0
380,217,18409,1,8
331,245,18640,1,0
303,239,18755,1,0
278,262,18871,1,0
320,225,19102,1,8
364,190,19332,1,0
377,135,19563,1,4
480,178,20025,1,8
436,212,20255,1,4
427,100,20717,1,0
448,151,20948,1,8
456,206,21178,1,4
124,259,22563,1,8
177,244,22794,1,0
253,162,23255,5,0
364,165,23717,1,8
382,217,23948,1,0
473,151,24409,1,8
463,206,24640,1,0
481,258,24871,1,8
412,266,25102,1,0
358,283,25332,1,0
390,237,25563,1,8
419,189,25794,1,0
307,179,26255,1,0
362,173,26486,1,8
394,218,26717,1,0
338,214,26948,1,0
392,116,27409,1,8
422,163,27640,1,0
363,258,28102,1,0
401,217,28332,1,8
444,252,28563,1,0
435,307,28794,1,0
384,281,29025,1,0
403,228,29255,1,8
392,172,29486,1,0
300,107,29948,1,0
350,131,30178,1,8
242,164,30640,5,0
353,174,31102,1,8
402,200,31332,1,0
447,302,31794,1,8
450,246,32025,1,0
442,190,32255,1,8
392,216,32486,1,0
338,199,32717,1,0
377,158,32948,1,8
394,211,33178,1,0
423,163,33640,1,8
387,206,33871,1,0
354,251,34102,1,0
305,222,34332,1,0
265,182,34563,1,0
423,163,34794,1,8
423,163,35025,1,0
332,228,35486,1,8
387,217,35717,1,0
437,193,35948,1,8
383,177,36178,1,0
471,108,36640,1,8
452,160,36871,1,0
428,210,37102,1,0
391,252,37332,1,0
380,196,37563,1,8
361,249,37794,1,0
352,275,37909,1,0
273,161,38025,5,0
384,155,38486,1,8
432,183,38717,1,0
405,192,38832,1,0
413,236,38948,1,0
477,144,39409,1,8
461,197,39640,1,0
444,219,39755,1,0
433,245,39871,1,0
350,261,40217,1,0
358,234,40332,1,8
376,286,40563,1,0
323,267,40794,1,0
301,185,41140,1,0
327,177,41255,1,8
370,212,41486,1,0
401,165,41717,1,0
403,221,41948,1,0
393,247,42063,1,0
420,252,42178,1,8
446,202,42409,1,0
450,174,42525,1,0
467,151,42640,1,8
457,206,42871,1,0
451,233,42986,1,0
451,233,43102,1,8
342,212,43563,1,4
265,293,44025,1,4
334,205,44486,1,4
385,183,44717,1,0
412,177,44832,1,0
439,181,44948,1,8
428,235,45178,1,0
372,231,45409,5,0
276,172,45871,1,8
221,184,46102,1,0
428,235,46332,1,0
381,266,46563,1,0
437,145,46794,1,8
404,190,47025,1,0
387,212,47140,1,0
327,169,47255,1,0
428,235,47717,1,8
446,181,47948,1,0
398,209,48178,1,0
355,245,48409,1,0
409,232,48640,1,8
451,268,48871,1,8
440,293,48986,1,8
448,127,49102,1,0
379,215,49563,1,8
434,220,49794,1,0
424,275,50025,1,8
455,167,50486,1,8
421,211,50717,1,0
385,254,50948,1,0
332,272,51178,1,0
304,265,51294,1,0
455,167,51409,1,8
421,211,51640,1,0
311,188,52102,1,0
363,168,52332,1,8
389,217,52563,1,0
386,272,52794,5,0
436,172,53255,1,8
447,226,53486,1,0
414,271,53717,1,0
372,309,53948,1,0
371,253,54178,1,8
318,232,54409,1,0
314,259,54525,1,0
312,286,54640,1,0
281,239,54871,1,0
329,211,55102,1,8
384,218,55332,1,0
398,242,55448,1,0
404,269,55563,1,0
406,324,55794,1,0
426,271,56025,1,8
372,254,56255,1,0
317,242,56486,1,0
394,161,56948,1,8
426,206,57178,1,0
372,254,57409,1,0
312,253,57640,1,0
394,161,57871,1,8
290,144,58332,1,4
312,253,58794,1,4
361,226,59025,1,0
388,219,59140,1,0
409,200,59255,1,8
406,255,59486,1,0
399,282,59602,1,0
418,261,59717,1,8
436,208,59948,1,0
420,184,60063,1,0
395,170,60178,5,0
481,98,60640,1,8
449,144,60871,1,0
413,187,61102,1,0
372,225,61332,1,0
420,196,61563,1,8
409,251,61794,1,0
400,277,61909,1,0
388,302,62025,1,0
388,190,62486,1,8
419,143,62717,1,0
425,198,62948,1,0
398,247,63178,1,0
427,199,63409,1,8
478,176,63640,1,8
478,176,63755,1,8
481,203,63871,1,0
408,118,64332,1,8
398,247,64563,1,0
478,176,64794,1,8
402,258,65255,1,8
416,203,65486,1,0
435,255,65717,1,0
381,238,65948,1,0
367,262,66063,1,0
397,184,66178,1,8
435,255,66409,1,0
323,242,66871,1,0
363,203,67102,1,8
373,148,67332,1,0
401,99,67563,5,0
436,172,68025,1,8
447,226,68255,1,0
414,271,68486,1,0
372,309,68717,1,0
371,253,68948,1,8
318,232,69178,1,0
314,259,69294,1,0
312,286,69409,1,0
281,239,69640,1,0
253,233,69755,1,0
329,211,69871,1,8
384,218,70102,1,0
398,242,70217,1,0
404,269,70332,1,0
406,324,70563,1,0
426,271,70794,1,8
419,159,71255,1,0
307,165,71717,1,8
325,217,71948,1,0
292,294,72063,1,0
307,270,72178,1,0
274,315,72409,1,0
325,292,72640,1,8
379,279,72871,1,0
328,254,73102,1,4
395,112,73563,1,4
420,162,73794,1,8
420,189,73909,1,8
416,216,74025,1,0
360,208,74255,1,0
331,206,74371,1,0
303,209,74486,1,0
251,230,74717,1,0
199,251,74948,5,0
295,193,75409,1,8
335,232,75640,1,0
355,250,75755,1,0
375,269,75871,1,0
410,226,76102,1,0
427,173,76332,1,8
412,227,76563,1,0
407,254,76678,1,0
397,280,76794,1,0
434,174,77255,1,8
434,174,77486,1,0
437,201,77602,1,0
437,228,77717,1,0
406,274,77948,1,0
394,219,78178,1,8
351,182,78409,1,8
327,165,78525,1,8
345,144,78640,1,0
457,147,79102,1,8
462,202,79332,1,0
407,189,79563,1,8
358,289,80025,1,8
413,284,80255,1,0
468,289,80486,1,0
407,189,80717,1,0
393,213,80832,1,0
450,153,80948,1,8
465,206,81178,1,0
355,231,81640,1,0
450,153,81871,1,8
424,203,82101,1,0
403,254,82332,1,0
433,146,82794,1,8
427,201,83025,1,0
378,269,83140,1,0
396,247,83255,1,0
360,290,83486,1,0
384,239,83717,1,8
417,193,83948,1,0
280,244,84178,5,8
392,244,84640,1,8
280,236,85101,1,8
391,243,85563,1,8
306,316,86025,1,8
429,202,86717,2,0,B|432:60|432:60|38:47|38:47|53:295,1,770
