osu file format v9

[General]
AudioFilename: SunSet Swish - Mosaic Kakera (TV Size).mp3
AudioLeadIn: 2000
PreviewTime: 44717
Countdown: 0
SampleSet: Soft
StackLeniency: 0.7
Mode: 0
LetterboxInBreaks: 1

[Editor]
DistanceSpacing: 0.8
BeatDivisor: 4
GridSize: 8

[Metadata]
Title:Mosaic Kakera (TV Size)
Artist:SunSet Swish
Creator:Giorgos
Version:Normal
Source:Code Geass: Lelouch of the Rebellion
Tags:KanaRin lepidon lepidopodus Louis Cyphre Lucifer

[Difficulty]
HPDrainRate:4
CircleSize:4
OverallDifficulty:4
ApproachRate:4
SliderMultiplier:1.4
SliderTickRate:1

[Events]
//Background and Video events
0,0,"code-geass-code-geass-1998532-1024-768.jpg"
//Break Periods
//Storyboard Layer 0 (Background)
//Storyboard Layer 1 (Fail)
//Storyboard Layer 2 (Pass)
//Storyboard Layer 3 (Foreground)
//Storyboard Sound Samples
//Background Colour Transformations
3,100,163,162,255

[TimingPoints]
1102,461.538461538462,4,2,0,60,1,0
45409,-100,4,2,0,60,0,1
59717,-100,4,2,0,60,0,0
60178,-100,4,2,0,60,0,1
74486,-100,4,2,0,60,0,0
74948,-100,4,2,0,60,0,1
86025,-100,4,2,0,20,0,0
88988,-100,4,2,0,0,0,0

[Colours]
Combo1 : 0,255,255
Combo2 : 255,0,0
Combo3 : 128,0,255
Combo4 : 255,255,0
Combo5 : 0,255,0

[HitObjects]
96,208,640,1,0
96,312,1102,1,8
208,312,1563,2,0,B|360:312,1,140,0|8
344,200,2486,1,0
272,112,2948,1,8
208,200,3409,1,0
96,208,3871,2,0,B|112:288|192:312|208:304,1,140,8|0
296,304,4794,5,8
296,184,5255,2,0,B|232:160|224:128|248:128,2,70,0|0|8
408,184,6178,2,0,B|472:160|480:128|456:128,2,70,0|0|8
344,88,7102,1,0
232,88,7563,1,8
152,168,8025,6,0,B|56:288|56:288,1,140,0|8
168,320,8948,2,0,B|272:184,1,140,0|8
368,208,9871,1,0
432,304,10332,1,8
496,208,10794,1,0
432,120,11255,1,8
368,208,11717,1,0
240,208,12178,6,0,B|80:208|80:320|248:320,1,280,8|8
352,320,13563,1,0
352,192,14025,2,0,B|456:192,2,105,4|4|4
200,208,15409,6,0,B|129:153|192:90,1,140,0|12
80,240,16563,1,4
256,320,17255,1,0
256,320,17486,1,4
376,280,17948,1,0
256,240,18409,1,0
256,128,18871,1,8
360,160,19332,1,0
360,224,19563,6,0,B|360:296|424:312|488:296|488:224,1,210,12|4
488,96,20717,1,0
360,96,21178,1,4
256,192,21409,12,0,22794
240,176,23255,5,0
128,176,23717,1,8
128,288,24178,2,0,B|224:288,3,70,0|0|8|0
312,288,25332,2,0,B|391:280|425:217,1,140
320,176,26255,6,0,B|320:96,3,70,0|8|0|0
232,176,27409,2,0,B|160:176|112:112,1,140,8|0
16,176,28332,2,0,B|16:264|112:296,1,140,8|0
200,288,29255,1,8
280,208,29717,1,0
360,288,30178,1,8
472,288,30640,6,0,B|472:144,1,140,0|8
360,144,31563,1,0
360,144,32025,1,8
248,144,32486,1,0
136,144,32948,2,0,B|136:256|224:240,2,140,8|0|8
248,144,34332,5,0
360,144,34794,2,0,B|360:256|272:240,2,140,8|0|8
248,144,36178,1,0
248,144,36640,1,8
136,144,37102,1,0
136,144,37563,1,8
136,256,38025,6,0,B|296:256,1,140,0|8
272,128,38948,2,0,B|120:128,1,140,0|8
24,136,39871,6,0,B|16:208|96:248,1,140,0|8
208,248,40794,2,0,B|285:209|277:137,1,140,0|8
256,192,41717,12,0,43102
272,184,43563,5,4
272,296,44025,1,4
160,296,44486,1,0
160,184,44948,2,0,B|160:40,1,140,8|4
272,48,45871,6,0,B|416:48,1,140,8|0
416,160,46794,2,0,B|416:304,1,140,8|0
312,256,47717,5,8
312,256,48178,1,0
200,256,48640,1,8
88,256,49102,6,0,B|88:112|88:112,1,140,0|8
199,119,50025,2,0,B|200:136|256:168|320:136|320:118,1,140
424,112,50948,2,0,B|424:280,1,140,0|8
312,256,51871,1,0
240,344,52332,5,8
168,256,52794,1,0
240,176,53255,2,0,B|240:8,1,140,8|0
128,40,54178,1,8
64,128,54640,5,0
128,216,55102,1,8
64,312,55563,1,0
64,312,56025,1,8
176,312,56486,2,0,B|320:312,1,140,0|8
312,200,57409,6,0,B|152:200,1,140,0|8
232,104,58332,1,4
232,104,58794,1,12
152,184,59255,1,4
232,104,59717,1,12
312,184,60178,5,4
232,264,60640,2,0,B|232:360,2,70,8|0|0
344,264,61563,1,8
456,264,62025,1,0
456,152,62486,1,8
344,152,62948,1,0
288,56,63409,1,8
400,56,63871,5,0
288,56,64332,2,0,B|232:112,2,70,8|0|0
400,56,65255,1,8
400,168,65717,2,0,B|400:248,2,70,0|0|8
288,168,66640,1,0
216,256,67102,5,8
144,168,67563,1,0
76,80,68025,2,0,B|216:80,1,140,8|0
328,80,68948,2,0,B|472:80,1,140,8|0
472,192,69871,1,8
400,280,70332,1,0
400,280,70794,1,8
256,192,71255,12,0,74025
256,192,74486,6,0,B|256:272|352:320,1,140,8|4
352,192,75409,2,0,B|422:158|422:78,1,140,8|0
312,80,76332,6,0,B|168:80,1,140,12|0
96,160,77255,1,8
96,272,77717,1,0
192,216,78178,1,8
288,160,78640,6,0,B|440:160,1,140,0|8
432,48,79563,2,0,B|272:48,1,140,0|8
176,48,80486,2,0,B|192:96|112:168,1,140,0|8
160,264,81409,2,0,B|144:312|224:384,1,140,0|8
336,384,82332,5,0
448,384,82794,2,0,B|512:304|496:256,1,140,8|0
408,184,83717,2,0,B|248:184,1,140,8|0
264,72,84640,5,0
376,72,85102,1,0
264,72,85563,1,0
256,192,86025,12,0,89255
