osu file format v9

[General]
AudioFilename: Maybe.mp3
AudioLeadIn: 0
PreviewTime: 45233
Countdown: 0
SampleSet: Soft
StackLeniency: 0.7
Mode: 0
LetterboxInBreaks: 1

[Editor]
DistanceSpacing: 1.1
BeatDivisor: 4
GridSize: 4

[Metadata]
Title:Maybe
Artist:Sun Ye
Creator:IchiGUN
Version:Hard
Source:Dream High
Tags:Wonder Girls Black_Cherry_Ita BCI kosiga

[Difficulty]
HPDrainRate:6
CircleSize:4
OverallDifficulty:6
ApproachRate:7
SliderMultiplier:1.4
SliderTickRate:2

[Events]
//Background and Video events
0,0,"bg.jpg"
//Break Periods
2,65850,68200
//Storyboard Layer 0 (Background)
//Storyboard Layer 1 (Fail)
//Storyboard Layer 2 (Pass)
//Storyboard Layer 3 (Foreground)
//Storyboard Sound Samples
//Background Colour Transformations
3,100,163,162,255

[TimingPoints]
5650,600,4,2,0,50,1,0
21400,-100,4,2,0,40,0,0
23050,-100,4,2,0,30,0,0
27100,-100,4,1,0,40,0,0
27400,-100,4,2,0,60,0,0
29500,-100,4,1,0,40,0,0
29800,-100,4,2,0,60,0,0
31900,-100,4,1,0,40,0,0
32200,-100,4,2,0,60,0,0
34300,-100,4,1,0,40,0,0
34600,-100,4,2,0,60,0,0
36700,-100,4,1,0,40,0,0
37000,-100,4,2,0,60,0,0
39100,-100,4,1,0,40,0,0
39400,-100,4,2,0,60,0,0
42250,-100,4,2,0,50,0,0
43450,-100,4,2,0,40,0,0
45100,-100,4,2,0,60,0,0
46300,-100,4,2,0,70,0,0
46450,-100,4,2,0,70,0,1
48700,-100,4,1,0,40,0,1
49000,-100,4,2,0,70,0,1
51100,-100,4,1,0,40,0,1
51700,-100,4,2,0,70,0,1
53500,-100,4,1,0,40,0,1
53800,-100,4,2,0,70,0,1
58300,-100,4,1,0,40,0,1
58600,-100,4,2,0,70,0,1
60700,-100,4,1,0,40,0,1
61000,-100,4,2,0,70,0,1
64750,-100,4,2,0,40,0,1
65350,-100,4,2,0,30,0,1
65650,-100,4,2,0,50,0,0
70300,-100,4,2,0,50,0,0
79900,-100,4,1,0,40,0,0
80200,-100,4,2,0,50,0,0
82300,-100,4,1,0,40,0,0
82600,-100,4,2,0,50,0,0
85450,-100,4,2,0,60,0,0
86650,-100,4,2,0,70,0,0
88600,-100,4,2,0,50,0,0
89500,-100,4,2,0,70,0,0
89650,-100,4,2,0,70,0,1
91900,-100,4,1,0,40,0,1
92200,-100,4,2,0,70,0,1
94300,-100,4,1,0,40,0,1
94900,-100,4,2,0,70,0,1
96700,-100,4,1,0,40,0,1
97000,-100,4,2,0,70,0,1
101500,-100,4,1,0,40,0,1
101800,-100,4,2,0,70,0,1
103900,-100,4,1,0,40,0,1
104500,-100,4,2,0,70,0,1
106300,-100,4,2,0,50,0,1
108250,-100,4,2,0,40,0,1
108850,-100,4,2,0,60,0,0
123100,-100,4,2,0,70,0,0
128050,-100,4,2,0,70,0,1
130300,-100,4,1,0,40,0,1
130600,-100,4,2,0,70,0,1
132700,-100,4,1,0,40,0,1
133000,-100,4,2,0,70,0,1
135100,-100,4,1,0,40,0,1
135400,-100,4,2,0,70,0,1
139900,-100,4,1,0,40,0,1
140200,-100,4,2,0,70,0,1
142300,-100,4,1,0,40,0,1
142900,-100,4,2,0,70,0,1
147250,-100,4,2,0,70,0,0
149500,-100,4,2,0,60,0,0
152650,-100,4,2,0,50,0,0
162250,-100,4,2,0,40,0,0
163900,-100,4,2,0,20,0,0
165850,-100,4,2,0,30,0,0

[Colours]
Combo1 : 248,233,48
Combo2 : 221,2,7
Combo3 : 79,186,221

[HitObjects]
52,196,6700,6,0,B|28:152,1,35,0|2
44,56,7300,1,0
116,32,7600,1,2
216,88,8050,2,0,B|216:176|304:176,1,140,0|8
460,188,9100,6,0,B|484:232,1,35,0|2
476,296,9550,1,0
468,328,9700,1,0
396,352,10000,1,2
296,296,10450,2,0,B|296:208|208:208,1,140,0|8
96,208,11500,5,0
60,220,11650,1,2
24,288,11950,1,0
44,324,12100,1,0
112,356,12400,1,2
212,296,12850,2,0,B|212:208|300:208,1,140,0|8
416,176,13900,5,0
452,164,14050,1,2
488,96,14350,1,0
468,60,14500,1,0
400,28,14800,1,2
296,80,15250,2,0,B|296:168|208:168,1,140,0|8
96,192,16300,6,0,B|64:204,1,35,0|2
36,276,16750,1,0
172,348,17350,1,0
244,324,17650,2,0,B|291:285|291:226,2,105,4|0|0
80,160,19450,5,2
132,103,19750,1,0
200,67,20050,2,0,B|241:97|244:158,2,105,4|0|0
256,192,21550,12,2,23050
256,328,23950,5,2
256,174,24550,2,0,B|264:150|264:150|324:134|344:62|328:10|256:-2|212:6|200:38,1,280,2|0
155,90,26050,2,0,B|111:107|92:73,2,70,0|0|8
156,244,27250,5,4
210,298,27550,1,0
234,325,27700,1,0
268,340,27850,1,8
404,272,28450,2,0,B|460:204,1,70,0|0
378,185,29050,2,0,B|398:109,1,70,8|0
324,88,29650,5,0
264,40,29950,1,0
228,32,30100,1,0
192,40,30250,1,8
76,52,30700,6,0,B|52:80,1,35,0|0
40,156,31150,1,0
60,188,31300,1,2
124,232,31600,1,0
240,244,32050,5,0
304,200,32350,1,0
324,168,32500,1,0
339,137,32650,1,8
440,80,33100,6,0,B|460:120,1,35,0|0
468,188,33550,1,0
448,220,33700,1,2
392,272,34000,1,0
296,336,34450,5,0
224,308,34750,1,0
188,296,34900,1,0
172,260,35050,1,8
104,228,35350,5,0
104,32,35650,1,8
272,132,35950,1,0
160,124,36250,1,4
244,284,36550,5,0
244,284,36850,1,0
336,352,37300,1,0
451,341,37750,1,4
484,112,38650,5,8
484,112,38950,1,0
420,68,39250,1,0
308,36,39700,1,0
256,140,40150,1,4
256,192,40750,12,2,42850
256,192,43150,12,4,44650
104,36,45250,5,0
60,100,45550,1,0
48,136,45700,1,0
48,212,46000,1,0
104,312,46450,1,4
252,356,47050,6,0,B|329:364|366:290,1,140,8|0
408,228,47950,1,0
424,192,48100,1,0
440,116,48400,1,0
360,32,48850,1,4
208,28,49450,6,0,B|131:20|94:94,1,140,8|0
68,164,50350,2,0,B|60:204,1,35
48,276,50800,1,0
132,352,51250,1,4
284,364,51850,6,0,B|361:372|398:298,1,140,8|0
424,228,52750,2,0,B|404:192,1,35
336,164,53200,1,0
220,164,53650,1,4
272,108,53950,6,0,B|252:72,1,35
180,56,54400,2,0,B|140:4|88:40,1,105,0|0
32,92,55150,1,0
56,124,55300,1,0
76,200,55600,1,0
36,308,56050,1,4
184,356,56650,6,0,B|255:326|253:244,1,140,8|0
220,176,57550,1,0
196,144,57700,1,0
180,68,58000,1,0
288,28,58450,1,4
436,64,59050,6,0,B|490:118|456:194,1,140,8|0
424,264,59950,2,0,B|396:284,1,35
332,328,60400,1,0
220,352,60850,1,4
96,264,61450,6,0,B|29:225|42:143,1,140,8|0
68,72,62350,2,0,B|104:48,1,35
172,28,62800,1,0
256,108,63250,1,4
256,192,63400,12,2,65650
256,192,69100,6,0,B|256:228,1,35
256,304,69550,1,0
280,336,69700,1,0
356,356,70000,1,2
456,296,70450,2,0,B|456:208|368:208,1,140,8|0
256,192,71500,6,0,B|256:156,1,35
256,80,71950,1,0
232,48,72100,1,0
156,28,72400,1,2
56,88,72850,2,0,B|56:176|144:176,1,140,8|0
256,196,73900,5,0
256,156,74050,1,0
256,80,74350,1,0
280,48,74500,1,0
356,28,74800,1,2
456,88,75250,2,0,B|456:176|368:176,1,140,8|0
256,195,76300,5,0
256,235,76450,1,0
256,311,76750,1,0
232,343,76900,1,0
156,363,77200,1,2
56,303,77650,2,0,B|56:215|144:215,1,140,8|0
216,232,78550,6,0,B|260:244|288:216,1,70
349,182,79150,1,0
312,32,79750,1,0
244,68,80050,2,0,B|216:76|216:76|232:108|196:108|196:108|204:144,2,105
404,236,81850,5,0
364,304,82150,1,0
288,316,82450,2,0,B|260:324|260:324|256:288|225:308|225:308|213:274,2,105
256,192,84550,12,0,86650
256,192,86950,12,4,88450
364,64,88750,5,0
396,84,88900,1,0
444,144,89200,1,0
476,256,89650,1,4
360,356,90250,6,0,B|283:364|246:290,1,140,8|0
228,216,91150,1,0
240,180,91300,1,0
216,108,91600,1,0
136,24,92050,1,4
36,140,92650,6,0,B|-7:204|40:271,1,140,8|0
96,324,93550,2,0,B|136:332,1,35
208,344,94000,1,0
256,240,94450,1,4
308,92,95050,6,0,B|271:23|189:34,1,140,8|0
120,60,95950,2,0,B|104:100,1,35
36,124,96400,1,0
140,176,96850,1,4
68,200,97150,6,0,B|48:236,1,35
48,308,97600,2,0,B|72:368|140:352,1,105,0|0
208,356,98350,1,0
247,348,98500,1,0
312,305,98800,1,0
355,198,99250,1,4
476,104,99850,6,0,B|448:32|365:33,1,140,8|0
288,28,100750,2,0,B|252:28,1,35
176,28,101200,1,0
216,136,101650,1,4
76,64,102250,6,0,B|22:118|56:194,1,140,8|0
88,264,103150,2,0,B|116:284,1,35
180,328,103600,1,0
292,352,104050,1,4
416,264,104650,6,0,B|483:225|470:143,1,140,8|0
444,72,105550,2,0,B|408:48,1,35
340,28,106000,1,0
280,128,106450,5,4
203,132,106750,1,0
190,208,107050,1,8
114,212,107350,1,0
100,288,107650,2,0,B|152:372|212:308|212:308|272:372|324:288,1,280,0|4
360,220,109150,5,0
376,184,109300,1,0
404,112,109600,1,0
188,36,110050,1,0
32,208,110500,1,0
256,264,110950,1,0
324,267,111250,2,0,B|325:312|280:350|234:350|184:312|188:265,1,210,4|0
256,192,112450,5,0
256,192,112750,1,0
396,124,113350,1,0
432,192,113650,2,0,B|360:192,1,70
324,192,114100,2,0,B|352:256,2,70
276,216,114850,5,0
72,324,115300,1,0
72,92,115750,1,0
116,39,116050,2,0,B|79:7|18:20|-7:53|-10:114|27:145,1,210,4|0
104,172,117250,6,0,B|134:151|134:151|177:202|229:163,1,140,0|8
288,28,118450,1,4
440,44,119050,1,8
448,196,119650,6,0,B|430:227|430:227|368:202|340:261,1,140,0|8
224,356,120850,1,4
72,340,121450,1,8
24,192,122050,1,0
104,60,122650,1,8
176,32,122950,6,0,B|244:68,1,70
196,128,123550,2,0,B|232:196,1,70,0|8
304,168,124150,2,0,B|376:200,2,70
276,240,125050,1,8
342,279,125350,2,0,B|310:372|237:324|237:324|194:400|123:333,1,280,0|0
56,296,126850,5,0
28,224,127150,1,0
20,188,127300,1,0
36,112,127600,1,0
120,32,128050,1,4
272,20,128650,6,0,B|349:12|386:86,1,140,8|0
428,148,129550,1,0
444,184,129700,1,0
460,260,130000,1,0
380,344,130450,1,4
228,360,131050,6,0,B|154:385|102:321,1,140,8|0
60,258,131950,2,0,B|43:220,1,35
16,154,132400,1,0
81,61,132850,1,4
232,36,133450,6,0,B|302:4|360:63,1,140,8|0
412,120,134350,2,0,B|444:168,1,35
476,212,134800,1,0
416,312,135250,1,4
364,256,135550,6,0,B|328:256,1,35
276,312,136000,2,0,B|236:364|184:328,1,105,0|0
112,304,136750,1,0
84,276,136900,1,0
48,208,137200,1,0
44,92,137650,1,4
184,28,138250,6,0,B|255:58|253:140,1,140,8|0
220,208,139150,1,0
196,240,139300,1,0
180,316,139600,1,0
288,356,140050,1,4
436,320,140650,6,0,B|490:266|456:190,1,140,8|0
424,120,141550,2,0,B|396:100,1,35
332,56,142000,1,0
220,32,142450,1,4
96,120,143050,6,0,B|29:159|42:241,1,140,8|0
68,312,143950,2,0,B|104:336,1,35
172,356,144400,1,0
256,280,144850,5,4
325,247,145150,1,0
308,172,145450,1,8
378,139,145750,1,0
256,192,146050,12,4,147250
256,192,147850,5,8
256,192,149050,1,8
56,344,149650,5,4
120,300,149950,1,0
184,344,150250,1,8
244,300,150550,1,0
400,260,150850,5,0
352,36,151300,1,0
160,164,151750,1,0
116,228,152050,2,0,B|136:304|224:316,1,140,0|8
292,332,152950,5,0
316,260,153250,1,2
372,208,153550,1,0
448,192,153850,1,4
456,344,154450,5,4
392,300,154750,1,0
328,344,155050,1,8
264,300,155350,1,0
112,260,155650,5,0
160,36,156100,1,0
352,164,156550,1,0
396,228,156850,2,0,B|376:304|288:316,1,140,0|8
220,332,157750,5,0
144,316,158050,1,2
88,264,158350,1,0
64,192,158650,1,4
146,61,159250,5,4
218,29,159550,1,0
294,29,159850,1,8
366,61,160150,1,0
480,164,160450,5,0
352,356,160900,1,0
260,144,161350,1,0
188,164,161650,2,0,B|112:184|100:272,1,140,0|8
84,336,162550,5,0
156,364,162850,1,2
232,364,163150,1,0
304,336,163450,1,4
392,208,164050,5,4
356,140,164350,1,0
280,148,164650,1,8
256,76,164950,1,0
256,192,165250,12,4,166450
