osu file format v7

[General]
AudioFilename: Mapke sie ucze tworzyc barany xD.mp3
AudioLeadIn: 0
PreviewTime: 61017
Countdown: 1
SampleSet: Soft
StackLeniency: 0.7
Mode: 0
LetterboxInBreaks: 1

[Editor]
Bookmarks: 5423
DistanceSpacing: 0.800000011920929
BeatDivisor: 2
GridSize: 8

[Metadata]
Title:Romantic Summer
Artist:Sun & Lunar
Creator:robertos76
Version:Seto - Hard
Source:
Tags:Seto no Hanayome Anime Sun Lunar

[Difficulty]
HPDrainRate:4
CircleSize:5
OverallDifficulty:6
SliderMultiplier:1.4
SliderTickRate:3

[Events]
//Background and Video events
0,0,"Seto_no_Hanayome.jpg"
Video,0,"Seto no Hanayome OP123.avi"
//Break Periods
//Storyboard Layer 0 (Background)
//Storyboard Layer 1 (Fail)
//Storyboard Layer 2 (Pass)
//Storyboard Layer 3 (Foreground)
//Storyboard Sound Samples
//Background Colour Transformations
3,100,255,255,255

[TimingPoints]
29171,361.44578313253,4,2,1,100,1,0

[Colours]
Combo1 : 15,61,244
Combo2 : 152,234,248
Combo3 : 1,20,254
Combo4 : 170,249,255

[HitObjects]
64,328,5315,1,0
104,328,5677,1,0
136,328,5902,6,0,B|240:328,1,87.5
288,328,6761,5,0
328,328,7122,1,0
368,328,7348,6,0,B|464:328,1,87.5
456,232,8207,5,0
456,192,8568,1,0
456,152,8794,6,0,B|456:48,1,87.5
360,56,9652,5,0
320,56,10014,1,0
280,56,10240,6,0,B|184:56,1,87.5
24,88,11369,2,0,B|24:248,1,157.5
32,296,12183,2,0,B|72:328,1,35
96,344,12544,2,0,B|144:352,1,35
168,352,12905,2,0,B|208:352,1,35
232,352,13267,2,0,B|360:352,1,122.5
464,352,14351,5,0
464,248,14713,1,0
464,128,15074,1,0
368,32,15436,1,0
240,32,15797,1,0
128,32,16158,1,0
48,112,16520,1,0
48,112,19050,2,0,B|56:104|56:104|64:112|64:112|56:120|56:120|64:96|64:96|72:104|72:104|80:128|80:128|72:120|72:120|88:104|88:104|96:112|96:112|88:128|88:128|88:88|88:88|104:96|104:96|112:120|112:120|104:120|104:120|112:104|112:104|128:96|128:96|136:120|136:120|120:120|120:120|120:104|120:104|136:104|136:104|144:112|144:112|128:120|128:104|128:88|136:88|144:88|152:88|160:96|160:112|160:120|152:120|152:120|136:96|136:96|168:88|176:96|184:96|192:104|184:112|168:120,1,490,0|0
240,96,20631,6,0,B|440:96,1,140
432,96,21761,1,0
432,136,22122,1,0
432,176,22484,1,0
432,224,22710,2,0,B|432:288|432:288|400:344|400:344|336:344,1,175
352,344,23387,1,8
232,336,24652,5,0
192,336,25014,1,0
152,336,25375,1,0
112,336,25601,2,0,B|40:336|40:336|0:312|0:312|0:216|0:216,1,210
0,224,26369,1,8
224,24,27725,5,8
184,56,27905,1,8
168,96,28086,1,8
168,136,28267,1,8
184,176,28448,1,8
256,192,29080,12,8,31791
416,320,33146,5,0
360,320,33508,1,0
304,320,33869,1,0
248,320,34231,1,0
192,320,34592,5,0
80,320,34954,1,0
136,320,35315,1,0
80,320,35677,1,0
80,264,36038,5,0
80,208,36399,1,0
80,152,36761,1,0
80,96,37122,1,0
160,40,37755,6,0,B|408:40,1,140
400,64,38568,5,0
424,112,38930,1,0
432,168,39291,1,0
432,224,39652,1,0
432,168,40014,1,0
432,224,40375,1,0
416,272,40737,1,0
376,304,41098,1,0
328,320,41460,1,0
376,304,41821,5,0
328,320,42183,1,0
272,336,42544,1,0
112,288,42905,5,0
48,96,43267,5,0
248,32,43628,2,0,B|368:32|432:80|480:168|480:168|464:248|392:336|224:336,1,560
168,328,45436,5,0
72,272,45797,1,0
32,168,46158,1,0
80,64,46520,1,0
184,24,46881,1,0
336,56,47966,6,0,B|168:56,1,140
184,128,48689,2,0,B|352:128,1,140
256,344,49773,5,0
32,328,50496,1,0
48,104,51219,1,0
264,48,51942,1,0
472,136,52664,1,0
360,328,53387,1,0
472,136,54110,5,0
360,328,54833,1,0
136,336,55556,1,0
48,128,56279,1,0
176,344,57002,1,0
400,344,57725,1,0
256,192,58448,5,0
480,192,59170,2,0,B|416:64|288:24|152:32|64:80|24:160|8:192,1,560
16,264,60978,5,0
72,336,61339,1,0
152,336,61701,1,0
232,336,62062,1,0
312,336,62424,1,0
392,336,62785,1,0
472,336,63146,1,0
480,88,63869,5,0
408,32,64231,1,0
328,32,64592,1,0
248,32,64954,1,0
168,32,65315,1,0
88,32,65677,1,0
8,32,66038,1,0
32,216,66761,5,0
72,152,67122,1,0
112,224,67484,1,0
160,160,67845,1,0
192,224,68207,1,0
240,160,68568,1,0
280,224,68930,1,0
328,160,69291,1,0
376,232,69652,5,8
424,224,69833,1,8
448,184,70014,1,8
456,136,70195,1,8
440,88,70375,1,8
360,56,70737,5,8
312,64,70917,1,8
288,104,71098,1,8
288,152,71279,1,8
304,200,71460,1,8
368,144,71821,1,8
0,336,72544,5,8
160,336,72905,1,8
320,336,73267,1,8
480,336,73628,1,8
232,40,74532,5,8
184,24,74713,1,8
136,24,74893,1,8
88,40,75074,1,8
64,88,75255,2,0,B|24:160|24:208|40:240|72:288,1,140
144,288,76158,5,0
216,288,76520,1,0
288,288,76881,1,0
424,240,77243,5,8
448,192,77423,1,8
448,136,77604,1,8
416,88,77785,1,8
376,56,77965,1,8
280,56,78327,5,8
208,56,78689,5,0
128,56,79050,1,0
48,56,79411,1,0
48,136,79773,1,0
48,224,80134,5,8
80,272,80315,1,8
120,312,80496,1,8
168,336,80677,1,8
216,344,80857,1,8
304,288,81219,5,8
368,216,81580,5,0
368,136,81942,1,0
368,56,82303,1,0
288,56,82664,1,0
208,56,83026,5,8
160,64,83207,1,8
120,96,83387,1,8
104,144,83568,1,8
104,192,83749,1,8
120,248,84110,6,8,B|160:296|200:320|240:320,1,140
312,320,84833,1,0
392,320,85195,1,0
472,320,85556,1,0
472,240,85917,1,0
472,160,86279,1,0
472,80,86640,1,0
360,56,87363,5,8
312,32,87544,1,8
264,24,87725,1,8
216,24,87905,1,8
168,40,88086,1,8
128,72,88267,1,8
