osu file format v7

[General]
AudioFilename: Mapke sie ucze tworzyc barany xD.mp3
AudioLeadIn: 0
PreviewTime: 61017
Countdown: 1
SampleSet: Soft
StackLeniency: 0.7
Mode: 0
LetterboxInBreaks: 1

[Editor]
Bookmarks: 5423
DistanceSpacing: 0.800000011920929
BeatDivisor: 8
GridSize: 8

[Metadata]
Title:Romantic Summer
Artist:Sun & Lunar
Creator:robertos76
Version:Nagasumi - Normal
Source:
Tags:Seto no Hanayome Anime Sun Lunar

[Difficulty]
HPDrainRate:4
CircleSize:4
OverallDifficulty:3
SliderMultiplier:1.4
SliderTickRate:2

[Events]
//Background and Video events
Video,0,"Seto no Hanayome OP123.avi"
0,0,"Seto_no_Hanayome.jpg"
//Break Periods
//Storyboard Layer 0 (Background)
//Storyboard Layer 1 (Fail)
//Storyboard Layer 2 (Pass)
//Storyboard Layer 3 (Foreground)
//Storyboard Sound Samples
//Background Colour Transformations
3,100,255,255,255

[TimingPoints]
29171,361.44578313253,4,2,0,66,1,0

[Colours]
Combo1 : 15,61,244
Combo2 : 152,234,248
Combo3 : 1,20,254
Combo4 : 170,249,255

[HitObjects]
0,344,5315,1,0
152,344,6761,1,0
312,344,8207,1,0
480,312,9652,1,0
488,144,11098,5,0
376,24,12544,1,0
232,24,13990,1,0
80,48,15436,1,0
32,192,16881,5,0
264,184,19050,2,0,B|240:184,27,17.5
504,336,21942,5,8
504,256,22303,5,8
504,184,22664,5,8
504,112,23026,5,8
40,32,24833,5,8
40,104,25195,5,8
40,176,25556,5,8
40,248,25917,5,8
480,32,27725,5,8
408,32,28086,5,8
336,32,28448,5,8
264,32,28809,5,8
168,40,31701,6,0,B|0:40,2,163.333333333333
221,40,33146,5,0
296,40,33508,1,0
424,40,34231,1,0
504,40,34592,1,0
504,136,34954,5,0
424,136,35315,1,0
296,136,36038,1,0
224,136,36399,1,0
160,136,36761,2,0,B|16:136,3,140
24,208,38207,5,0
24,272,38930,1,0
24,352,39652,1,0
112,352,40375,1,0
392,344,41098,5,0
488,344,41821,1,0
488,264,42544,1,0
488,200,43267,1,0
456,72,43628,6,0,B|232:-16|64:72,1,396.666666666667
256,128,45436,5,8
192,192,45797,1,8
256,256,46158,1,8
320,192,46520,1,8
256,192,46881,1,8
296,112,48327,6,0,B|192:112|192:112|192:224|192:224|304:224|304:224|304:112,1,437.5
312,40,49773,5,0
216,40,50496,1,0
112,40,51219,1,0
16,40,51942,1,8
16,40,52664,1,0
112,40,53387,5,0
216,40,54110,1,0
312,40,54833,1,8
416,40,55556,1,0
328,40,56279,1,0
216,40,57002,5,0
112,40,57725,1,8
32,40,58448,1,0
104,80,59170,1,8
104,80,59532,1,8
40,96,59893,2,0,B|224:336|224:336,1,297.5
288,336,60978,6,0,B|336:344|352:344|368:336|368:312|360:288|328:272|288:272|272:256|272:232|288:224|320:216|344:208,4,262.5
224,328,63869,6,0,B|168:224|160:216|136:248|80:336,4,227.5
288,336,66399,6,0,B|312:232|312:232|376:336|376:336|392:224,3,332.5
416,168,69652,5,8
456,112,70014,5,8
416,56,70375,1,8
288,56,71098,5,8
224,56,71460,1,8
160,56,72183,6,0,B|40:56,1,105
56,128,72544,5,8
56,128,72905,1,8
56,192,73267,5,8
56,256,73628,5,8
56,256,73990,1,8
112,272,74713,6,0,B|400:272,1,280
392,272,75616,1,8
480,256,76881,5,8
464,184,77243,1,8
440,120,77604,1,8
384,72,77966,1,8
312,56,78327,6,0,B|264:8|224:8|184:8|152:40|152:80,1,175
88,72,79773,5,8
72,144,80134,1,8
56,216,80496,1,8
48,296,80857,1,8
256,192,82664,12,0,85195
88,192,87092,5,8
136,192,87273,1,8
176,192,87454,1,8
216,192,87634,1,8
256,192,87815,1,8
296,192,87996,1,8
336,192,88177,1,8
376,192,88357,1,8
416,192,88538,1,8
