osu file format v12

[General]
AudioFilename: Sum-41_-_Scumfuck_THERESNOSOLUTION.mp3
AudioLeadIn: 485
PreviewTime: 34762
Countdown: 0
SampleSet: Soft
StackLeniency: 0.7
Mode: 0
LetterboxInBreaks: 1

[Editor]
DistanceSpacing: 1
BeatDivisor: 4
GridSize: 8

[Metadata]
Title:Scumfuck
TitleUnicode:Scumfuck
Artist:Sum 41
ArtistUnicode:Sum 41
Creator:iPhone
Version:Screaming
Source:Screaming Bloody Murder
Tags:Sum41
BeatmapID:246648
BeatmapSetID:91041

[Difficulty]
HPDrainRate:7
CircleSize:4
OverallDifficulty:7
ApproachRate:9
SliderMultiplier:1.4
SliderTickRate:2

[Events]
//Background and Video events
0,0,"201204051522392236.jpg",0,0
//Break Periods
2,56440,60071
//Storyboard Layer 0 (Background)
//Storyboard Layer 1 (Fail)
//Storyboard Layer 2 (Pass)
//Storyboard Layer 3 (Foreground)
//Storyboard Sound Samples
//Background Colour Transformations
3,100,163,162,255

[TimingPoints]
1694,340.909090909091,4,2,0,100,1,0
1694,-100,4,2,0,75,0,0
7149,-133.333333333333,4,1,0,50,0,0
18058,-66.6666666666667,4,1,0,50,0,1
23171,-66.6666666666667,4,1,0,80,0,0
34762,-66.6666666666667,4,1,0,75,0,1
40216,-66.6666666666667,4,1,0,100,0,0
45671,-50,4,1,0,75,0,0
51126,-66.6666666666667,4,1,0,75,0,0
60671,-100,4,1,0,75,0,0
62035,-133.333333333333,4,2,0,75,0,0
67149,-66.6666666666667,4,1,0,75,0,0
72603,-100,4,1,0,80,0,0
75330,-80,4,1,0,65,0,0
77717,-66.6666666666667,4,1,0,80,0,0
78569,-66.6666666666667,4,1,0,80,0,1
89308,-66.6666666666667,4,1,0,100,0,1
89649,-57.1428571428571,4,1,0,80,0,1
93910,-57.1428571428571,4,1,0,100,0,1
94251,-66.6666666666667,4,1,0,90,0,1
94762,-100,4,1,0,100,0,1
96978,-66.6666666666667,4,1,0,80,0,1
102603,-100,4,1,0,100,0,0

[HitObjects]
48,64,1694,2,0,L|120:64,1,70
200,64,2035,1,0,0:0:0:0:
464,288,2376,6,0,L|392:288,1,70
312,288,2717,1,0,0:0:0:0:
256,128,3058,5,0,0:0:0:0:
256,296,3399,2,0,L|256:248|256:216,1,70
172,224,3740,1,0,0:0:0:0:
340,224,4080,1,0,0:0:0:0:
448,52,4421,6,0,L|448:144,1,70
448,208,4762,1,0,0:0:0:0:
56,336,5103,6,0,L|56:256,1,70
56,184,5444,1,0,0:0:0:0:
256,304,5785,5,0,0:0:0:0:
256,136,6126,2,0,L|256:48,1,70
311,155,6467,1,0,0:0:0:0:
208,178,6637,1,0,0:0:0:0:
285,248,6808,1,0,0:0:0:0:
181,263,6978,1,0,0:0:0:0:
56,320,7149,6,0,L|112:280,2,52.5000020027161
448,64,7830,2,0,L|392:104,2,52.5000020027161
256,192,8512,1,0,0:0:0:0:
136,152,8853,2,0,B|136:128|168:88|176:88,1,52.5000020027161
256,140,9194,1,0,0:0:0:0:
347,192,9365,1,0,0:0:0:0:
256,244,9535,1,0,0:0:0:0:
184,48,9876,6,0,P|152:56|120:80,2,52.5000020027161
320,328,10558,2,0,P|352:320|376:304,2,52.5000020027161
424,168,11240,1,0,0:0:0:0:
320,104,11580,2,0,L|280:160,1,52.5000020027161
194,102,11921,1,0,0:0:0:0:
138,191,12092,1,0,0:0:0:0:
193,279,12262,1,0,0:0:0:0:
360,192,12603,6,0,L|288:192,1,52.5000020027161
304,192,12944,1,0,0:0:0:0:
160,192,13285,6,0,L|232:192,1,52.5000020027161
212,192,13626,1,0,0:0:0:0:
192,64,13967,5,0,0:0:0:0:
320,64,14308,1,0,0:0:0:0:
256,80,14478,2,0,L|256:152,1,52.5000020027161
256,256,14990,1,0,0:0:0:0:
72,304,15330,6,0,L|96:248,1,52.5000020027161
136,208,15671,1,0,0:0:0:0:
432,304,16012,6,0,L|400:232,1,52.5000020027161
368,208,16353,1,0,0:0:0:0:
192,256,16694,6,0,L|208:192,1,52.5000020027161
312,256,17035,2,0,L|296:192,1,52.5000020027161
256,112,17376,1,4,0:0:0:0:
440,104,18058,6,0,L|376:64,2,52.5000020027161
224,80,18399,1,0,0:0:0:0:
384,216,18569,2,0,P|352:200|336:176,2,52.5000020027161
160,176,18910,1,0,0:0:0:0:
272,264,19080,2,0,P|328:232|368:184,1,105.000004005432
168,112,19421,2,0,P|112:144|72:192,1,105.000004005432
288,280,19762,2,0,P|344:248|384:200,1,105.000004005432
168,88,20103,2,0,P|112:120|72:168,1,105.000004005432
264,264,20444,2,0,P|320:232|360:184,1,105.000004005432
144,256,20785,6,0,P|128:288|80:312,2,52.5000020027161
64,64,21126,1,0,0:0:0:0:
392,72,21467,2,0,B|424:120|424:160|424:160|352:200,1,105.000004005432
368,184,21807,1,0,0:0:0:0:
342,187,21892,1,0,0:0:0:0:
316,184,21977,1,0,0:0:0:0:
291,175,22062,1,0,0:0:0:0:
264,176,22147,1,0,0:0:0:0:
248,176,22233,1,0,0:0:0:0:
224,184,22318,1,0,0:0:0:0:
200,200,22403,1,0,0:0:0:0:
192,224,22488,1,0,0:0:0:0:
192,248,22574,1,0,0:0:0:0:
208,272,22659,1,0,0:0:0:0:
224,288,22744,1,0,0:0:0:0:
248,304,22829,1,0,0:0:0:0:
313,184,23171,6,0,B|315:138|315:138|352:108|391:106,1,105.000004005432
393,211,23512,2,0,B|391:257|391:257|354:287|315:289,1,105.000004005432,0|0,0:0|0:0,0:0:0:0:
242,243,23853,2,0,B|244:197|244:197|263:140|288:115,1,105.000004005432,0|0,0:0|0:0,0:0:0:0:
334,223,24194,2,0,P|302:279|230:319,1,105.000004005432
238,148,24535,2,0,P|270:92|342:52,1,105.000004005432
395,194,24876,2,0,L|320:325,1,105.000004005432
204,208,25217,2,0,L|266:100,1,105.000004005432
336,160,25558,2,0,L|240:264,1,105.000004005432
400,80,25899,5,0,0:0:0:0:
192,80,26069,2,0,L|85:181,1,105.000004005432
115,152,26325,1,0,0:0:0:0:
115,152,26410,1,0,0:0:0:0:
115,152,26495,1,0,0:0:0:0:
192,162,26580,6,0,L|153:268,1,105.000004005432
155,260,26921,2,0,B|236:343|281:331|302:285|302:284|302:284|288:231|289:233,1,210.000008010865
272,144,27433,2,0,B|282:94|326:90|359:100,1,105.000004005432
280,144,27774,2,0,P|302:219|268:257,1,105.000004005432
272,152,28115,2,0,P|194:141|162:83,1,105.000004005432
96,104,28455,1,0,0:0:0:0:
80,144,28541,1,0,0:0:0:0:
112,168,28626,1,0,0:0:0:0:
111,174,28796,6,0,P|90:233|105:290,1,105.000004005432
193,315,29137,2,0,P|177:264|193:210,1,105.000004005432
286,174,29478,2,0,P|270:232|292:289,1,105.000004005432
181,304,29819,5,0,0:0:0:0:
106,264,29990,1,0,0:0:0:0:
304,263,30159,5,0,0:0:0:0:
367,208,30330,1,0,0:0:0:0:
206,176,30500,5,0,0:0:0:0:
145,117,30671,1,0,0:0:0:0:
336,126,30841,5,0,0:0:0:0:
431,83,31012,2,0,P|464:130|425:191,1,105.000004005432
424,328,31353,6,0,L|424:216,1,105.000004005432
336,272,31694,1,0,0:0:0:0:
336,245,31779,1,0,0:0:0:0:
336,218,31865,1,0,0:0:0:0:
336,113,32035,6,0,L|336:225,1,105.000004005432
258,146,32376,1,0,0:0:0:0:
258,172,32461,1,0,0:0:0:0:
256,200,32546,1,0,0:0:0:0:
166,251,32717,6,0,L|166:139,1,105.000004005432
103,230,33058,1,0,0:0:0:0:
104,203,33143,1,0,0:0:0:0:
104,176,33228,1,0,0:0:0:0:
171,95,33399,6,0,P|227:135|243:191,1,105.000004005432
241,224,33740,1,0,0:0:0:0:
244,239,33825,1,0,0:0:0:0:
249,253,33910,1,0,0:0:0:0:
256,266,33995,1,0,0:0:0:0:
264,278,34080,1,0,0:0:0:0:
276,288,34166,1,0,0:0:0:0:
289,296,34251,1,0,0:0:0:0:
303,302,34336,1,0,0:0:0:0:
355,306,34421,1,0,0:0:0:0:
411,90,34762,6,0,P|456:121|463:157,2,52.5000020027161
308,114,35103,1,0,0:0:0:0:
264,143,35188,1,0,0:0:0:0:
220,112,35274,1,0,0:0:0:0:
118,86,35444,2,0,P|88:100|78:146,2,52.5000020027161
73,181,35784,5,0,0:0:0:0:
68,206,35870,1,0,0:0:0:0:
70,232,35955,1,0,0:0:0:0:
89,250,36041,1,0,0:0:0:0:
114,254,36126,1,0,0:0:0:0:
139,247,36211,1,0,0:0:0:0:
161,234,36296,2,0,P|183:197|184:174,2,52.5000020027161
182,248,36551,1,0,0:0:0:0:
204,256,36637,5,0,0:0:0:0:
224,272,36722,1,0,0:0:0:0:
244,288,36808,1,0,0:0:0:0:
270,291,36893,1,0,0:0:0:0:
296,288,36978,1,0,0:0:0:0:
320,277,37063,1,0,0:0:0:0:
344,267,37149,2,0,P|390:234|423:167,1,105.000004005432
442,148,37490,2,0,P|438:116|404:80,2,52.5000020027161
394,125,37830,2,0,P|368:78|309:57,1,105.000004005432
304,106,38171,2,0,P|255:93|236:105,2,52.5000020027161
261,151,38512,5,0,0:0:0:0:
160,118,38683,1,0,0:0:0:0:
121,215,38853,1,0,0:0:0:0:
219,252,39024,1,0,0:0:0:0:
312,210,39194,2,0,L|333:259,2,52.5000020027161
400,267,39535,2,0,P|372:307|332:313,1,52.5000020027161
216,304,39875,5,0,0:0:0:0:
400,208,40217,1,0,0:0:0:0:
395,46,40558,2,0,B|412:104|422:134|422:134|477:119,2,105.000004005432
184,45,41240,2,0,B|167:103|157:133|157:133|102:118,2,105.000004005432
277,232,41921,2,0,L|278:347,1,105.000004005432
372,275,42262,1,0,0:0:0:0:
235,261,42433,1,0,0:0:0:0:
336,170,42603,1,0,0:0:0:0:
190,182,42774,1,0,0:0:0:0:
306,79,42944,1,0,0:0:0:0:
141,105,43115,1,0,0:0:0:0:
226,44,43285,2,0,L|225:114,2,52.5000020027161
224,149,43541,1,0,0:0:0:0:
224,149,43626,5,0,0:0:0:0:
224,149,43711,1,0,0:0:0:0:
224,149,43796,1,0,0:0:0:0:
224,149,43882,1,0,0:0:0:0:
224,149,43967,1,0,0:0:0:0:
224,149,44052,1,0,0:0:0:0:
224,149,44137,1,0,0:0:0:0:
224,149,44222,1,0,0:0:0:0:
224,149,44308,1,0,0:0:0:0:
224,149,44393,1,0,0:0:0:0:
224,149,44478,1,0,0:0:0:0:
224,149,44563,1,0,0:0:0:0:
224,149,44649,1,0,0:0:0:0:
151,289,44990,5,0,0:0:0:0:
328,120,45330,5,4,0:0:0:0:
80,320,45671,6,0,L|80:160,1,140
200,248,46012,1,0,0:0:0:0:
424,80,46353,6,0,L|424:232,1,140
304,152,46694,1,0,0:0:0:0:
40,72,47035,6,0,P|112:104|176:104,1,140
304,40,47376,2,0,P|328:80|304:176,1,140
432,240,47717,1,0,0:0:0:0:
152,240,48058,2,0,L|152:96,1,140
296,96,48399,2,0,P|280:144|248:168,2,70
432,136,48740,2,0,L|432:320,1,140
296,240,49080,2,0,P|344:192|344:168,2,70
184,320,49421,6,0,P|256:336|328:312,2,140
128,192,49933,1,0,0:0:0:0:
256,136,50103,1,0,0:0:0:0:
384,192,50274,1,0,0:0:0:0:
256,240,50444,2,0,B|256:176|256:176|248:168|248:168|256:160|256:160|264:152|264:152|256:144|256:144|248:136|248:136|256:128|256:128|264:120|264:120|256:112|256:112|248:104|248:104|256:96|256:96|264:88|264:88|256:80|256:80|248:72|248:72|256:64|256:64|264:56|264:56|256:48|256:48|256:8|256:8,1,280
80,128,51126,6,0,L|144:72,3,52.5000020027161
168,112,51467,2,0,L|200:160,3,52.5000020027161
248,168,51808,2,0,L|296:144,3,52.5000020027161
344,136,52149,2,0,P|392:248|344:352,1,210.000008010865
160,296,52830,1,0,0:0:0:0:
104,152,53001,1,0,0:0:0:0:
248,96,53171,1,0,0:0:0:0:
304,240,53342,1,0,0:0:0:0:
200,256,53512,2,0,L|144:144,1,105.000004005432
248,120,53853,2,0,L|296:232,1,105.000004005432
168,168,54194,5,0,0:0:0:0:
208,16,54365,1,0,0:0:0:0:
360,56,54535,1,0,0:0:0:0:
328,208,54705,1,0,0:0:0:0:
279,114,54876,5,0,0:0:0:0:
253,109,54961,1,0,0:0:0:0:
226,112,55046,1,0,0:0:0:0:
201,123,55132,1,0,0:0:0:0:
177,134,55217,1,0,0:0:0:0:
155,148,55302,1,0,0:0:0:0:
135,165,55387,1,0,0:0:0:0:
119,185,55472,1,0,0:0:0:0:
112,210,55558,1,0,0:0:0:0:
109,236,55643,1,0,0:0:0:0:
114,261,55728,1,0,0:0:0:0:
126,283,55813,1,0,0:0:0:0:
146,299,55899,1,0,0:0:0:0:
238,248,56240,5,4,0:0:0:0:
256,192,60671,5,0,0:0:0:0:
256,192,60757,1,0,0:0:0:0:
256,192,60842,1,0,0:0:0:0:
256,192,60927,1,0,0:0:0:0:
256,192,61012,1,0,0:0:0:0:
256,192,61097,1,0,0:0:0:0:
256,192,61183,1,0,0:0:0:0:
256,192,61268,1,0,0:0:0:0:
256,192,61353,1,0,0:0:0:0:
256,64,61694,5,4,0:0:0:0:
88,144,62035,6,0,P|64:192|88:240,1,105.000004005432
424,144,62717,2,0,P|448:192|424:240,1,105.000004005432,0|0,0:0|0:0,0:0:0:0:
208,320,63399,2,0,P|256:344|304:320,1,105.000004005432
304,64,64080,2,0,P|256:40|208:64,1,105.000004005432
152,80,64762,5,0,0:0:0:0:
256,80,65103,1,0,0:0:0:0:
208,176,65444,1,0,0:0:0:0:
152,80,65785,1,0,0:0:0:0:
256,80,66126,1,0,0:0:0:0:
256,80,66467,2,0,P|200:80|168:136,1,105.000004005432
107,199,67149,5,0,0:0:0:0:
127,183,67234,1,0,0:0:0:0:
147,166,67319,1,0,0:0:0:0:
168,151,67404,1,0,0:0:0:0:
189,135,67490,1,0,0:0:0:0:
208,117,67575,1,0,0:0:0:0:
228,100,67660,1,0,0:0:0:0:
386,175,68512,5,0,0:0:0:0:
365,191,68597,1,0,0:0:0:0:
346,209,68683,1,0,0:0:0:0:
326,227,68768,1,0,0:0:0:0:
306,244,68853,1,0,0:0:0:0:
286,261,68938,1,0,0:0:0:0:
266,278,69024,1,0,0:0:0:0:
256,280,69876,6,0,L|256:352,2,52.5000020027161
256,176,70217,2,0,L|256:240,2,52.5000020027161
208,80,70558,2,0,P|256:64|312:96,2,105.000004005432
106,108,71240,1,0,0:0:0:0:
116,131,71325,1,0,0:0:0:0:
133,150,71410,1,0,0:0:0:0:
157,160,71495,1,0,0:0:0:0:
180,170,71580,1,0,0:0:0:0:
204,179,71666,5,0,0:0:0:0:
228,187,71751,1,0,0:0:0:0:
253,191,71836,1,0,0:0:0:0:
279,193,71921,1,0,0:0:0:0:
304,199,72007,1,0,0:0:0:0:
327,210,72092,1,0,0:0:0:0:
346,227,72177,1,0,0:0:0:0:
364,245,72262,1,0,0:0:0:0:
374,268,72347,1,0,0:0:0:0:
426,270,72603,6,0,B|452:265|452:264|468:228,3,35
153,85,73966,6,0,P|136:102|121:134,3,35
192,32,75330,6,0,P|224:32|248:64,2,43.75
104,128,75671,2,0,P|72:112|72:72,2,43.75
168,240,76012,1,0,0:0:0:0:
168,240,76097,1,0,0:0:0:0:
168,240,76183,1,0,0:0:0:0:
81,249,76353,2,0,B|25:217|41:153|41:153|129:153,1,175
128,152,76779,1,0,0:0:0:0:
144,152,76865,1,0,0:0:0:0:
168,152,76950,1,0,0:0:0:0:
192,152,77035,5,0,0:0:0:0:
216,152,77120,1,0,0:0:0:0:
240,152,77205,1,0,0:0:0:0:
264,152,77291,1,0,0:0:0:0:
288,152,77376,1,0,0:0:0:0:
312,152,77461,1,0,0:0:0:0:
336,152,77546,1,0,0:0:0:0:
408,112,77717,5,0,0:0:0:0:
205,59,78057,2,0,L|169:106,2,52.5000020027161
128,152,78569,1,0,0:0:0:0:
200,224,78740,1,0,0:0:0:0:
276,152,78910,1,0,0:0:0:0:
379,137,79080,2,0,L|267:41,1,105.000004005432
305,173,79421,2,0,L|273:109,2,52.5000020027161
206,209,79762,2,0,L|318:297,1,105.000004005432
183,277,80103,2,0,L|207:325,2,52.5000020027161
155,172,80444,2,0,B|187:204|203:212|203:212|205:214,2,52.5000020027161
206,263,80785,6,0,B|254:263|278:255|278:255|279:254,2,52.5000020027161
280,337,81126,2,0,B|328:305|344:289|344:289|345:290,2,52.5000020027161
385,329,81467,2,0,B|385:257|385:233|385:233|385:235,2,52.5000020027161
383,223,81808,2,0,B|384:183|384:168|384:167|383:167|382:166|323:158|321:157,1,105.000004005432
227,151,82149,2,0,B|211:199|187:215|155:215|155:215|115:199,1,105.000004005432
257,234,82490,2,0,L|282:297,2,52.5000020027161
257,234,82830,1,0,0:0:0:0:
257,234,82916,1,0,0:0:0:0:
257,234,83001,1,0,0:0:0:0:
223,134,83171,2,0,B|211:95|242:88|242:88|300:100,1,105.000004005432
390,121,83512,6,0,L|414:177,2,52.5000020027161
298,68,83853,1,0,0:0:0:0:
193,81,84024,2,0,L|193:202,1,105.000004005432
89,205,84365,2,0,L|88:350,1,105.000004005432
185,271,84705,2,0,B|183:315|218:335|259:315|272:298,1,105.000004005432
340,244,85046,1,0,0:0:0:0:
387,149,85217,2,0,L|425:251,1,105.000004005432
308,119,85558,5,0,0:0:0:0:
224,264,85728,1,0,0:0:0:0:
384,160,85898,1,0,0:0:0:0:
200,200,86069,1,0,0:0:0:0:
384,232,86240,1,0,0:0:0:0:
224,136,86410,1,0,0:0:0:0:
344,280,86580,1,0,0:0:0:0:
280,104,86751,1,0,0:0:0:0:
288,296,86921,2,0,B|272:312|288:328|308:336|324:344|348:356,4,52.5000020027161
352,128,87432,5,0,0:0:0:0:
352,128,87603,1,0,0:0:0:0:
240,304,87774,1,0,0:0:0:0:
240,304,87944,1,0,0:0:0:0:
136,128,88115,1,0,0:0:0:0:
136,128,88285,2,0,B|88:128|52:208|52:208|148:264,1,210.000008010865
296,248,88967,1,0,0:0:0:0:
296,248,89052,1,0,0:0:0:0:
296,248,89137,1,0,0:0:0:0:
328,248,89307,6,0,B|336:192|320:160|320:160|288:112,1,105.000004005432,8|4,0:0|0:0,0:0:0:0:
326,269,89649,1,0,0:0:0:0:
312,296,89734,1,0,0:0:0:0:
293,319,89819,1,0,0:0:0:0:
64,64,89990,6,0,L|184:168,1,122.500001168251,8|0,0:0|0:0,0:0:0:0:
156,144,90330,1,0,0:0:0:0:
156,144,90416,1,0,0:0:0:0:
156,144,90501,1,0,0:0:0:0:
320,56,90671,2,0,B|392:56|392:56|424:80|440:112,1,122.500001168251,8|0,0:0|0:0,0:0:0:0:
400,272,91012,2,0,B|384:304|376:312|376:312|336:328,3,61.2500005841255
360,224,91353,1,0,0:0:0:0:
224,104,91524,1,0,0:0:0:0:
168,88,91694,6,0,B|152:120|160:176|160:176|176:208,1,122.500001168251
256,296,92035,1,0,0:0:0:0:
368,320,92205,1,0,0:0:0:0:
448,224,92376,1,0,0:0:0:0:
400,112,92546,1,0,0:0:0:0:
280,88,92717,2,0,L|200:120,2,61.2500005841255
96,248,93058,2,0,B|112:304|144:320|144:320|200:328,1,122.500001168251
304,328,93399,5,0,0:0:0:0:
335,290,93484,1,0,0:0:0:0:
335,241,93569,1,0,0:0:0:0:
302,204,93654,1,0,0:0:0:0:
252,202,93740,1,0,0:0:0:0:
160,232,93910,6,0,L|304:280,1,122.500001168251,8|4,0:0|0:0,0:0:0:0:
376,200,94251,2,0,B|384:168|384:168|368:144|344:104,2,61.2500005841255
208,288,94762,5,6,0:0:0:0:
112,104,95103,6,0,L|176:136,1,70
224,161,95444,1,0,0:0:0:0:
248,174,95529,1,0,0:0:0:0:
272,187,95615,1,0,0:0:0:0:
367,229,95785,2,0,L|391:181,2,35
334,278,96126,5,0,0:0:0:0:
319,307,96211,1,0,0:0:0:0:
307,330,96296,1,0,0:0:0:0:
170,270,96467,2,0,L|236:135,1,140
376,56,97149,6,0,L|440:168,1,105.000004005432
351,112,97490,1,0,0:0:0:0:
334,150,97575,1,0,0:0:0:0:
280,272,97830,6,0,L|224:168,1,105.000004005432
228,263,98171,1,0,0:0:0:0:
186,255,98257,1,0,0:0:0:0:
183,97,98512,6,0,P|135:73|87:105,1,105.000004005432
102,206,98853,1,0,0:0:0:0:
139,224,98938,1,0,0:0:0:0:
178,209,99024,1,0,0:0:0:0:
282,217,99194,6,0,P|330:241|386:209,1,105.000004005432
381,118,99535,1,0,0:0:0:0:
334,93,99620,1,0,0:0:0:0:
288,107,99705,1,0,0:0:0:0:
416,208,99876,5,0,0:0:0:0:
408,232,99961,1,0,0:0:0:0:
400,256,100046,1,0,0:0:0:0:
380,276,100132,1,0,0:0:0:0:
356,284,100217,1,0,0:0:0:0:
332,288,100302,1,0,0:0:0:0:
308,284,100387,1,0,0:0:0:0:
284,272,100472,1,0,0:0:0:0:
268,252,100558,1,0,0:0:0:0:
260,228,100643,1,0,0:0:0:0:
252,202,100728,2,0,P|247:172|234:145,3,52.5000020027161
204,126,101069,5,0,0:0:0:0:
170,105,101154,1,0,0:0:0:0:
135,80,101240,1,0,0:0:0:0:
103,51,101325,1,0,0:0:0:0:
76,83,101410,1,0,0:0:0:0:
59,121,101495,1,0,0:0:0:0:
57,162,101580,1,0,0:0:0:0:
70,202,101666,1,0,0:0:0:0:
102,228,101751,5,0,0:0:0:0:
139,244,101836,1,0,0:0:0:0:
179,233,101921,1,0,0:0:0:0:
218,217,102007,1,0,0:0:0:0:
256,200,102092,1,0,0:0:0:0:
296,190,102177,1,0,0:0:0:0:
333,186,102262,1,0,0:0:0:0:
372,200,102347,1,0,0:0:0:0:
404,227,102433,1,0,0:0:0:0:
404,157,102603,5,4,0:0:0:0:
