osu file format v12

[General]
AudioFilename: Sum-41_-_Scumfuck_THERESNOSOLUTION.mp3
AudioLeadIn: 485
PreviewTime: 34762
Countdown: 0
SampleSet: Soft
StackLeniency: 0.7
Mode: 0
LetterboxInBreaks: 1

[Editor]
DistanceSpacing: 1.2
BeatDivisor: 2
GridSize: 8

[Metadata]
Title:Scumfuck
TitleUnicode:Scumfuck
Artist:Sum 41
ArtistUnicode:Sum 41
Creator:iPhone
Version:Normal
Source:Screaming Bloody Murder
Tags:Sum41
BeatmapID:266097
BeatmapSetID:91041

[Difficulty]
HPDrainRate:5
CircleSize:3
OverallDifficulty:3
ApproachRate:5
SliderMultiplier:1
SliderTickRate:2

[Events]
//Background and Video events
0,0,"201204051522392236.jpg",0,0
//Break Periods
2,56439,58789
2,61894,64584
//Storyboard Layer 0 (Background)
//Storyboard Layer 1 (Fail)
//Storyboard Layer 2 (Pass)
//Storyboard Layer 3 (Foreground)
//Storyboard Sound Samples
//Background Colour Transformations
3,100,163,162,255

[TimingPoints]
1694,340.909090909091,4,2,0,100,1,0
1694,-133.333333333333,4,2,0,75,0,0
7149,-133.333333333333,4,1,0,50,0,0
18058,-100,4,1,0,50,0,1
23171,-100,4,1,0,80,0,0
34762,-100,4,1,0,75,0,1
40216,-100,4,1,0,100,0,0
45671,-100,4,1,0,75,0,0
51126,-100,4,1,0,75,0,0
60671,-100,4,1,0,75,0,0
62035,-133.333333333333,4,2,0,75,0,0
67148,-100,4,1,0,100,0,0
72603,-133.333333333333,4,1,0,80,0,0
75330,-100,4,1,0,65,0,0
77717,-100,4,1,0,80,0,0
78569,-100,4,1,0,80,0,1
89308,-100,4,1,0,100,0,1
89649,-100,4,1,0,80,0,1
93910,-100,4,1,0,100,0,1
94251,-100,4,1,0,90,0,1
94762,-100,4,1,0,100,0,1
96978,-100,4,1,0,80,0,1
102603,-100,4,1,0,100,0,0

[HitObjects]
112,64,1694,2,0,L|112:152,1,75.000002861023
192,144,2375,2,0,L|192:208,2,37.5000014305115
272,144,3057,2,0,L|272:64,1,75.000002861023
352,80,3739,2,0,L|352:144,2,37.5000014305115,0|0|0,0:0|0:0|0:0,0:0:0:0:
412,146,4421,5,0,0:0:0:0:
387,232,4762,2,0,P|345:210|331:166,1,75.0000028610231
256,139,5444,1,0,0:0:0:0:
177,182,5784,2,0,P|160:215|111:238,2,75.0000028610231
97,139,6807,1,0,0:0:0:0:
178,100,7148,6,0,L|178:52,2,37.5000014305115,0|0|0,0:0|0:0|0:0,0:0:0:0:
268,101,7830,2,0,L|316:101,2,37.5000014305115,0|0|0,0:0|0:0|0:0,0:0:0:0:
317,176,8512,2,0,L|397:192,2,75.0000028610231
255,241,9534,1,0,0:0:0:0:
165,231,9875,6,0,P|185:191|217:175,1,75.0000028610231
300,179,10557,2,0,P|335:159|352:122,1,75.0000028610231
305,51,11239,2,0,P|257:83|257:99,1,75.0000028610231
260,184,11921,2,0,P|228:232|212:232,1,75.0000028610231
157,186,12603,5,4,0:0:0:0:
254,99,13284,1,4,0:0:0:0:
377,183,13966,2,0,L|377:279,1,75.0000028610231,0|8,0:0|0:0,0:0:0:0:
301,258,14648,2,0,L|301:162,1,75.0000028610231,0|8,0:0|0:0,0:0:0:0:
305,107,15330,6,0,P|385:91|433:27,1,150.000005722046
360,184,16694,1,0,0:0:0:0:
352,192,17034,2,0,L|352:256,2,37.5000014305115,4|0|4,0:0|0:0|0:0,0:0:0:0:
245,292,18057,6,0,P|277:276|293:228,1,75.0000028610231
195,218,18739,1,0,0:0:0:0:
220,121,19080,1,0,0:0:0:0:
300,62,19421,1,0,0:0:0:0:
390,105,19762,1,0,0:0:0:0:
360,200,20103,2,0,P|344:232|312:248,2,50
416,288,20784,5,0,0:0:0:0:
320,320,21125,1,0,0:0:0:0:
248,248,21466,1,0,0:0:0:0:
256,192,21807,12,4,23171,0:0:0:0:
336,272,23512,6,0,P|352:208|336:176,1,100
448,224,24194,2,0,P|432:160|400:128,1,100
336,72,24875,2,0,B|272:88|272:88|256:136,1,100,4|0,0:0|0:0,0:0:0:0:
224,208,25557,1,4,0:0:0:0:
96,56,26239,6,8,P|136:112|192:112,1,100,8|8,0:0|0:0,0:0:0:0:
232,48,26921,2,8,P|296:80|304:144,1,100
304,200,27603,2,4,L|304:264,4,50
128,104,28966,6,0,B|128:152|128:152|144:184|192:168,1,100
272,176,29648,2,0,B|320:176|320:176|352:224|352:256,1,100
384,312,30330,1,0,0:0:0:0:
288,336,30671,1,0,0:0:0:0:
312,240,31012,1,0,0:0:0:0:
288,88,31694,6,0,B|240:88|240:88|240:152,1,100
336,160,32375,6,0,B|288:160|288:160|288:224,1,100,0|0,0:0|0:0,0:0:0:0:
384,224,33057,6,0,B|336:224|336:224|336:288,3,100,0|2|0|2,0:0|0:0|0:0|0:0,0:0:0:0:
440,280,34421,2,0,P|424:216|392:200,1,100
296,200,35103,6,0,P|232:264|200:264,1,100
240,168,35784,2,0,P|208:208|152:216,1,100
96,142,36466,2,0,B|160:142|176:126|176:62|192:46|256:46,1,200,0|4,0:0|0:0,0:0:0:0:
352,32,37489,1,0,0:0:0:0:
424,96,37830,1,0,0:0:0:0:
424,192,38171,5,0,0:0:0:0:
416,288,38512,2,0,P|368:256|352:192,2,100
320,312,39534,1,0,0:0:0:0:
224,288,39875,2,0,L|176:320|152:336,2,50
184,192,40557,5,0,0:0:0:0:
248,112,40898,1,0,0:0:0:0:
344,112,41239,1,4,0:0:0:0:
424,176,41580,2,0,P|424:240|392:272,1,100
312,312,42262,2,0,P|272:328|208:320,1,100
120,296,42944,2,0,P|80:264|64:216,1,100
112,128,43625,2,0,P|64:144|64:176,2,50,0|0|4,0:0|0:0|0:0,0:0:0:0:
176,48,44307,2,0,P|224:80|224:96,2,50
216,144,44989,1,4,0:0:0:0:
304,96,45330,6,0,L|304:224,1,100
400,176,46012,2,0,L|400:304,1,100
304,256,46694,2,0,B|288:304|288:304|224:304,1,100,4|0,0:0|0:0,0:0:0:0:
136,304,47375,2,0,B|88:304|88:304|72:240,1,100
64,152,48057,5,0,0:0:0:0:
128,72,48398,1,0,0:0:0:0:
224,104,48739,1,0,0:0:0:0:
240,200,49080,1,0,0:0:0:0:
208,296,49421,2,0,P|160:264|144:216,2,100
304,320,50444,1,0,0:0:0:0:
400,320,50784,2,0,L|432:272,2,50
384,224,51466,6,0,P|424:208|488:240,2,100,0|0|4,0:0|0:0|0:0,0:0:0:0:
288,192,52489,1,0,0:0:0:0:
208,136,52830,2,0,P|168:120|112:136,2,100,0|0|4,0:0|0:0|0:0,0:0:0:0:
272,216,53853,2,0,P|328:232|376:208,1,100
424,136,54534,2,0,P|456:128|480:144,6,50
320,136,55898,1,0,0:0:0:0:
216,136,56239,1,4,0:0:0:0:
256,192,59989,12,4,61694,0:0:0:0:
256,192,65784,12,6,67148,0:0:0:0:
256,192,68512,5,6,0:0:0:0:
256,192,69875,5,4,0:0:0:0:
192,80,70216,1,4,0:0:0:0:
80,144,70557,1,4,0:0:0:0:
144,256,70898,1,4,0:0:0:0:
232,208,71239,2,0,L|248:192|280:160,6,50
256,280,72603,5,6,0:0:0:0:
256,184,73966,5,6,0:0:0:0:
256,96,75330,6,0,L|192:144,1,50
256,168,75671,2,0,L|304:216,1,50
256,248,76012,1,0,0:0:0:0:
144,296,76353,1,0,0:0:0:0:
256,344,76694,1,0,0:0:0:0:
368,296,77034,2,0,L|432:296,4,50
368,176,78057,5,4,0:0:0:0:
128,176,78739,6,0,L|128:240,2,50
200,80,79421,1,4,0:0:0:0:
320,80,79762,1,0,0:0:0:0:
392,176,80103,2,0,L|392:240,2,50
392,296,80784,5,0,0:0:0:0:
304,208,81125,1,8,0:0:0:0:
272,320,81466,1,0,0:0:0:0:
192,232,81807,1,8,0:0:0:0:
136,336,82148,2,0,P|88:288|72:240,2,100,0|8|0,0:0|0:0|0:0,0:0:0:0:
240,280,83171,1,8,0:0:0:0:
352,232,83512,2,0,L|384:280,2,50
424,136,84194,5,8,0:0:0:0:
344,48,84534,1,0,0:0:0:0:
256,136,84875,2,0,L|320:232,2,100,0|8|0,0:0|0:0|0:0,0:0:0:0:
176,48,85898,2,0,L|144:96,1,50,0|8,0:0|0:0,0:0:0:0:
120,144,86239,2,0,L|56:144,6,50
104,264,87603,5,12,0:0:0:0:
208,328,87944,1,0,0:0:0:0:
264,224,88284,1,8,0:0:0:0:
376,272,88625,1,0,0:0:0:0:
432,168,88966,2,0,P|424:112|416:88,1,50
176,88,89648,6,0,P|144:56|112:56,2,50
112,192,90330,1,0,0:0:0:0:
184,288,90671,1,0,0:0:0:0:
256,192,91012,2,0,P|288:224|288:240,2,50
312,88,91694,5,4,0:0:0:0:
424,136,92034,1,0,0:0:0:0:
320,192,92375,1,0,0:0:0:0:
432,240,92716,1,0,0:0:0:0:
320,288,93057,1,4,0:0:0:0:
432,328,93398,2,0,P|432:264|400:224,1,100
296,208,94080,1,0,0:0:0:0:
176,184,94421,2,0,P|136:168|128:120,2,50
288,128,95103,5,0,0:0:0:0:
408,136,95444,2,0,P|376:72|328:56,1,100,0|4,0:0|0:0,0:0:0:0:
232,72,96125,1,0,0:0:0:0:
208,192,96466,1,0,0:0:0:0:
128,104,96807,2,0,P|80:152|64:216,1,100,0|4,0:0|0:0,0:0:0:0:
160,256,97489,2,0,P|208:320|272:336,1,100
304,240,98171,2,0,P|384:224|400:192,1,100,0|4,0:0|0:0,0:0:0:0:
296,136,98853,2,0,P|288:88|240:56,1,100
136,104,99534,6,0,P|88:72|72:88,2,50,0|0|4,0:0|0:0|0:0,0:0:0:0:
120,224,100216,2,0,P|88:232|72:256,2,50,0|0|4,0:0|0:0|0:0,0:0:0:0:
232,272,100898,2,0,P|208:304|216:336,3,50,0|0|4|0,0:0|0:0|0:0|0:0,0:0:0:0:
296,288,101580,2,0,P|296:240|280:224,2,50
376,200,102262,1,6,0:0:0:0:
256,200,102603,5,12,0:0:0:0:
