osu file format v12

[General]
AudioFilename: Sum-41_-_Scumfuck_THERESNOSOLUTION.mp3
AudioLeadIn: 500
PreviewTime: 34762
Countdown: 0
SampleSet: Soft
StackLeniency: 0.7
Mode: 0
LetterboxInBreaks: 1

[Editor]
DistanceSpacing: 0.8
BeatDivisor: 4
GridSize: 8

[Metadata]
Title:Scumfuck
TitleUnicode:Scumfuck
Artist:Sum 41
ArtistUnicode:Sum 41
Creator:iPhone
Version:Hard
Source:Screaming Bloody Murder
Tags:Sum41
BeatmapID:246798
BeatmapSetID:91041

[Difficulty]
HPDrainRate:5
CircleSize:4
OverallDifficulty:6
ApproachRate:7
SliderMultiplier:1.2
SliderTickRate:2

[Events]
//Background and Video events
0,0,"201204051522392236.jpg",0,0
//Break Periods
2,56440,59771
2,61894,65908
//Storyboard Layer 0 (Background)
//Storyboard Layer 1 (Fail)
//Storyboard Layer 2 (Pass)
//Storyboard Layer 3 (Foreground)
//Storyboard Sound Samples
//Background Colour Transformations
3,100,163,162,255

[TimingPoints]
1694,340.909090909091,4,2,0,100,1,0
1694,-100,4,2,0,75,0,0
7149,-133.333333333333,4,1,0,50,0,0
18057,-66.6666666666667,4,1,0,50,0,1
23171,-66.6666666666667,4,1,0,80,0,0
34762,-66.6666666666667,4,1,0,80,0,1
45671,-66.6666666666667,4,1,0,75,0,1
51126,-66.6666666666667,4,1,0,75,0,1
56240,-100,4,2,0,75,0,0
60671,-100,4,1,0,75,0,0
62035,-133.333333333333,4,2,0,75,0,0
67149,-66.6666666666667,4,1,0,75,0,0
72603,-100,4,1,0,80,0,0
75330,-100,4,1,0,65,0,0
77717,-66.6666666666667,4,1,0,80,0,0
78569,-66.6666666666667,4,1,0,80,0,1
89308,-66.6666666666667,4,1,0,100,0,1
89649,-57.1428571428571,4,1,0,80,0,1
93910,-57.1428571428571,4,1,0,100,0,1
94251,-66.6666666666667,4,1,0,90,0,1
94762,-100,4,1,0,100,0,1
96978,-80,4,1,0,80,0,1
102603,-100,4,2,0,75,0,0

[HitObjects]
224,120,1694,2,0,L|312:120,2,60
280,240,2376,6,0,L|216:240,2,60
428,261,3058,5,0,0:0:0:0:
288,266,3399,2,0,L|288:218|288:192,1,60
288,267,3740,2,0,L|211:145,1,120
94,93,4421,6,0,P|136:88|168:120,2,60
218,158,5103,2,0,P|262:168|296:144,2,60
346,101,5785,5,0,0:0:0:0:
206,96,6126,2,0,L|209:196,1,60
208,96,6467,2,0,L|256:32,2,60
152,168,7149,6,0,L|80:168,2,45.0000017166138
200,240,7830,2,0,L|168:304,2,45.0000017166138
288,240,8512,1,0,0:0:0:0:
352,176,8853,2,0,B|394:205|415:224|416:224,2,45.0000017166138
288,112,9535,1,0,0:0:0:0:
228,48,9876,6,0,P|196:56|168:80,2,45.0000017166138
232,152,10558,2,0,P|264:144|280:136,2,45.0000017166138
128,164,11240,1,0,0:0:0:0:
128,72,11580,2,0,L|88:112,2,45.0000017166138
208,112,12262,1,0,0:0:0:0:
208,200,12603,6,0,L|144:200,2,45.0000017166138
296,200,13285,6,0,L|360:200,2,45.0000017166138
296,112,13967,5,0,0:0:0:0:
384,112,14308,1,0,0:0:0:0:
432,112,14478,2,0,L|432:192,1,45.0000017166138
432,248,14990,1,0,0:0:0:0:
388,332,15330,5,0,0:0:0:0:
380,332,15501,1,0,0:0:0:0:
376,332,15671,1,0,0:0:0:0:
316,256,16012,5,0,0:0:0:0:
308,256,16183,1,0,0:0:0:0:
300,256,16353,1,0,0:0:0:0:
216,200,16694,6,0,L|192:144,1,45.0000017166138
296,200,17035,2,0,L|320:136,1,45.0000017166138
256,120,17376,1,4,0:0:0:0:
360,99,18057,6,0,L|440:192,1,90.0000034332276
294,150,18399,2,0,L|320:256,1,90.0000034332276
222,149,18740,2,0,L|200:256,1,90.0000034332276
180,84,19080,2,0,L|132:124|88:160,1,90.0000034332276
144,224,19421,6,0,L|144:156|144:96,1,90.0000034332276
208,200,19762,2,0,L|208:268|208:320,1,90.0000034332276
280,232,20103,2,0,L|280:172|280:112,1,90.0000034332276
344,200,20444,2,0,L|344:260|344:320,1,90.0000034332276
398,243,20785,6,0,P|406:267|454:299,2,45.0000017166138
398,242,21126,2,0,L|398:138,1,90.0000034332276
470,146,21467,2,0,B|458:108|423:85|423:85|380:82,1,90.0000034332276
340,92,21807,2,0,B|276:108|236:140|220:164|196:220|212:276|260:308|340:316|340:316|396:300|412:260|396:196|340:196|284:228|284:228,1,540.000020599366
176,168,23171,6,0,L|111:232,1,90.0000034332276
128,240,23512,2,0,L|208:328,1,90.0000034332276
224,304,23853,2,0,L|296:224,1,90.0000034332276
296,240,24194,2,0,L|376:312,1,90.0000034332276
376,296,24535,2,0,L|440:224,1,90.0000034332276
416,208,24876,2,0,L|352:144,1,90.0000034332276
328,176,25217,2,0,L|248:104,1,90.0000034332276
248,160,25558,2,0,L|168:80,1,90.0000034332276
96,88,25899,1,4,0:0:0:0:
95,218,26240,5,0,0:0:0:0:
241,221,26580,1,0,0:0:0:0:
240,80,26921,1,0,0:0:0:0:
98,80,27262,1,0,0:0:0:0:
145,136,27433,2,0,L|48:176,2,90.0000034332276
218,137,27944,2,0,L|312:192,2,90.0000034332276,0|4|0,0:0|0:0|0:0,0:0:0:0:
70,137,28626,5,0,0:0:0:0:
122,274,28967,1,8,0:0:0:0:
177,138,29308,1,0,0:0:0:0:
232,274,29649,1,8,0:0:0:0:
287,137,29990,1,0,0:0:0:0:
339,273,30330,1,8,0:0:0:0:
390,135,30671,1,0,0:0:0:0:
242,136,31012,1,8,0:0:0:0:
95,143,31353,6,0,L|96:40,2,90.0000034332276,0|8|0,0:0|0:0|0:0,0:0:0:0:
168,218,32035,2,0,L|168:320,2,90.0000034332276,0|8|0,0:0|0:0|0:0,0:0:0:0:
238,139,32717,2,0,L|336:72,5,90.0000034332276,8|4|8|4|8|4,0:0|0:0|0:0|0:0|0:0|0:0,0:0:0:0:
328,144,33740,2,0,L|360:144|392:144,4,45.0000017166138
144,144,34421,5,4,0:0:0:0:
184,248,34762,6,0,P|120:256|80:232,2,90.0000034332276
304,160,35444,2,0,P|360:152|408:176,2,90.0000034332276
192,112,36126,2,0,P|136:104|88:128,2,90.0000034332276
296,168,36808,6,0,B|329:185|359:241|300:278|300:278|241:240,1,180.000006866455
145,188,37490,1,0,0:0:0:0:
257,64,37830,1,0,0:0:0:0:
369,188,38171,1,0,0:0:0:0:
200,185,38512,2,0,P|159:159|144:112,2,90.0000034332276
304,192,39194,2,0,P|351:208|352:280,2,90.0000034332276
368,72,39876,1,0,0:0:0:0:
232,72,40217,5,2,0:0:0:0:
120,168,40558,5,0,0:0:0:0:
96,295,40898,1,8,0:0:0:0:
237,254,41240,1,0,0:0:0:0:
121,163,41580,2,0,L|160:72,2,90.0000034332276,0|8|0,0:0|0:0|0:0,0:0:0:0:
256,96,42262,2,0,P|328:88|368:112,1,90.0000034332276,0|8,0:0|0:0,0:0:0:0:
400,144,42603,2,0,P|432:208|408:264,1,90.0000034332276,0|8,0:0|0:0,0:0:0:0:
397,288,42944,2,8,P|346:325|285:328,1,90.0000034332276,8|8,0:0|0:0,0:0:0:0:
256,336,43284,2,0,P|184:320|152:264,1,90.0000034332276,0|8,0:0|0:0,0:0:0:0:
128,256,43626,2,0,P|120:220|128:192,3,45.0000017166138,0|8|0|8,0:0|0:0|0:0|0:0,0:0:0:0:
128,175,43967,2,0,P|132:147|144:119,3,45.0000017166138,0|8|0|8,0:0|0:0|0:0|0:0,0:0:0:0:
152,102,44308,2,0,P|180:82|200:70,3,45.0000017166138,0|8|0|8,0:0|0:0|0:0|0:0,0:0:0:0:
224,64,44649,6,0,B|296:48|320:104|272:152|272:152|296:208,1,180.000006866455
336,312,45330,5,4,0:0:0:0:
192,312,45671,6,0,L|192:208,2,90.0000034332276,0|8|0,0:0|0:0|0:0,0:0:0:0:
288,200,46353,1,0,0:0:0:0:
192,96,46694,2,0,L|192:216,2,90.0000034332276,0|8|0,0:0|0:0|0:0,0:0:0:0:
336,96,47375,2,0,P|368:160|360:200,1,90.0000034332276,0|8,0:0|0:0,0:0:0:0:
368,256,47717,1,0,0:0:0:0:
208,256,48058,2,0,P|164:204|160:160,1,90.0000034332276
160,112,48399,2,0,P|200:144|200:160,2,45.0000017166138
160,40,48740,1,8,0:0:0:0:
296,88,49080,5,0,0:0:0:0:
400,192,49421,1,0,0:0:0:0:
256,184,49762,1,0,0:0:0:0:
336,304,50103,2,0,B|326:299|272:272|240:240,1,90.0000034332277,0|8,0:0|0:0,0:0:0:0:
256,184,50444,1,4,0:0:0:0:
136,264,50785,1,0,0:0:0:0:
136,120,51126,1,8,0:0:0:0:
256,40,51467,2,0,L|256:160,1,90.0000034332276
320,104,51808,2,0,L|280:144,3,45.0000017166138
312,160,52149,2,0,P|360:232|280:304,1,180.000006866455
168,296,52830,5,0,0:0:0:0:
72,192,53171,1,0,0:0:0:0:
168,88,53512,2,0,P|192:40|240:32,1,90.0000034332276
240,104,53853,2,0,P|228:148|176:160,1,90.0000034332276
264,168,54194,1,0,0:0:0:0:
296,232,54365,1,0,0:0:0:0:
264,296,54535,1,0,0:0:0:0:
192,296,54705,1,0,0:0:0:0:
120,296,54876,2,0,B|130:294|72:288|64:232,3,90.0000034332276
104,176,55558,2,0,L|52:227,4,52.5000020027161
160,120,56240,5,4,0:0:0:0:
255,243,60671,5,0,0:0:0:0:
207,206,60756,1,0,0:0:0:0:
226,150,60841,1,0,0:0:0:0:
286,151,60926,1,0,0:0:0:0:
304,208,61012,1,0,0:0:0:0:
296,128,61182,5,0,0:0:0:0:
288,176,61353,1,8,0:0:0:0:
256,264,61694,5,4,0:0:0:0:
256,192,66808,5,4,0:0:0:0:
176,96,67149,6,0,P|152:112|136:144,6,45.0000017166138
336,288,68512,6,0,P|364:264|368:240,6,45.0000017166138
152,48,69705,6,0,L|152:152,1,90.0000034332276,0|8,0:0|0:0,0:0:0:0:
216,104,70046,2,0,L|216:224,1,90.0000034332276,0|8,0:0|0:0,0:0:0:0:
280,168,70387,2,0,L|280:224,6,45.0000017166138,0|8|0|8|0|8|0,0:0|0:0|0:0|0:0|0:0|0:0|0:0,0:0:0:0:
424,168,71239,1,0,0:0:0:0:
392,232,71409,1,8,0:0:0:0:
360,168,71580,1,0,0:0:0:0:
320,232,71750,1,8,0:0:0:0:
280,168,71921,2,0,L|232:224,5,45.0000017166138,0|8|0|8|0|8,0:0|0:0|0:0|0:0|0:0|0:0,0:0:0:0:
216,88,72603,6,0,L|216:40,2,30
216,288,73967,6,0,L|216:336,2,30
152,80,75330,6,0,P|192:112|240:96,1,60,0|8,0:0|0:0,0:0:0:0:
240,48,75671,2,0,P|272:56|288:80,1,60,0|8,0:0|0:0,0:0:0:0:
336,64,76012,1,0,0:0:0:0:
400,72,76353,2,0,B|456:104|448:144|448:144|440:168,1,60,0|8,0:0|0:0,0:0:0:0:
424,160,76694,2,0,L|448:208,2,30
392,192,77035,2,0,L|368:160,2,30
360,232,77376,2,0,L|376:272,2,30
296,264,77717,5,0,0:0:0:0:
296,136,78058,2,0,B|242:106|166:107|160:160|160:160|160:208,1,180.000006866455
160,320,78740,1,0,0:0:0:0:
56,216,79080,1,0,0:0:0:0:
168,120,79421,2,0,P|184:72|224:64,1,90.0000034332276
288,64,79762,1,0,0:0:0:0:
432,64,80103,6,0,L|456:104,2,45.0000017166138
360,64,80444,1,0,0:0:0:0:
216,64,80785,1,0,0:0:0:0:
72,64,81126,1,0,0:0:0:0:
96,200,81467,2,0,B|124:172|140:152|140:152|144:112,1,90.0000034332276
128,224,81808,2,0,B|164:212|188:204|188:204|224:176,1,90.0000034332276
152,256,82149,2,0,B|208:286|205:287|206:286|240:272,1,90.0000034332277
288,304,82490,1,0,0:0:0:0:
432,304,82830,2,0,L|400:248,2,52.5000020027161
440,200,83171,2,0,L|481:158,2,52.5000020027161
400,152,83512,1,4,0:0:0:0:
112,104,84194,5,0,0:0:0:0:
248,64,84535,1,8,0:0:0:0:
208,200,84876,1,8,0:0:0:0:
344,240,85217,1,0,0:0:0:0:
264,128,85558,2,0,P|268:198|304:232,1,90.0000034332276
208,232,85899,2,0,P|256:264|304:256,1,90.0000034332276,8|0,0:0|0:0,0:0:0:0:
288,192,86240,2,0,P|348:168|376:128,1,90.0000034332276,8|0,0:0|0:0,0:0:0:0:
290,126,86580,2,0,P|299:69|280:32,1,90.0000034332276,8|0,0:0|0:0,0:0:0:0:
224,104,86921,2,0,P|193:60|152:56,1,90.0000034332276,8|0,0:0|0:0,0:0:0:0:
112,112,87262,2,0,P|88:120|64:144,3,45.0000017166138,8|0|8|0,0:0|0:0|0:0|0:0,0:0:0:0:
111,157,87603,2,0,P|87:165|72:184,3,45.0000017166138,8|0|8|0,0:0|0:0|0:0|0:0,0:0:0:0:
111,189,87944,2,0,P|87:197|72:224,3,45.0000017166138,8|0|8|0,0:0|0:0|0:0|0:0,0:0:0:0:
112,232,88285,6,0,L|110:357,2,90.0000034332276
200,120,88967,1,0,0:0:0:0:
248,256,89308,1,0,0:0:0:0:
384,152,89649,2,0,L|384:296,2,105.000001001358
232,72,90330,1,0,0:0:0:0:
183,192,90671,6,0,B|255:192|255:192|287:168|304:152,1,105.000001001358,0|0,0:0|0:0,0:0:0:0:
342,123,91012,2,0,L|392:72,2,52.500000500679
392,192,91353,1,0,0:0:0:0:
257,196,91694,6,0,B|241:164|249:108|249:108|256:72,2,105.000001001358
296,272,92205,1,0,0:0:0:0:
448,200,92546,2,0,L|392:232,2,52.500000500679
336,72,93058,6,0,B|280:88|256:108|256:108|256:168,1,105.000001001358
256,208,93399,1,0,0:0:0:0:
80,200,93740,2,0,L|160:128,2,105.000001001358
128,248,94251,2,0,B|152:240|152:240|160:208|144:184,2,45.0000017166138
224,248,94762,5,4,0:0:0:0:
224,152,95103,6,0,L|280:184,1,60
272,232,95444,2,0,L|224:232,2,30
280,280,95785,2,0,L|208:320,1,60
352,280,96126,2,0,L|408:312,2,60
352,184,96808,1,8,0:0:0:0:
240,80,97149,6,0,L|293:180,1,75
216,152,97490,2,0,L|232:184|248:208,1,37.5
160,232,97830,6,0,L|112:144,1,75
72,192,98171,2,0,L|40:136,1,37.5
72,248,98512,6,0,P|112:240|160:256,1,75
144,304,98853,2,0,P|112:312|80:304,2,37.5
200,288,99194,6,0,P|240:304|272:288,1,75
248,240,99535,2,0,P|280:240|304:248,2,37.5
256,192,99876,12,4,102603,0:0:0:0:
