osu file format v12

[General]
AudioFilename: Sum-41_-_Scumfuck_THERESNOSOLUTION.mp3
AudioLeadIn: 485
PreviewTime: 34762
Countdown: 0
SampleSet: Normal
StackLeniency: 0.7
Mode: 0
LetterboxInBreaks: 1

[Editor]
DistanceSpacing: 1
BeatDivisor: 2
GridSize: 4

[Metadata]
Title:Scumfuck
TitleUnicode:Scumfuck
Artist:Sum 41
ArtistUnicode:Sum 41
Creator:iPhone
Version:Easy
Source:Screaming Bloody Murder
Tags:Sum41
BeatmapID:269770
BeatmapSetID:91041

[Difficulty]
HPDrainRate:3
CircleSize:2
OverallDifficulty:1
ApproachRate:3
SliderMultiplier:1
SliderTickRate:2

[Events]
//Background and Video events
0,0,"201204051522392236.jpg",0,0
//Break Periods
2,61893,65708
//Storyboard Layer 0 (Background)
//Storyboard Layer 1 (Fail)
//Storyboard Layer 2 (Pass)
//Storyboard Layer 3 (Foreground)
//Storyboard Sound Samples
//Background Colour Transformations
3,100,163,162,255

[TimingPoints]
1694,340.909090909091,4,2,0,100,1,0
1694,-133.333333333333,4,2,0,75,0,0
7149,-133.333333333333,4,1,0,50,0,0
18058,-100,4,1,0,50,0,1
23171,-100,4,1,0,80,0,0
34762,-100,4,1,0,75,0,1
40216,-100,4,1,0,100,0,0
45671,-100,4,1,0,75,0,0
51126,-100,4,1,0,75,0,0
60671,-100,4,1,0,75,0,0
62035,-133.333333333333,4,2,0,75,0,0
67148,-100,4,1,0,100,0,0
72603,-133.333333333333,4,1,0,80,0,0
75330,-100,4,1,0,65,0,0
77717,-100,4,1,0,80,0,0
78569,-100,4,1,0,80,0,1
89308,-100,4,1,0,100,0,1
89649,-100,4,1,0,80,0,1
93910,-100,4,1,0,100,0,1
94251,-100,4,1,0,90,0,1
94762,-100,4,1,0,100,0,1
96978,-100,4,1,0,80,0,1
102603,-100,4,1,0,100,0,0

[HitObjects]
96,80,1694,2,0,P|176:144|272:128,1,150.000005722046
343,60,3057,2,0,P|407:108|375:188,1,150.000005722046
303,287,4421,2,0,P|223:319|159:303,1,150.000005722046
62,194,5784,2,0,P|62:114|142:66,1,150.000005722046
256,96,7148,5,4,0:0:0:0:
256,240,7830,1,4,0:0:0:0:
160,128,8512,2,0,P|128:160|112:208,1,75.0000028610231
112,256,9194,1,0,0:0:0:0:
256,320,9875,5,4,0:0:0:0:
256,176,10557,1,4,0:0:0:0:
368,80,11239,2,0,P|400:128|400:160,1,75.0000028610231
400,224,11921,2,0,P|352:288|320:288,1,75.0000028610231
288,272,12603,5,4,0:0:0:0:
160,192,13284,1,4,0:0:0:0:
80,64,13966,2,0,P|48:128|48:160,1,75.0000028610231,0|8,0:0|0:0,0:0:0:0:
48,208,14648,2,0,P|64:272|96:304,1,75.0000028610231,0|8,0:0|0:0,0:0:0:0:
128,240,15330,5,4,0:0:0:0:
272,176,16012,1,8,0:0:0:0:
416,176,16694,2,0,P|400:112|368:80,1,75.0000028610231,0|8,0:0|0:0,0:0:0:0:
352,48,17375,1,6,0:0:0:0:
416,176,18057,6,0,P|464:224|464:272,3,75.0000028610231
400,304,19421,2,0,P|384:256|336:240,3,100
240,256,20784,6,0,L|160:320,2,100
256,192,21807,12,0,22830,0:0:0:0:
208,128,23512,6,0,P|160:224|224:304,1,200,8|8,0:0|0:0,0:0:0:0:
400,256,24875,2,8,P|432:144|384:80,1,200
192,64,26239,2,0,L|192:176,1,100,8|0,0:0|0:0,0:0:0:0:
288,144,26921,2,0,L|288:256,1,100,8|0,0:0|0:0,0:0:0:0:
384,224,27603,2,4,P|320:320|224:320,1,200
96,192,28966,6,0,P|144:112|192:96,1,100,8|0,0:0|0:0,0:0:0:0:
240,64,29648,2,0,P|352:64|384:96,1,100,8|0,0:0|0:0,0:0:0:0:
416,128,30330,2,0,P|464:192|448:240,1,100,8|0,0:0|0:0,0:0:0:0:
384,272,31012,1,8,0:0:0:0:
256,192,31694,12,0,33739,0:0:0:0:
176,80,34421,6,0,B|160:128|128:160|112:144|112:144|128:128|160:176|176:224,1,200
336,304,35784,6,0,B|352:256|384:224|400:240|400:240|384:256|352:208|336:160,1,200
176,80,37148,6,0,P|128:112|128:160,1,100
128,256,37830,2,0,P|160:320|208:320,1,100
288,320,38512,2,0,P|352:288|368:240,1,100
384,160,39194,2,0,P|368:96|304:80,1,100
240,64,39875,1,4,0:0:0:0:
48,128,40557,6,0,B|48:208|48:208|80:288|144:272,1,200
320,208,41921,2,0,B|400:224|400:224|432:288|400:320|400:320|352:320,1,200
288,304,42944,2,0,P|224:288|192:256,1,100
128,192,43625,2,0,P|96:144|112:96,1,100
192,48,44307,2,0,P|240:32|256:32,2,50
288,96,44989,2,0,P|352:160|352:208,1,100,0|4,0:0|0:0,0:0:0:0:
192,288,46012,5,0,0:0:0:0:
80,128,46694,1,0,0:0:0:0:
272,64,47375,2,0,P|208:64|176:96,1,100
256,144,48057,2,0,P|208:176|144:160,1,100
112,96,48739,2,0,P|64:160|80:208,1,100
80,272,49421,2,0,P|128:320|160:320,3,100
256,304,50784,1,4,0:0:0:0:
448,224,51466,6,0,L|448:112,2,100
256,304,52830,2,0,P|208:288|176:240,1,100
96,192,53512,2,0,L|96:80,1,100
176,160,54194,2,0,L|176:48,1,100
256,192,54875,12,4,56239,0:0:0:0:
256,192,60330,12,2,61693,0:0:0:0:
256,112,67148,5,6,0:0:0:0:
256,272,68512,5,6,0:0:0:0:
192,64,69875,6,0,P|144:96|128:144,1,100
128,240,70557,2,0,P|160:304|192:320,1,100
256,192,71239,12,0,72603,0:0:0:0:
384,192,73966,5,0,0:0:0:0:
256,64,75330,2,0,L|256:176,1,100
256,272,76012,2,0,P|192:272|160:240,1,100
96,192,76694,2,0,L|96:128,6,50
368,64,78739,6,0,B|384:112|416:144|432:128|432:128|416:112|384:160|368:208,1,200
208,320,80103,1,0,0:0:0:0:
64,192,80784,2,0,P|96:128|128:112,1,100,0|8,0:0|0:0,0:0:0:0:
192,176,81466,2,0,P|240:128|240:96,1,100,0|8,0:0|0:0,0:0:0:0:
320,48,82148,2,0,P|384:80|400:128,1,100,0|8,0:0|0:0,0:0:0:0:
336,176,82830,2,0,P|352:240|368:272,1,100,0|8,0:0|0:0,0:0:0:0:
448,320,83512,1,4,0:0:0:0:
256,304,84194,6,0,P|240:240|224:208,1,100,0|8,0:0|0:0,0:0:0:0:
256,112,84875,2,0,P|272:64|320:16,1,100,0|8,0:0|0:0,0:0:0:0:
400,48,85557,2,0,P|368:96|368:144,1,100,0|8,0:0|0:0,0:0:0:0:
464,144,86239,2,0,P|448:224|416:256,1,100,0|8,0:0|0:0,0:0:0:0:
384,320,86921,2,0,P|288:320|272:304,1,100,0|8,0:0|0:0,0:0:0:0:
208,256,87603,2,0,P|160:240|96:256,1,100,0|8,0:0|0:0,0:0:0:0:
64,160,88284,2,0,P|64:96|112:64,1,100,0|8,0:0|0:0,0:0:0:0:
192,80,88966,1,4,0:0:0:0:
400,80,89648,6,0,P|352:144|304:176,1,100,0|8,0:0|0:0,0:0:0:0:
256,208,90330,1,0,0:0:0:0:
112,64,91012,5,8,0:0:0:0:
112,272,91694,2,0,B|80:224|80:224|80:176,1,100,0|8,0:0|0:0,0:0:0:0:
176,224,92375,2,0,B|224:176|224:176|224:144,1,100,0|8,0:0|0:0,0:0:0:0:
320,192,93057,2,0,B|320:128|320:128|304:96,3,100,0|8|0|8,0:0|0:0|0:0|0:0,0:0:0:0:
208,64,94421,1,6,0:0:0:0:
80,208,95103,6,0,P|128:224|176:208,1,100,0|8,0:0|0:0,0:0:0:0:
256,160,95784,1,0,0:0:0:0:
432,64,96466,6,0,P|448:128|432:160,1,100,0|8,0:0|0:0,0:0:0:0:
384,240,97148,2,0,P|352:288|304:304,1,100,0|8,0:0|0:0,0:0:0:0:
224,320,97830,2,0,P|160:320|128:288,1,100,0|8,0:0|0:0,0:0:0:0:
64,240,98512,2,0,P|48:176|64:144,1,100,0|8,0:0|0:0,0:0:0:0:
144,96,99194,2,0,P|208:128|208:176,1,100,0|8,0:0|0:0,0:0:0:0:
256,192,99875,12,4,102603,0:0:0:0:
