osu file format v14

[General]
AudioFilename: 02 - Over My Head (Better Off Dead).mp3
AudioLeadIn: 0
PreviewTime: -1
Countdown: 0
SampleSet: Normal
StackLeniency: 0.7
Mode: 1
LetterboxInBreaks: 0
WidescreenStoryboard: 1

[Editor]
DistanceSpacing: 0.9
BeatDivisor: 4
GridSize: 4
TimelineZoom: 1

[Metadata]
Title:Over My Head (Better Off Dead)
TitleUnicode:Over My Head (Better Off Dead)
Artist:Sum 41
ArtistUnicode:Sum 41
Creator:goatlife
Version:Inner Oni
Source:
Tags:Sum 41 Over My Head Punk Alternative Rock American goatlife Ozzy OzzyOzrock
BeatmapID:676034
BeatmapSetID:301463

[Difficulty]
HPDrainRate:5
CircleSize:5
OverallDifficulty:5
ApproachRate:5
SliderMultiplier:1.4
SliderTickRate:1

[Events]
//Background and Video events
0,0,"bored_sum41_logo_re_design_by_imeraze-d54hlrl.png",0,0
//Break Periods
//Storyboard Layer 0 (Background)
//Storyboard Layer 1 (Fail)
//Storyboard Layer 2 (Pass)
//Storyboard Layer 3 (Foreground)
//Storyboard Sound Samples

[TimingPoints]
225,325.856731656981,4,1,0,100,1,0
36720,-100,4,1,0,100,0,1
47148,-100,4,1,0,100,0,0
73216,-100,4,1,0,100,0,1
83644,-100,4,1,0,100,0,0
126657,-100,4,1,0,100,0,1
137084,-100,4,1,0,100,0,0

[HitObjects]
256,192,4786,5,8,0:0:0:0:
256,192,4949,1,8,0:0:0:0:
256,192,5112,1,0,0:0:0:0:
256,192,5275,1,0,0:0:0:0:
256,192,5438,5,12,0:0:0:0:
256,192,5601,1,0,0:0:0:0:
256,192,5764,1,8,0:0:0:0:
256,192,5927,1,0,0:0:0:0:
256,192,6008,1,0,0:0:0:0:
256,192,6090,1,0,0:0:0:0:
256,192,6171,1,0,0:0:0:0:
256,192,6253,1,0,0:0:0:0:
256,192,6416,1,8,0:0:0:0:
256,192,6579,1,0,0:0:0:0:
256,192,6660,1,0,0:0:0:0:
256,192,6742,1,0,0:0:0:0:
256,192,6905,1,0,0:0:0:0:
256,192,7067,1,8,0:0:0:0:
256,192,7230,1,0,0:0:0:0:
256,192,7312,1,0,0:0:0:0:
256,192,7393,1,0,0:0:0:0:
256,192,7475,1,8,0:0:0:0:
256,192,7556,1,0,0:0:0:0:
256,192,7719,1,8,0:0:0:0:
256,192,7882,1,8,0:0:0:0:
256,192,7964,1,8,0:0:0:0:
256,192,8045,1,0,0:0:0:0:
256,192,8208,1,0,0:0:0:0:
256,192,8371,1,8,0:0:0:0:
256,192,8534,1,0,0:0:0:0:
272,191,8615,1,0,0:0:0:0:
251,194,8697,1,0,0:0:0:0:
251,194,8778,1,0,0:0:0:0:
240,188,8860,1,0,0:0:0:0:
241,188,8941,1,0,0:0:0:0:
239,190,9023,1,8,0:0:0:0:
256,192,9186,1,0,0:0:0:0:
262,195,9348,1,0,0:0:0:0:
262,195,9511,1,0,0:0:0:0:
276,186,9674,1,8,0:0:0:0:
266,190,9837,1,0,0:0:0:0:
256,192,10000,1,8,0:0:0:0:
256,192,10082,1,8,0:0:0:0:
256,192,10163,1,8,0:0:0:0:
256,192,10245,1,8,0:0:0:0:
256,192,10326,1,8,0:0:0:0:
261,191,10408,1,8,0:0:0:0:
261,191,10489,1,8,0:0:0:0:
266,187,10570,1,8,0:0:0:0:
268,186,10652,1,0,0:0:0:0:
263,190,10815,1,0,0:0:0:0:
267,181,10896,1,0,0:0:0:0:
258,182,10978,1,8,0:0:0:0:
269,180,11059,1,0,0:0:0:0:
266,185,11141,1,0,0:0:0:0:
262,195,11304,1,4,0:0:0:0:
263,190,11467,1,0,0:0:0:0:
267,181,11548,1,0,0:0:0:0:
258,182,11630,1,8,0:0:0:0:
256,192,11711,1,8,0:0:0:0:
266,187,11792,1,0,0:0:0:0:
256,192,11955,1,12,0:0:0:0:
263,190,12118,1,0,0:0:0:0:
267,181,12199,1,0,0:0:0:0:
258,182,12281,1,8,0:0:0:0:
262,195,12363,1,0,0:0:0:0:
262,195,12444,1,0,0:0:0:0:
263,190,12607,1,4,0:0:0:0:
263,190,12770,1,0,0:0:0:0:
267,181,12851,1,0,0:0:0:0:
258,182,12933,1,8,0:0:0:0:
258,182,13014,1,8,0:0:0:0:
262,195,13096,1,0,0:0:0:0:
263,190,13259,1,12,0:0:0:0:
263,190,13422,1,0,0:0:0:0:
267,181,13503,1,0,0:0:0:0:
258,182,13585,1,8,0:0:0:0:
256,192,13666,1,0,0:0:0:0:
256,192,13748,1,0,0:0:0:0:
263,190,13910,1,4,0:0:0:0:
263,190,14073,1,0,0:0:0:0:
267,181,14154,1,0,0:0:0:0:
258,182,14236,1,8,0:0:0:0:
258,182,14318,1,8,0:0:0:0:
258,182,14399,1,0,0:0:0:0:
263,190,14562,1,12,0:0:0:0:
263,190,14725,1,0,0:0:0:0:
267,181,14806,1,0,0:0:0:0:
258,182,14888,1,8,0:0:0:0:
269,180,14969,1,0,0:0:0:0:
266,185,15051,1,0,0:0:0:0:
269,183,15132,1,0,0:0:0:0:
255,183,15214,1,8,0:0:0:0:
267,181,15295,1,8,0:0:0:0:
258,182,15377,1,0,0:0:0:0:
269,180,15458,1,0,0:0:0:0:
274,177,15540,1,8,0:0:0:0:
267,181,15621,1,8,0:0:0:0:
274,177,15703,1,0,0:0:0:0:
274,177,15784,1,0,0:0:0:0:
268,187,15866,1,8,0:0:0:0:
265,197,16029,1,0,0:0:0:0:
275,181,16191,1,8,0:0:0:0:
266,190,16354,1,0,0:0:0:0:
272,178,16517,1,0,0:0:0:0:
263,187,16680,1,0,0:0:0:0:
269,180,16762,1,0,0:0:0:0:
263,180,16843,1,8,0:0:0:0:
271,187,17006,1,0,0:0:0:0:
271,187,17169,1,0,0:0:0:0:
274,190,17332,1,0,0:0:0:0:
274,190,17413,1,0,0:0:0:0:
264,182,17495,1,8,0:0:0:0:
268,187,17658,1,0,0:0:0:0:
268,188,17821,1,0,0:0:0:0:
268,188,17902,1,0,0:0:0:0:
268,188,17984,1,0,0:0:0:0:
277,191,18147,1,8,0:0:0:0:
276,191,18310,1,0,0:0:0:0:
276,191,18472,1,0,0:0:0:0:
276,191,18554,1,0,0:0:0:0:
276,191,18635,1,0,0:0:0:0:
276,191,18717,1,0,0:0:0:0:
265,187,18798,5,8,0:0:0:0:
265,186,18961,1,0,0:0:0:0:
269,183,19124,1,8,0:0:0:0:
279,182,19206,1,8,0:0:0:0:
290,186,19287,1,0,0:0:0:0:
288,189,19450,1,8,0:0:0:0:
289,189,19613,1,8,0:0:0:0:
290,189,19694,1,8,0:0:0:0:
275,187,19776,1,0,0:0:0:0:
277,191,19939,1,0,0:0:0:0:
276,191,20102,1,8,0:0:0:0:
279,197,20265,1,0,0:0:0:0:
285,188,20346,1,0,0:0:0:0:
285,194,20428,1,0,0:0:0:0:
285,194,20509,1,0,0:0:0:0:
285,194,20591,1,0,0:0:0:0:
285,194,20672,1,0,0:0:0:0:
274,195,20753,1,8,0:0:0:0:
283,202,20916,1,0,0:0:0:0:
262,195,20998,1,0,0:0:0:0:
283,202,21079,1,0,0:0:0:0:
265,194,21242,1,0,0:0:0:0:
281,197,21405,1,8,0:0:0:0:
281,200,21487,1,0,0:0:0:0:
283,200,21568,1,0,0:0:0:0:
258,194,21650,1,0,0:0:0:0:
299,201,21731,1,8,0:0:0:0:
291,193,21894,1,0,0:0:0:0:
279,197,21975,1,0,0:0:0:0:
283,193,22057,1,8,0:0:0:0:
285,194,22220,1,0,0:0:0:0:
285,194,22383,1,0,0:0:0:0:
279,203,22546,1,0,0:0:0:0:
278,199,22709,1,8,0:0:0:0:
262,193,22872,1,0,0:0:0:0:
256,194,23034,1,0,0:0:0:0:
256,194,23116,1,0,0:0:0:0:
256,194,23197,1,0,0:0:0:0:
282,182,23279,1,0,0:0:0:0:
258,194,23360,1,8,0:0:0:0:
283,173,23523,1,0,0:0:0:0:
272,187,23686,1,8,0:0:0:0:
302,191,23849,1,8,0:0:0:0:
301,192,23931,1,8,0:0:0:0:
287,189,24012,1,0,0:0:0:0:
279,186,24175,1,8,0:0:0:0:
279,194,24338,1,0,0:0:0:0:
301,183,24501,1,8,0:0:0:0:
291,188,24664,1,0,0:0:0:0:
282,182,24827,1,0,0:0:0:0:
282,182,24908,1,0,0:0:0:0:
282,182,24990,1,0,0:0:0:0:
282,182,25071,1,0,0:0:0:0:
272,187,25153,1,0,0:0:0:0:
283,173,25315,1,8,0:0:0:0:
272,187,25478,1,0,0:0:0:0:
287,189,25641,1,0,0:0:0:0:
279,186,25804,1,8,0:0:0:0:
279,186,25886,1,8,0:0:0:0:
279,186,25967,1,8,0:0:0:0:
282,182,26130,1,8,0:0:0:0:
266,186,26293,1,4,0:0:0:0:
277,180,26456,1,0,0:0:0:0:
291,175,26619,1,8,0:0:0:0:
290,174,26782,1,0,0:0:0:0:
255,173,26945,1,0,0:0:0:0:
270,175,27108,1,8,0:0:0:0:
264,159,27271,1,0,0:0:0:0:
279,171,27434,1,8,0:0:0:0:
270,167,27596,1,0,0:0:0:0:
270,167,27678,1,0,0:0:0:0:
281,172,27759,1,0,0:0:0:0:
260,171,27922,1,8,0:0:0:0:
261,162,28085,1,0,0:0:0:0:
270,163,28167,1,0,0:0:0:0:
270,163,28248,1,0,0:0:0:0:
279,175,28411,1,8,0:0:0:0:
270,179,28574,1,0,0:0:0:0:
281,163,28737,1,8,0:0:0:0:
286,173,28900,1,0,0:0:0:0:
281,172,29063,1,0,0:0:0:0:
269,171,29226,1,8,0:0:0:0:
291,172,29389,1,0,0:0:0:0:
291,173,29470,1,0,0:0:0:0:
281,164,29552,5,8,0:0:0:0:
281,168,29715,1,0,0:0:0:0:
283,166,29877,1,8,0:0:0:0:
290,183,30040,1,0,0:0:0:0:
290,183,30122,1,0,0:0:0:0:
291,183,30203,1,0,0:0:0:0:
291,183,30285,1,0,0:0:0:0:
292,182,30366,1,0,0:0:0:0:
283,181,30529,1,8,0:0:0:0:
285,178,30692,1,0,0:0:0:0:
294,180,30855,1,8,0:0:0:0:
321,173,31018,1,0,0:0:0:0:
299,171,31099,1,0,0:0:0:0:
302,175,31181,1,8,0:0:0:0:
305,182,31344,1,0,0:0:0:0:
305,182,31425,1,0,0:0:0:0:
305,182,31507,1,0,0:0:0:0:
305,182,31670,1,0,0:0:0:0:
290,183,31833,1,8,0:0:0:0:
309,181,31996,1,0,0:0:0:0:
309,181,32077,1,0,0:0:0:0:
309,181,32158,1,0,0:0:0:0:
301,180,32321,1,8,0:0:0:0:
316,179,32484,1,0,0:0:0:0:
322,185,32647,1,8,0:0:0:0:
324,178,32810,1,0,0:0:0:0:
324,178,32892,1,0,0:0:0:0:
324,178,32973,1,0,0:0:0:0:
299,179,33136,1,8,0:0:0:0:
321,183,33299,1,0,0:0:0:0:
324,186,33462,1,0,0:0:0:0:
331,181,33625,1,8,0:0:0:0:
331,169,33788,1,0,0:0:0:0:
346,183,33869,1,0,0:0:0:0:
341,182,33951,1,8,0:0:0:0:
335,183,34114,1,4,0:0:0:0:
336,183,34277,1,4,0:0:0:0:
337,183,34439,1,4,0:0:0:0:
337,183,34602,1,4,0:0:0:0:
337,183,34765,1,4,0:0:0:0:
337,183,34928,1,4,0:0:0:0:
337,183,35091,1,4,0:0:0:0:
336,202,35254,1,4,0:0:0:0:
336,202,35417,1,4,0:0:0:0:
336,202,35580,1,4,0:0:0:0:
364,223,35743,1,4,0:0:0:0:
331,207,36069,1,12,0:0:0:0:
331,207,36232,1,12,0:0:0:0:
331,207,36395,1,12,0:0:0:0:
340,210,36720,1,0,0:0:0:0:
334,222,36802,1,0,0:0:0:0:
340,210,36883,1,0,0:0:0:0:
316,220,37046,1,8,0:0:0:0:
307,203,37209,1,0,0:0:0:0:
319,215,37372,5,8,0:0:0:0:
325,215,37535,1,0,0:0:0:0:
310,219,37617,1,0,0:0:0:0:
303,223,37698,1,0,0:0:0:0:
339,221,37779,1,0,0:0:0:0:
340,221,37861,1,0,0:0:0:0:
321,223,37942,1,0,0:0:0:0:
317,222,38024,1,8,0:0:0:0:
322,213,38187,1,0,0:0:0:0:
300,212,38350,1,8,0:0:0:0:
358,230,38513,1,0,0:0:0:0:
351,211,38676,1,8,0:0:0:0:
327,218,38839,1,0,0:0:0:0:
327,218,38920,1,0,0:0:0:0:
331,219,39001,1,8,0:0:0:0:
331,217,39164,1,0,0:0:0:0:
305,216,39327,1,8,0:0:0:0:
306,216,39409,1,8,0:0:0:0:
306,216,39490,1,8,0:0:0:0:
306,216,39572,1,8,0:0:0:0:
310,229,39653,1,0,0:0:0:0:
332,220,39816,1,0,0:0:0:0:
319,214,39979,1,8,0:0:0:0:
319,214,40060,1,8,0:0:0:0:
320,214,40142,1,8,0:0:0:0:
320,213,40223,1,8,0:0:0:0:
314,217,40305,1,0,0:0:0:0:
314,217,40468,1,0,0:0:0:0:
314,207,40631,1,8,0:0:0:0:
324,212,40794,1,0,0:0:0:0:
324,212,40875,1,0,0:0:0:0:
330,203,40957,1,8,0:0:0:0:
319,200,41120,1,0,0:0:0:0:
316,200,41201,1,0,0:0:0:0:
290,207,41282,1,8,0:0:0:0:
293,209,41445,1,8,0:0:0:0:
298,208,41527,1,8,0:0:0:0:
303,207,41608,1,8,0:0:0:0:
305,206,41690,1,8,0:0:0:0:
298,210,41771,1,0,0:0:0:0:
298,210,41853,1,0,0:0:0:0:
295,209,41934,1,8,0:0:0:0:
293,190,42097,1,0,0:0:0:0:
294,199,42260,5,8,0:0:0:0:
308,193,42423,1,0,0:0:0:0:
323,198,42586,1,8,0:0:0:0:
324,201,42749,1,0,0:0:0:0:
319,200,42830,1,0,0:0:0:0:
309,192,42912,1,8,0:0:0:0:
323,201,42993,1,0,0:0:0:0:
321,200,43075,1,0,0:0:0:0:
317,198,43156,1,0,0:0:0:0:
298,208,43238,1,8,0:0:0:0:
320,200,43401,1,0,0:0:0:0:
300,200,43563,1,8,0:0:0:0:
318,200,43726,1,0,0:0:0:0:
311,199,43808,1,0,0:0:0:0:
311,203,43889,1,0,0:0:0:0:
294,199,44052,1,0,0:0:0:0:
351,184,44215,1,8,0:0:0:0:
307,233,44378,1,0,0:0:0:0:
307,233,44460,1,0,0:0:0:0:
300,212,44541,1,8,0:0:0:0:
318,217,44704,1,0,0:0:0:0:
318,217,44785,1,0,0:0:0:0:
351,200,44867,1,8,0:0:0:0:
380,209,45030,1,0,0:0:0:0:
380,209,45111,1,0,0:0:0:0:
356,200,45193,1,8,0:0:0:0:
346,199,45356,1,0,0:0:0:0:
346,199,45437,1,0,0:0:0:0:
311,212,45519,1,8,0:0:0:0:
295,213,45682,1,0,0:0:0:0:
309,213,45763,1,0,0:0:0:0:
342,203,45844,1,8,0:0:0:0:
300,212,46007,1,8,0:0:0:0:
300,212,46089,1,8,0:0:0:0:
300,212,46170,1,0,0:0:0:0:
300,212,46333,1,8,0:0:0:0:
311,212,46496,1,8,0:0:0:0:
318,217,46578,1,8,0:0:0:0:
324,212,46659,1,8,0:0:0:0:
292,204,46741,1,8,0:0:0:0:
311,212,46822,1,0,0:0:0:0:
311,212,46903,1,0,0:0:0:0:
321,232,46985,1,0,0:0:0:0:
320,232,47066,1,0,0:0:0:0:
307,218,47148,1,8,0:0:0:0:
313,224,47474,1,8,0:0:0:0:
301,211,47637,1,4,0:0:0:0:
303,210,47800,1,4,0:0:0:0:
319,204,48125,1,8,0:0:0:0:
313,207,48288,1,4,0:0:0:0:
315,206,48451,1,4,0:0:0:0:
312,213,48777,1,8,0:0:0:0:
298,220,48940,1,4,0:0:0:0:
298,220,49103,1,4,0:0:0:0:
300,218,49266,1,4,0:0:0:0:
311,216,49429,1,8,0:0:0:0:
307,221,49592,1,4,0:0:0:0:
307,217,49755,1,4,0:0:0:0:
313,207,50081,1,8,0:0:0:0:
321,218,50244,1,4,0:0:0:0:
322,218,50406,1,4,0:0:0:0:
331,200,50732,1,8,0:0:0:0:
325,214,50895,1,4,0:0:0:0:
325,214,51058,1,4,0:0:0:0:
311,216,51384,1,8,0:0:0:0:
311,216,51710,1,8,0:0:0:0:
311,216,51791,1,8,0:0:0:0:
324,215,51873,1,0,0:0:0:0:
321,218,51954,1,0,0:0:0:0:
326,210,52036,1,8,0:0:0:0:
326,210,52117,1,8,0:0:0:0:
338,217,52199,1,0,0:0:0:0:
328,212,52280,1,0,0:0:0:0:
266,190,52362,1,0,0:0:0:0:
265,197,52525,1,0,0:0:0:0:
275,181,52687,1,8,0:0:0:0:
266,190,52850,1,0,0:0:0:0:
272,178,53013,1,0,0:0:0:0:
263,187,53176,1,0,0:0:0:0:
269,180,53258,1,0,0:0:0:0:
263,180,53339,1,8,0:0:0:0:
271,187,53502,1,0,0:0:0:0:
271,187,53665,1,0,0:0:0:0:
274,190,53828,1,0,0:0:0:0:
274,190,53909,1,0,0:0:0:0:
264,182,53991,1,8,0:0:0:0:
268,187,54154,1,0,0:0:0:0:
268,188,54317,1,0,0:0:0:0:
268,188,54398,1,0,0:0:0:0:
268,188,54480,1,0,0:0:0:0:
277,191,54643,1,8,0:0:0:0:
276,191,54806,1,0,0:0:0:0:
276,191,54968,1,0,0:0:0:0:
276,191,55050,1,0,0:0:0:0:
276,191,55131,1,0,0:0:0:0:
276,191,55213,1,0,0:0:0:0:
265,187,55294,5,8,0:0:0:0:
265,186,55457,1,0,0:0:0:0:
269,183,55620,1,8,0:0:0:0:
279,182,55702,1,8,0:0:0:0:
290,186,55783,1,0,0:0:0:0:
288,189,55946,1,8,0:0:0:0:
289,189,56109,1,8,0:0:0:0:
290,189,56190,1,8,0:0:0:0:
275,187,56272,1,0,0:0:0:0:
277,191,56435,1,0,0:0:0:0:
276,191,56598,1,8,0:0:0:0:
279,197,56761,1,0,0:0:0:0:
285,188,56842,1,0,0:0:0:0:
285,194,56924,1,0,0:0:0:0:
285,194,57005,1,0,0:0:0:0:
285,194,57087,1,0,0:0:0:0:
285,194,57168,1,0,0:0:0:0:
274,195,57249,1,8,0:0:0:0:
283,202,57412,1,0,0:0:0:0:
262,195,57494,1,0,0:0:0:0:
283,202,57575,1,0,0:0:0:0:
265,194,57738,1,0,0:0:0:0:
281,197,57901,1,8,0:0:0:0:
281,200,57983,1,0,0:0:0:0:
283,200,58064,1,0,0:0:0:0:
258,194,58146,1,0,0:0:0:0:
299,201,58227,1,8,0:0:0:0:
291,193,58390,1,0,0:0:0:0:
279,197,58471,1,0,0:0:0:0:
283,193,58553,1,8,0:0:0:0:
285,194,58716,1,0,0:0:0:0:
285,194,58879,1,0,0:0:0:0:
279,203,59042,1,0,0:0:0:0:
278,199,59205,1,8,0:0:0:0:
262,193,59368,1,0,0:0:0:0:
256,194,59530,1,0,0:0:0:0:
256,194,59612,1,0,0:0:0:0:
256,194,59693,1,0,0:0:0:0:
282,182,59775,1,0,0:0:0:0:
258,194,59856,1,8,0:0:0:0:
283,173,60019,1,0,0:0:0:0:
272,187,60182,1,8,0:0:0:0:
302,191,60345,1,8,0:0:0:0:
301,192,60427,1,8,0:0:0:0:
287,189,60508,1,0,0:0:0:0:
279,186,60671,1,8,0:0:0:0:
279,194,60834,1,0,0:0:0:0:
301,183,60997,1,8,0:0:0:0:
291,188,61160,1,0,0:0:0:0:
282,182,61323,1,0,0:0:0:0:
282,182,61404,1,0,0:0:0:0:
282,182,61486,1,0,0:0:0:0:
282,182,61567,1,0,0:0:0:0:
272,187,61649,1,0,0:0:0:0:
283,173,61811,1,8,0:0:0:0:
272,187,61974,1,0,0:0:0:0:
287,189,62137,1,8,0:0:0:0:
301,192,62219,1,8,0:0:0:0:
279,186,62300,1,8,0:0:0:0:
279,186,62382,1,8,0:0:0:0:
279,186,62463,1,8,0:0:0:0:
282,182,62626,1,8,0:0:0:0:
287,185,62789,1,4,0:0:0:0:
277,180,62952,1,0,0:0:0:0:
291,175,63115,1,8,0:0:0:0:
290,174,63278,1,0,0:0:0:0:
255,173,63441,1,0,0:0:0:0:
270,175,63604,1,8,0:0:0:0:
264,159,63767,1,0,0:0:0:0:
279,171,63930,1,8,0:0:0:0:
270,167,64092,1,0,0:0:0:0:
270,167,64174,1,0,0:0:0:0:
281,172,64255,1,0,0:0:0:0:
260,171,64418,1,8,0:0:0:0:
261,162,64581,1,0,0:0:0:0:
270,163,64663,1,0,0:0:0:0:
270,163,64744,1,0,0:0:0:0:
279,175,64907,1,8,0:0:0:0:
270,179,65070,1,0,0:0:0:0:
281,163,65233,1,8,0:0:0:0:
286,173,65396,1,0,0:0:0:0:
281,172,65559,1,0,0:0:0:0:
269,171,65722,1,8,0:0:0:0:
291,172,65885,1,0,0:0:0:0:
291,173,65966,1,0,0:0:0:0:
281,164,66048,5,8,0:0:0:0:
281,168,66211,1,0,0:0:0:0:
283,166,66373,1,8,0:0:0:0:
290,183,66536,1,0,0:0:0:0:
290,183,66618,1,0,0:0:0:0:
291,183,66699,1,0,0:0:0:0:
291,183,66781,1,0,0:0:0:0:
292,182,66862,1,0,0:0:0:0:
283,181,67025,1,8,0:0:0:0:
285,178,67188,1,0,0:0:0:0:
294,180,67351,1,8,0:0:0:0:
321,173,67514,1,0,0:0:0:0:
299,171,67595,1,0,0:0:0:0:
302,175,67677,1,8,0:0:0:0:
305,182,67840,1,0,0:0:0:0:
305,182,67921,1,0,0:0:0:0:
305,182,68003,1,0,0:0:0:0:
305,182,68166,1,0,0:0:0:0:
290,183,68329,1,8,0:0:0:0:
309,181,68492,1,0,0:0:0:0:
309,181,68573,1,0,0:0:0:0:
309,181,68654,1,0,0:0:0:0:
301,180,68817,1,8,0:0:0:0:
316,179,68980,1,0,0:0:0:0:
322,185,69143,1,8,0:0:0:0:
324,178,69306,1,0,0:0:0:0:
324,178,69388,1,0,0:0:0:0:
324,178,69469,1,0,0:0:0:0:
299,179,69632,1,8,0:0:0:0:
321,183,69795,1,0,0:0:0:0:
324,186,69958,1,0,0:0:0:0:
331,181,70121,1,8,0:0:0:0:
331,169,70284,1,0,0:0:0:0:
346,183,70365,1,0,0:0:0:0:
341,182,70447,1,8,0:0:0:0:
335,183,70610,1,4,0:0:0:0:
336,183,70773,1,4,0:0:0:0:
337,183,70935,1,4,0:0:0:0:
337,183,71098,1,4,0:0:0:0:
337,183,71261,1,4,0:0:0:0:
337,183,71424,1,4,0:0:0:0:
337,183,71587,1,4,0:0:0:0:
336,202,71750,1,4,0:0:0:0:
336,202,71913,1,4,0:0:0:0:
336,202,72076,1,4,0:0:0:0:
364,223,72239,1,4,0:0:0:0:
331,207,72565,1,12,0:0:0:0:
331,207,72728,1,12,0:0:0:0:
331,207,72891,1,12,0:0:0:0:
340,210,73216,1,0,0:0:0:0:
334,222,73298,1,0,0:0:0:0:
340,210,73379,1,0,0:0:0:0:
316,220,73542,1,8,0:0:0:0:
307,203,73705,1,0,0:0:0:0:
319,215,73868,5,8,0:0:0:0:
325,215,74031,1,0,0:0:0:0:
310,219,74113,1,0,0:0:0:0:
303,223,74194,1,0,0:0:0:0:
339,221,74275,1,0,0:0:0:0:
340,221,74357,1,0,0:0:0:0:
321,223,74438,1,0,0:0:0:0:
317,222,74520,1,8,0:0:0:0:
322,213,74683,1,0,0:0:0:0:
300,212,74846,1,8,0:0:0:0:
358,230,75009,1,0,0:0:0:0:
351,211,75172,1,8,0:0:0:0:
327,218,75335,1,0,0:0:0:0:
327,218,75416,1,0,0:0:0:0:
331,219,75497,1,8,0:0:0:0:
331,217,75660,1,0,0:0:0:0:
305,216,75823,1,8,0:0:0:0:
306,216,75905,1,8,0:0:0:0:
306,216,75986,1,8,0:0:0:0:
306,216,76068,1,8,0:0:0:0:
310,229,76149,1,0,0:0:0:0:
332,220,76312,1,0,0:0:0:0:
319,214,76475,1,8,0:0:0:0:
319,214,76556,1,8,0:0:0:0:
320,214,76638,1,8,0:0:0:0:
320,213,76719,1,8,0:0:0:0:
314,217,76801,1,0,0:0:0:0:
314,217,76964,1,0,0:0:0:0:
314,207,77127,1,8,0:0:0:0:
324,212,77290,1,0,0:0:0:0:
324,212,77371,1,0,0:0:0:0:
330,203,77453,1,8,0:0:0:0:
319,200,77616,1,0,0:0:0:0:
316,200,77697,1,0,0:0:0:0:
290,207,77778,1,8,0:0:0:0:
293,209,77941,1,8,0:0:0:0:
298,208,78023,1,8,0:0:0:0:
303,207,78104,1,8,0:0:0:0:
305,206,78186,1,8,0:0:0:0:
298,210,78267,1,0,0:0:0:0:
298,210,78349,1,0,0:0:0:0:
295,209,78430,1,8,0:0:0:0:
293,190,78593,1,0,0:0:0:0:
294,199,78756,5,8,0:0:0:0:
308,193,78919,1,0,0:0:0:0:
323,198,79082,1,8,0:0:0:0:
324,201,79245,1,0,0:0:0:0:
319,200,79326,1,0,0:0:0:0:
309,192,79408,1,8,0:0:0:0:
323,201,79489,1,0,0:0:0:0:
321,200,79571,1,0,0:0:0:0:
317,198,79652,1,0,0:0:0:0:
317,198,79734,1,0,0:0:0:0:
320,200,79897,1,0,0:0:0:0:
300,200,80059,1,8,0:0:0:0:
318,200,80222,1,0,0:0:0:0:
311,199,80304,1,0,0:0:0:0:
311,203,80385,1,0,0:0:0:0:
294,199,80548,1,0,0:0:0:0:
351,184,80711,1,8,0:0:0:0:
307,233,80874,1,0,0:0:0:0:
307,233,80956,1,0,0:0:0:0:
300,212,81037,1,8,0:0:0:0:
318,217,81200,1,0,0:0:0:0:
318,217,81281,1,0,0:0:0:0:
351,200,81363,1,8,0:0:0:0:
380,209,81526,1,0,0:0:0:0:
380,209,81607,1,0,0:0:0:0:
356,200,81689,1,8,0:0:0:0:
346,199,81852,1,0,0:0:0:0:
346,199,81933,1,0,0:0:0:0:
311,212,82015,1,8,0:0:0:0:
311,212,82340,1,4,0:0:0:0:
304,208,82503,1,0,0:0:0:0:
304,208,82666,1,0,0:0:0:0:
300,212,82829,1,4,0:0:0:0:
300,216,82992,1,0,0:0:0:0:
300,216,83155,1,0,0:0:0:0:
300,212,83318,5,8,0:0:0:0:
298,229,83481,1,8,0:0:0:0:
311,212,83644,1,12,0:0:0:0:
305,233,83970,1,0,0:0:0:0:
306,233,84133,1,0,0:0:0:0:
298,229,84296,1,8,0:0:0:0:
310,218,84621,1,8,0:0:0:0:
290,209,84947,1,0,0:0:0:0:
288,211,85029,1,0,0:0:0:0:
276,209,85110,1,8,0:0:0:0:
296,218,85273,1,0,0:0:0:0:
297,218,85436,1,0,0:0:0:0:
270,206,85599,1,8,0:0:0:0:
270,206,85762,1,0,0:0:0:0:
304,202,85925,1,8,0:0:0:0:
304,202,86088,1,8,0:0:0:0:
282,207,86251,1,0,0:0:0:0:
291,210,86332,1,0,0:0:0:0:
291,210,86414,1,0,0:0:0:0:
290,209,86495,1,0,0:0:0:0:
283,204,86577,1,0,0:0:0:0:
283,204,86658,1,0,0:0:0:0:
283,204,86739,1,0,0:0:0:0:
279,203,86821,1,0,0:0:0:0:
288,194,86902,1,8,0:0:0:0:
297,203,87228,1,8,0:0:0:0:
259,203,87391,1,0,0:0:0:0:
257,206,87554,1,0,0:0:0:0:
281,209,87636,1,0,0:0:0:0:
280,194,87717,1,8,0:0:0:0:
272,208,87880,1,0,0:0:0:0:
273,208,88043,1,0,0:0:0:0:
258,197,88206,1,8,0:0:0:0:
278,208,88369,1,0,0:0:0:0:
266,222,88532,1,8,0:0:0:0:
269,222,88695,1,8,0:0:0:0:
261,216,88858,1,12,0:0:0:0:
305,223,89183,1,0,0:0:0:0:
305,223,89346,1,0,0:0:0:0:
295,231,89509,1,8,0:0:0:0:
305,223,89672,1,0,0:0:0:0:
305,223,89754,1,0,0:0:0:0:
305,223,89835,1,8,0:0:0:0:
300,237,89998,1,0,0:0:0:0:
302,237,90161,1,0,0:0:0:0:
311,236,90324,1,8,0:0:0:0:
320,216,90487,1,0,0:0:0:0:
321,217,90568,1,0,0:0:0:0:
324,217,90650,1,0,0:0:0:0:
301,226,90813,1,8,0:0:0:0:
313,239,90976,1,0,0:0:0:0:
331,232,91139,1,8,0:0:0:0:
323,223,91301,1,8,0:0:0:0:
305,223,91464,1,12,0:0:0:0:
291,221,91790,1,0,0:0:0:0:
297,221,91872,1,0,0:0:0:0:
299,220,91953,1,0,0:0:0:0:
299,220,92035,1,0,0:0:0:0:
320,216,92116,1,8,0:0:0:0:
336,222,92279,1,0,0:0:0:0:
303,218,92442,1,8,0:0:0:0:
314,226,92605,1,0,0:0:0:0:
314,226,92686,1,0,0:0:0:0:
318,224,92768,1,0,0:0:0:0:
291,221,92931,1,8,0:0:0:0:
320,230,93094,1,0,0:0:0:0:
320,230,93257,1,0,0:0:0:0:
322,215,93420,1,4,0:0:0:0:
322,216,93582,1,4,0:0:0:0:
322,216,93745,1,4,0:0:0:0:
320,216,93908,1,4,0:0:0:0:
292,217,94071,1,12,0:0:0:0:
305,233,94397,1,0,0:0:0:0:
306,233,94560,1,0,0:0:0:0:
298,229,94723,1,8,0:0:0:0:
310,218,95048,1,8,0:0:0:0:
290,209,95374,1,0,0:0:0:0:
288,211,95456,1,0,0:0:0:0:
276,209,95537,1,8,0:0:0:0:
296,218,95700,1,0,0:0:0:0:
297,218,95863,1,0,0:0:0:0:
270,206,96026,1,8,0:0:0:0:
270,206,96189,1,0,0:0:0:0:
304,202,96352,1,8,0:0:0:0:
304,202,96515,1,8,0:0:0:0:
282,207,96678,1,0,0:0:0:0:
291,210,96759,1,0,0:0:0:0:
291,210,96841,1,0,0:0:0:0:
290,209,96922,1,0,0:0:0:0:
283,204,97004,1,0,0:0:0:0:
283,204,97085,1,0,0:0:0:0:
283,204,97166,1,0,0:0:0:0:
279,203,97248,1,0,0:0:0:0:
288,194,97329,1,8,0:0:0:0:
297,203,97655,1,8,0:0:0:0:
259,203,97818,1,0,0:0:0:0:
257,206,97981,1,0,0:0:0:0:
281,209,98063,1,0,0:0:0:0:
280,194,98144,1,8,0:0:0:0:
272,208,98307,1,0,0:0:0:0:
273,208,98470,1,0,0:0:0:0:
258,197,98633,1,8,0:0:0:0:
278,208,98796,1,0,0:0:0:0:
266,222,98959,1,8,0:0:0:0:
269,222,99122,1,8,0:0:0:0:
261,216,99285,1,12,0:0:0:0:
305,223,99611,1,0,0:0:0:0:
305,223,99774,1,0,0:0:0:0:
295,231,99937,1,8,0:0:0:0:
305,223,100100,1,0,0:0:0:0:
305,223,100182,1,0,0:0:0:0:
305,223,100263,1,8,0:0:0:0:
300,237,100426,1,0,0:0:0:0:
302,237,100589,1,0,0:0:0:0:
311,236,100752,1,8,0:0:0:0:
320,216,100915,1,0,0:0:0:0:
321,217,100996,1,0,0:0:0:0:
324,217,101078,1,0,0:0:0:0:
301,226,101241,1,8,0:0:0:0:
313,239,101404,1,0,0:0:0:0:
331,232,101567,1,8,0:0:0:0:
323,223,101729,1,8,0:0:0:0:
291,230,101892,1,0,0:0:0:0:
292,230,102055,1,0,0:0:0:0:
306,226,102218,1,12,0:0:0:0:
332,239,102544,1,12,0:0:0:0:
313,223,102869,1,0,0:0:0:0:
313,223,103032,1,0,0:0:0:0:
328,219,103195,1,12,0:0:0:0:
328,219,103521,1,12,0:0:0:0:
303,220,103847,1,8,0:0:0:0:
304,220,103928,1,8,0:0:0:0:
304,220,104010,1,8,0:0:0:0:
304,220,104091,1,8,0:0:0:0:
304,220,104173,1,8,0:0:0:0:
304,220,104254,1,8,0:0:0:0:
304,220,104336,1,8,0:0:0:0:
304,220,104417,1,8,0:0:0:0:
311,218,104499,1,0,0:0:0:0:
292,222,104662,1,0,0:0:0:0:
318,219,104825,1,8,0:0:0:0:
262,212,104987,1,0,0:0:0:0:
262,212,105069,1,0,0:0:0:0:
267,209,105150,1,0,0:0:0:0:
268,207,105232,1,0,0:0:0:0:
273,203,105313,1,0,0:0:0:0:
293,203,105476,1,8,0:0:0:0:
301,210,105639,1,0,0:0:0:0:
295,209,105721,1,0,0:0:0:0:
274,199,105802,1,0,0:0:0:0:
291,227,105965,1,0,0:0:0:0:
302,202,106128,1,8,0:0:0:0:
321,203,106291,1,0,0:0:0:0:
320,203,106372,1,0,0:0:0:0:
322,201,106454,1,0,0:0:0:0:
322,198,106535,1,0,0:0:0:0:
308,196,106617,1,0,0:0:0:0:
301,194,106780,1,8,0:0:0:0:
305,196,106943,1,8,0:0:0:0:
307,190,107024,1,8,0:0:0:0:
315,204,107106,1,0,0:0:0:0:
284,190,107268,1,0,0:0:0:0:
296,200,107431,5,8,0:0:0:0:
259,204,107594,1,0,0:0:0:0:
316,200,107676,1,0,0:0:0:0:
291,198,107757,1,0,0:0:0:0:
296,193,107920,1,0,0:0:0:0:
294,193,108083,1,8,0:0:0:0:
306,208,108246,1,0,0:0:0:0:
290,206,108409,1,8,0:0:0:0:
290,206,108490,1,8,0:0:0:0:
301,194,108572,1,0,0:0:0:0:
298,195,108653,1,0,0:0:0:0:
314,198,108735,1,8,0:0:0:0:
313,198,108816,1,8,0:0:0:0:
294,203,108898,1,0,0:0:0:0:
294,203,108979,1,0,0:0:0:0:
305,201,109061,1,8,0:0:0:0:
305,201,109142,1,8,0:0:0:0:
279,195,109224,1,8,0:0:0:0:
279,195,109305,1,8,0:0:0:0:
288,205,109387,1,0,0:0:0:0:
291,205,109468,1,0,0:0:0:0:
278,201,109549,1,8,0:0:0:0:
301,202,109631,1,8,0:0:0:0:
290,206,109712,1,0,0:0:0:0:
286,197,109875,1,0,0:0:0:0:
271,199,110038,1,8,0:0:0:0:
278,207,110201,1,0,0:0:0:0:
278,207,110283,1,0,0:0:0:0:
278,207,110364,1,0,0:0:0:0:
278,207,110446,1,0,0:0:0:0:
278,207,110527,1,0,0:0:0:0:
267,196,110690,1,8,0:0:0:0:
294,200,110853,1,0,0:0:0:0:
295,200,110934,1,0,0:0:0:0:
299,194,111016,1,0,0:0:0:0:
299,194,111179,1,0,0:0:0:0:
261,209,111342,1,8,0:0:0:0:
306,200,111505,1,0,0:0:0:0:
306,200,111586,1,0,0:0:0:0:
306,200,111668,1,0,0:0:0:0:
305,200,111749,1,0,0:0:0:0:
299,194,111830,1,0,0:0:0:0:
304,197,111993,1,8,0:0:0:0:
271,202,112156,1,0,0:0:0:0:
275,201,112238,1,0,0:0:0:0:
278,198,112319,1,0,0:0:0:0:
278,198,112482,1,0,0:0:0:0:
305,193,112645,1,8,0:0:0:0:
310,188,112808,1,0,0:0:0:0:
310,188,112889,1,0,0:0:0:0:
310,188,112971,1,0,0:0:0:0:
310,187,113052,1,0,0:0:0:0:
307,185,113134,1,0,0:0:0:0:
311,192,113297,1,8,0:0:0:0:
282,204,113460,1,0,0:0:0:0:
282,205,113623,1,0,0:0:0:0:
315,201,113786,1,8,0:0:0:0:
315,201,113867,1,8,0:0:0:0:
315,201,113948,1,8,0:0:0:0:
315,201,114030,1,8,0:0:0:0:
299,201,114111,1,8,0:0:0:0:
299,201,114193,1,8,0:0:0:0:
322,207,114274,1,0,0:0:0:0:
322,207,114356,1,0,0:0:0:0:
337,206,114437,1,8,0:0:0:0:
337,206,114519,1,8,0:0:0:0:
346,209,114600,1,0,0:0:0:0:
346,209,114682,1,0,0:0:0:0:
346,209,114763,1,0,0:0:0:0:
317,203,114845,1,0,0:0:0:0:
346,209,114926,1,0,0:0:0:0:
324,199,115089,1,0,0:0:0:0:
315,201,115252,1,8,0:0:0:0:
332,203,115415,1,0,0:0:0:0:
337,203,115496,1,0,0:0:0:0:
335,201,115578,1,0,0:0:0:0:
331,198,115659,1,0,0:0:0:0:
330,195,115741,1,0,0:0:0:0:
349,193,115904,1,8,0:0:0:0:
346,195,116067,1,0,0:0:0:0:
346,195,116148,1,0,0:0:0:0:
346,195,116229,1,0,0:0:0:0:
346,195,116392,1,0,0:0:0:0:
350,193,116555,1,8,0:0:0:0:
354,198,116718,1,0,0:0:0:0:
354,198,116800,1,0,0:0:0:0:
354,198,116881,1,0,0:0:0:0:
354,198,116963,1,0,0:0:0:0:
354,198,117044,1,0,0:0:0:0:
352,199,117207,1,8,0:0:0:0:
352,204,117370,1,0,0:0:0:0:
352,204,117451,1,0,0:0:0:0:
352,204,117533,1,0,0:0:0:0:
349,193,117696,1,0,0:0:0:0:
372,198,117859,1,8,0:0:0:0:
354,198,118022,1,0,0:0:0:0:
354,198,118104,1,0,0:0:0:0:
354,198,118185,1,0,0:0:0:0:
354,198,118267,1,0,0:0:0:0:
354,198,118348,1,0,0:0:0:0:
352,199,118511,1,8,0:0:0:0:
335,197,118673,1,0,0:0:0:0:
369,180,118836,1,8,0:0:0:0:
369,180,118918,1,8,0:0:0:0:
351,209,118999,1,0,0:0:0:0:
351,209,119081,1,0,0:0:0:0:
378,196,119162,1,8,0:0:0:0:
378,195,119244,1,8,0:0:0:0:
352,204,119325,1,0,0:0:0:0:
351,201,119407,1,0,0:0:0:0:
359,204,119488,1,8,0:0:0:0:
361,203,119570,1,8,0:0:0:0:
278,207,119651,1,0,0:0:0:0:
278,207,119732,1,0,0:0:0:0:
278,207,119814,1,8,0:0:0:0:
278,207,119895,1,8,0:0:0:0:
278,207,119977,1,0,0:0:0:0:
278,207,120058,1,0,0:0:0:0:
396,189,120140,1,0,0:0:0:0:
396,189,120303,1,0,0:0:0:0:
406,183,120466,1,8,0:0:0:0:
278,207,120629,1,0,0:0:0:0:
278,207,120711,1,0,0:0:0:0:
278,207,120792,1,0,0:0:0:0:
278,207,120874,1,0,0:0:0:0:
278,207,120955,1,0,0:0:0:0:
267,196,121118,1,8,0:0:0:0:
294,200,121281,1,0,0:0:0:0:
295,200,121362,1,0,0:0:0:0:
299,194,121444,1,0,0:0:0:0:
299,194,121607,1,0,0:0:0:0:
261,209,121770,1,8,0:0:0:0:
306,200,121933,1,0,0:0:0:0:
306,200,122014,1,0,0:0:0:0:
306,200,122096,1,0,0:0:0:0:
305,200,122177,1,0,0:0:0:0:
299,194,122258,1,0,0:0:0:0:
304,197,122421,1,8,0:0:0:0:
271,202,122584,1,0,0:0:0:0:
275,201,122666,1,0,0:0:0:0:
278,198,122747,1,0,0:0:0:0:
278,198,122910,1,0,0:0:0:0:
305,193,123073,1,8,0:0:0:0:
278,207,123235,1,0,0:0:0:0:
278,207,123317,1,0,0:0:0:0:
278,207,123398,1,0,0:0:0:0:
278,207,123480,1,0,0:0:0:0:
278,207,123561,1,0,0:0:0:0:
267,196,123724,1,8,0:0:0:0:
276,203,123887,1,0,0:0:0:0:
271,202,124050,1,8,0:0:0:0:
271,202,124132,1,0,0:0:0:0:
271,202,124213,1,0,0:0:0:0:
271,202,124294,1,0,0:0:0:0:
271,202,124376,1,0,0:0:0:0:
275,201,124457,1,0,0:0:0:0:
278,198,124539,1,8,0:0:0:0:
278,198,124620,1,0,0:0:0:0:
278,198,124702,1,0,0:0:0:0:
305,193,124783,1,0,0:0:0:0:
267,196,124865,1,8,0:0:0:0:
278,207,124946,1,0,0:0:0:0:
278,207,125028,1,8,0:0:0:0:
278,207,125109,1,0,0:0:0:0:
278,198,125191,1,0,0:0:0:0:
305,193,125272,1,0,0:0:0:0:
267,196,125353,1,8,0:0:0:0:
267,196,125435,1,0,0:0:0:0:
305,193,125516,1,0,0:0:0:0:
305,193,125598,1,0,0:0:0:0:
305,193,125679,1,0,0:0:0:0:
305,193,125761,1,0,0:0:0:0:
305,193,125842,1,8,0:0:0:0:
328,214,125924,1,0,0:0:0:0:
305,193,126005,1,8,0:0:0:0:
275,201,126087,1,0,0:0:0:0:
275,201,126168,1,0,0:0:0:0:
275,201,126250,1,0,0:0:0:0:
328,214,126331,1,8,0:0:0:0:
316,220,126494,1,0,0:0:0:0:
316,220,126657,1,12,0:0:0:0:
328,214,126820,1,0,0:0:0:0:
316,220,126982,1,8,0:0:0:0:
307,203,127145,1,0,0:0:0:0:
319,215,127308,5,8,0:0:0:0:
325,215,127471,1,0,0:0:0:0:
310,219,127553,1,0,0:0:0:0:
303,223,127634,1,0,0:0:0:0:
339,221,127715,1,0,0:0:0:0:
340,221,127797,1,0,0:0:0:0:
321,223,127878,1,0,0:0:0:0:
317,222,127960,1,8,0:0:0:0:
322,213,128123,1,0,0:0:0:0:
300,212,128286,1,8,0:0:0:0:
358,230,128449,1,0,0:0:0:0:
351,211,128612,1,8,0:0:0:0:
327,218,128775,1,0,0:0:0:0:
327,218,128856,1,0,0:0:0:0:
331,219,128937,1,8,0:0:0:0:
331,217,129100,1,0,0:0:0:0:
305,216,129263,1,8,0:0:0:0:
306,216,129345,1,8,0:0:0:0:
306,216,129426,1,8,0:0:0:0:
306,216,129508,1,8,0:0:0:0:
310,229,129589,1,0,0:0:0:0:
332,220,129752,1,0,0:0:0:0:
319,214,129915,1,8,0:0:0:0:
319,214,129996,1,8,0:0:0:0:
320,214,130078,1,8,0:0:0:0:
320,213,130159,1,8,0:0:0:0:
314,217,130241,1,0,0:0:0:0:
314,217,130404,1,0,0:0:0:0:
314,207,130567,1,8,0:0:0:0:
324,212,130730,1,0,0:0:0:0:
324,212,130811,1,0,0:0:0:0:
330,203,130893,1,8,0:0:0:0:
319,200,131056,1,0,0:0:0:0:
316,200,131137,1,0,0:0:0:0:
290,207,131218,1,8,0:0:0:0:
289,203,131382,1,8,0:0:0:0:
291,203,131463,1,8,0:0:0:0:
301,207,131545,1,0,0:0:0:0:
314,209,131708,1,8,0:0:0:0:
316,209,131789,1,8,0:0:0:0:
312,202,131871,1,8,0:0:0:0:
293,190,132034,1,0,0:0:0:0:
294,199,132197,5,8,0:0:0:0:
308,193,132360,1,0,0:0:0:0:
323,198,132523,1,8,0:0:0:0:
324,201,132686,1,0,0:0:0:0:
319,200,132767,1,0,0:0:0:0:
309,192,132849,1,8,0:0:0:0:
323,201,132930,1,0,0:0:0:0:
321,200,133012,1,0,0:0:0:0:
317,198,133093,1,0,0:0:0:0:
317,198,133175,1,0,0:0:0:0:
320,200,133338,1,0,0:0:0:0:
300,200,133500,1,8,0:0:0:0:
318,200,133663,1,0,0:0:0:0:
311,199,133745,1,0,0:0:0:0:
311,203,133826,1,0,0:0:0:0:
294,199,133989,1,0,0:0:0:0:
351,184,134152,1,8,0:0:0:0:
307,233,134315,1,0,0:0:0:0:
307,233,134397,1,0,0:0:0:0:
300,212,134478,1,8,0:0:0:0:
307,233,134640,1,0,0:0:0:0:
307,233,134722,1,0,0:0:0:0:
300,212,134803,1,8,0:0:0:0:
307,233,134966,1,0,0:0:0:0:
307,233,135048,1,0,0:0:0:0:
300,212,135129,1,8,0:0:0:0:
307,233,135292,1,0,0:0:0:0:
307,233,135374,1,0,0:0:0:0:
300,212,135455,1,8,0:0:0:0:
307,233,135618,1,0,0:0:0:0:
300,212,135781,1,12,0:0:0:0:
286,208,135944,1,0,0:0:0:0:
308,208,136107,1,12,0:0:0:0:
303,216,136270,1,0,0:0:0:0:
315,216,136433,1,12,0:0:0:0:
305,226,136596,1,0,0:0:0:0:
314,228,136758,1,12,0:0:0:0:
291,206,136921,1,0,0:0:0:0:
293,208,137084,1,12,0:0:0:0:
296,213,137410,1,8,0:0:0:0:
280,225,137573,1,4,0:0:0:0:
293,221,137736,1,4,0:0:0:0:
287,223,138062,1,8,0:0:0:0:
290,219,138225,1,4,0:0:0:0:
288,218,138388,1,4,0:0:0:0:
273,210,138714,1,12,0:0:0:0:
293,208,138877,1,0,0:0:0:0:
248,223,139039,1,12,0:0:0:0:
287,216,139202,1,0,0:0:0:0:
267,221,139365,5,12,0:0:0:0:
286,218,139528,1,0,0:0:0:0:
287,223,139691,1,12,0:0:0:0:
296,213,140017,1,8,0:0:0:0:
280,225,140180,1,4,0:0:0:0:
293,221,140343,1,4,0:0:0:0:
296,213,140669,1,8,0:0:0:0:
280,225,140832,1,4,0:0:0:0:
293,221,140995,1,4,0:0:0:0:
273,210,141320,1,12,0:0:0:0:
293,208,141483,1,0,0:0:0:0:
248,223,141645,1,12,0:0:0:0:
287,216,141808,1,0,0:0:0:0:
267,221,141971,5,12,0:0:0:0:
286,218,142134,1,0,0:0:0:0:
287,223,142297,1,12,0:0:0:0:
296,213,142624,1,8,0:0:0:0:
280,225,142787,1,4,0:0:0:0:
293,221,142950,1,4,0:0:0:0:
296,213,143276,1,8,0:0:0:0:
280,225,143439,1,4,0:0:0:0:
293,221,143602,1,4,0:0:0:0:
273,210,143927,1,12,0:0:0:0:
293,208,144090,1,0,0:0:0:0:
248,223,144252,1,12,0:0:0:0:
287,216,144415,1,0,0:0:0:0:
267,221,144578,5,12,0:0:0:0:
286,218,144741,1,0,0:0:0:0:
287,223,144904,1,12,0:0:0:0:
296,213,145231,1,8,0:0:0:0:
280,225,145394,1,4,0:0:0:0:
293,221,145557,1,4,0:0:0:0:
296,213,145883,1,8,0:0:0:0:
280,225,146046,1,4,0:0:0:0:
293,221,146209,1,4,0:0:0:0:
293,216,146534,1,8,0:0:0:0:
299,209,146697,1,0,0:0:0:0:
301,209,146860,1,8,0:0:0:0:
301,208,147023,1,8,0:0:0:0:
301,208,147186,1,8,0:0:0:0:
293,221,147349,1,8,0:0:0:0:
