osu file format v14

[General]
AudioFilename: 02 - Over My Head (Better Off Dead).mp3
AudioLeadIn: 0
PreviewTime: -1
Countdown: 0
SampleSet: Normal
StackLeniency: 0.7
Mode: 1
LetterboxInBreaks: 0
WidescreenStoryboard: 1

[Editor]
DistanceSpacing: 0.9
BeatDivisor: 2
GridSize: 4
TimelineZoom: 1

[Metadata]
Title:Over My Head (Better Off Dead)
TitleUnicode:Over My Head (Better Off Dead)
Artist:Sum 41
ArtistUnicode:Sum 41
Creator:goatlife
Version:Futsuu
Source:
Tags:Sum 41 Over My Head Punk Alternative Rock American goatlife Ozzy OzzyOzrock
BeatmapID:676054
BeatmapSetID:301463

[Difficulty]
HPDrainRate:5
CircleSize:5
OverallDifficulty:5
ApproachRate:5
SliderMultiplier:1.4
SliderTickRate:1

[Events]
//Background and Video events
0,0,"bored_sum41_logo_re_design_by_imeraze-d54hlrl.png",0,0
//Break Periods
//Storyboard Layer 0 (Background)
//Storyboard Layer 1 (Fail)
//Storyboard Layer 2 (Pass)
//Storyboard Layer 3 (Foreground)
//Storyboard Sound Samples

[TimingPoints]
225,325.856731656981,4,1,0,100,1,0
36720,-100,4,1,0,100,0,1
47148,-100,4,1,0,100,0,0
73216,-100,4,1,0,100,0,1
83644,-100,4,1,0,100,0,0
126657,-100,4,1,0,100,0,1
137084,-100,4,1,0,100,0,0

[HitObjects]
240,204,4786,5,0,0:0:0:0:
240,204,5112,1,0,0:0:0:0:
244,196,5438,5,0,0:0:0:0:
240,196,5764,5,8,0:0:0:0:
240,200,6090,1,0,0:0:0:0:
256,192,6416,1,8,0:0:0:0:
256,184,6742,1,0,0:0:0:0:
240,192,7067,5,0,0:0:0:0:
248,192,7230,1,0,0:0:0:0:
244,188,7393,1,0,0:0:0:0:
244,196,7719,1,0,0:0:0:0:
256,192,8045,1,0,0:0:0:0:
256,192,8371,1,8,0:0:0:0:
256,192,8697,1,0,0:0:0:0:
256,192,9023,1,8,0:0:0:0:
256,192,9348,1,0,0:0:0:0:
256,192,9674,1,0,0:0:0:0:
256,192,9837,1,0,0:0:0:0:
256,192,10000,1,0,0:0:0:0:
256,184,10326,1,0,0:0:0:0:
256,192,10652,1,0,0:0:0:0:
256,192,10978,1,8,0:0:0:0:
256,192,11304,1,0,0:0:0:0:
256,192,11629,1,8,0:0:0:0:
256,192,11955,1,0,0:0:0:0:
264,200,12281,1,0,0:0:0:0:
264,200,12444,1,0,0:0:0:0:
256,192,12607,1,0,0:0:0:0:
272,196,12933,1,0,0:0:0:0:
256,192,13259,1,0,0:0:0:0:
256,192,13585,1,8,0:0:0:0:
256,192,13910,1,0,0:0:0:0:
256,192,14236,1,8,0:0:0:0:
256,192,14562,1,0,0:0:0:0:
256,192,14888,1,8,0:0:0:0:
256,192,15214,1,8,0:0:0:0:
256,192,15540,1,8,0:0:0:0:
256,192,15703,1,8,0:0:0:0:
256,192,15866,1,8,0:0:0:0:
388,176,16191,1,8,0:0:0:0:
240,200,16517,1,0,0:0:0:0:
248,196,16843,1,0,0:0:0:0:
248,196,17006,1,0,0:0:0:0:
248,196,17169,1,0,0:0:0:0:
248,208,17495,1,0,0:0:0:0:
256,172,17821,1,8,0:0:0:0:
256,172,18147,1,8,0:0:0:0:
248,208,18472,1,0,0:0:0:0:
248,196,18798,1,0,0:0:0:0:
248,196,18961,1,0,0:0:0:0:
248,196,19124,1,0,0:0:0:0:
256,172,19450,1,8,0:0:0:0:
248,208,19776,1,0,0:0:0:0:
256,172,20102,1,8,0:0:0:0:
248,208,20428,1,0,0:0:0:0:
248,196,20753,1,0,0:0:0:0:
248,196,20916,1,0,0:0:0:0:
248,196,21079,1,0,0:0:0:0:
240,172,21405,1,8,0:0:0:0:
240,172,21731,1,8,0:0:0:0:
240,172,22057,1,8,0:0:0:0:
248,208,22383,1,0,0:0:0:0:
248,196,22709,1,0,0:0:0:0:
248,196,22872,1,0,0:0:0:0:
252,184,23034,1,0,0:0:0:0:
240,184,23360,1,8,0:0:0:0:
248,208,23686,1,0,0:0:0:0:
240,184,24012,1,8,0:0:0:0:
240,184,24338,1,8,0:0:0:0:
240,184,24664,1,8,0:0:0:0:
248,208,24990,1,0,0:0:0:0:
248,196,25315,1,0,0:0:0:0:
248,196,25478,1,0,0:0:0:0:
248,196,25641,1,0,0:0:0:0:
252,212,25967,1,0,0:0:0:0:
252,212,26130,1,0,0:0:0:0:
248,196,26293,1,0,0:0:0:0:
240,184,26619,1,8,0:0:0:0:
248,192,26945,5,0,0:0:0:0:
224,204,27271,1,8,0:0:0:0:
248,212,27596,1,0,0:0:0:0:
248,212,27759,1,0,0:0:0:0:
248,212,27922,1,0,0:0:0:0:
240,220,28248,1,8,0:0:0:0:
240,220,28574,1,8,0:0:0:0:
248,220,28900,1,8,0:0:0:0:
248,192,29226,5,0,0:0:0:0:
248,192,29552,1,0,0:0:0:0:
252,212,29715,1,0,0:0:0:0:
248,192,29877,1,0,0:0:0:0:
248,220,30203,1,8,0:0:0:0:
256,192,30529,5,8,0:0:0:0:
256,192,30855,1,8,0:0:0:0:
256,192,31181,1,8,0:0:0:0:
256,192,31507,1,0,0:0:0:0:
256,192,31833,1,8,0:0:0:0:
256,192,32158,1,0,0:0:0:0:
256,192,32484,1,8,0:0:0:0:
256,192,32810,1,0,0:0:0:0:
256,192,33136,1,8,0:0:0:0:
256,192,33462,1,0,0:0:0:0:
256,192,33788,1,8,0:0:0:0:
256,192,34114,1,4,0:0:0:0:
256,192,34439,1,4,0:0:0:0:
256,192,34765,1,4,0:0:0:0:
256,192,35091,1,4,0:0:0:0:
256,192,35417,1,4,0:0:0:0:
256,192,35743,1,4,0:0:0:0:
256,192,36720,1,12,0:0:0:0:
256,192,37046,1,8,0:0:0:0:
256,192,37372,1,0,0:0:0:0:
256,192,37698,1,8,0:0:0:0:
256,192,38024,1,0,0:0:0:0:
256,192,38187,1,0,0:0:0:0:
256,192,38350,1,8,0:0:0:0:
256,192,38676,1,0,0:0:0:0:
256,192,39001,1,8,0:0:0:0:
256,192,39327,1,0,0:0:0:0:
256,192,39490,1,0,0:0:0:0:
256,192,39653,1,8,0:0:0:0:
256,192,39979,1,0,0:0:0:0:
256,192,40305,1,8,0:0:0:0:
256,192,40631,1,0,0:0:0:0:
256,192,40794,1,0,0:0:0:0:
256,192,40957,1,8,0:0:0:0:
256,192,41282,1,0,0:0:0:0:
240,192,41445,1,0,0:0:0:0:
240,192,41608,1,0,0:0:0:0:
256,192,41934,1,0,0:0:0:0:
256,192,42097,1,0,0:0:0:0:
256,192,42260,1,8,0:0:0:0:
256,192,42586,1,0,0:0:0:0:
256,192,42912,1,8,0:0:0:0:
256,192,43238,1,0,0:0:0:0:
256,192,43401,1,0,0:0:0:0:
256,192,43563,1,8,0:0:0:0:
256,192,43889,1,0,0:0:0:0:
256,192,44215,1,8,0:0:0:0:
256,192,44541,1,0,0:0:0:0:
256,192,44704,1,0,0:0:0:0:
256,192,44867,1,8,0:0:0:0:
256,192,45193,1,8,0:0:0:0:
256,192,45519,1,8,0:0:0:0:
264,196,45844,1,8,0:0:0:0:
260,200,46007,1,8,0:0:0:0:
272,200,46170,1,8,0:0:0:0:
256,200,46496,1,8,0:0:0:0:
272,204,46822,1,8,0:0:0:0:
272,204,46985,1,8,0:0:0:0:
256,192,47148,1,12,0:0:0:0:
256,192,47637,5,0,0:0:0:0:
256,192,47800,1,0,0:0:0:0:
432,184,48288,1,8,0:0:0:0:
384,188,48451,1,8,0:0:0:0:
256,192,48940,1,0,0:0:0:0:
256,192,49103,1,0,0:0:0:0:
360,196,49429,5,0,0:0:0:0:
244,192,49755,1,0,0:0:0:0:
420,184,50244,1,8,0:0:0:0:
380,188,50406,1,8,0:0:0:0:
288,208,50895,5,0,0:0:0:0:
288,208,51058,1,0,0:0:0:0:
328,192,51547,1,8,0:0:0:0:
288,208,51710,1,8,0:0:0:0:
328,204,52036,1,8,0:0:0:0:
256,192,52362,1,8,0:0:0:0:
388,176,52687,1,8,0:0:0:0:
248,196,53339,1,0,0:0:0:0:
248,196,53502,1,0,0:0:0:0:
248,196,53665,1,0,0:0:0:0:
328,208,53991,1,8,0:0:0:0:
256,172,54317,1,8,0:0:0:0:
256,172,54643,1,8,0:0:0:0:
248,196,55294,1,0,0:0:0:0:
248,196,55457,1,0,0:0:0:0:
248,196,55620,1,0,0:0:0:0:
256,172,55946,1,8,0:0:0:0:
256,172,56598,1,8,0:0:0:0:
232,276,56924,1,8,0:0:0:0:
248,196,57249,1,0,0:0:0:0:
248,196,57412,1,0,0:0:0:0:
248,196,57575,1,0,0:0:0:0:
240,172,57901,1,8,0:0:0:0:
240,172,58227,1,8,0:0:0:0:
240,172,58553,1,8,0:0:0:0:
248,196,59205,1,0,0:0:0:0:
248,196,59368,1,0,0:0:0:0:
252,184,59530,1,0,0:0:0:0:
240,184,59856,1,8,0:0:0:0:
240,184,60508,1,8,0:0:0:0:
240,184,60834,1,8,0:0:0:0:
240,184,61160,1,8,0:0:0:0:
232,276,61486,1,8,0:0:0:0:
248,196,61811,1,0,0:0:0:0:
248,196,61974,1,0,0:0:0:0:
248,196,62137,1,0,0:0:0:0:
248,196,62463,1,0,0:0:0:0:
248,196,62789,1,0,0:0:0:0:
240,184,63115,1,8,0:0:0:0:
248,192,63441,5,0,0:0:0:0:
224,204,63767,1,8,0:0:0:0:
248,212,64092,1,0,0:0:0:0:
248,212,64255,1,0,0:0:0:0:
248,212,64418,1,0,0:0:0:0:
240,220,64744,1,8,0:0:0:0:
240,220,65070,1,8,0:0:0:0:
252,284,65233,1,8,0:0:0:0:
248,220,65396,1,8,0:0:0:0:
248,192,65722,5,0,0:0:0:0:
248,192,66048,1,0,0:0:0:0:
248,192,66373,1,0,0:0:0:0:
248,220,66699,1,8,0:0:0:0:
256,192,67025,5,8,0:0:0:0:
256,192,67351,1,8,0:0:0:0:
256,192,67677,5,8,0:0:0:0:
256,192,68003,1,0,0:0:0:0:
256,192,68329,1,8,0:0:0:0:
256,192,68654,1,0,0:0:0:0:
256,192,68980,1,8,0:0:0:0:
256,192,69306,1,0,0:0:0:0:
256,192,69632,1,8,0:0:0:0:
256,192,69958,1,0,0:0:0:0:
256,192,70284,1,8,0:0:0:0:
256,192,70610,1,4,0:0:0:0:
256,192,70935,1,4,0:0:0:0:
256,192,71261,1,4,0:0:0:0:
256,192,71587,1,4,0:0:0:0:
256,192,71913,1,4,0:0:0:0:
256,192,72239,1,4,0:0:0:0:
256,192,73216,1,12,0:0:0:0:
256,192,73542,1,8,0:0:0:0:
256,192,73868,1,0,0:0:0:0:
256,192,74194,1,8,0:0:0:0:
256,192,74520,1,0,0:0:0:0:
256,192,74683,1,0,0:0:0:0:
256,192,74846,1,8,0:0:0:0:
256,192,75172,1,0,0:0:0:0:
256,192,75497,1,8,0:0:0:0:
256,192,75823,1,0,0:0:0:0:
256,192,75986,1,0,0:0:0:0:
256,192,76149,1,8,0:0:0:0:
256,192,76475,1,0,0:0:0:0:
256,192,76801,1,8,0:0:0:0:
256,192,77127,1,0,0:0:0:0:
256,192,77290,1,0,0:0:0:0:
256,192,77453,1,8,0:0:0:0:
256,192,77778,1,0,0:0:0:0:
284,220,77941,1,0,0:0:0:0:
284,220,78104,1,0,0:0:0:0:
256,192,78430,1,0,0:0:0:0:
256,192,78593,1,0,0:0:0:0:
256,192,78756,1,8,0:0:0:0:
256,192,79082,1,0,0:0:0:0:
256,192,79408,1,8,0:0:0:0:
256,192,79734,1,0,0:0:0:0:
256,192,79897,1,0,0:0:0:0:
256,192,80059,1,8,0:0:0:0:
256,192,80385,1,0,0:0:0:0:
256,192,80711,1,8,0:0:0:0:
256,192,81037,1,0,0:0:0:0:
256,192,81200,1,0,0:0:0:0:
256,192,81363,1,8,0:0:0:0:
256,192,81689,1,8,0:0:0:0:
256,192,82015,1,8,0:0:0:0:
256,192,82340,1,4,0:0:0:0:
256,192,82829,1,4,0:0:0:0:
256,192,83318,1,4,0:0:0:0:
256,192,83644,1,12,0:0:0:0:
156,272,83970,1,0,0:0:0:0:
256,192,84296,5,8,0:0:0:0:
256,192,84621,1,8,0:0:0:0:
448,68,84947,1,0,0:0:0:0:
256,192,85273,1,8,0:0:0:0:
232,208,85436,1,8,0:0:0:0:
256,192,85599,1,8,0:0:0:0:
256,192,85925,1,8,0:0:0:0:
48,344,86251,1,0,0:0:0:0:
276,228,86577,1,8,0:0:0:0:
236,208,86902,1,8,0:0:0:0:
236,208,87228,1,8,0:0:0:0:
444,68,87554,1,0,0:0:0:0:
344,128,87880,1,8,0:0:0:0:
276,228,88043,1,8,0:0:0:0:
236,208,88206,1,8,0:0:0:0:
236,208,88532,1,8,0:0:0:0:
252,200,88695,1,8,0:0:0:0:
252,204,88858,1,8,0:0:0:0:
248,204,89183,1,0,0:0:0:0:
236,208,89509,1,8,0:0:0:0:
236,208,89835,1,8,0:0:0:0:
452,64,90161,1,0,0:0:0:0:
276,228,90487,1,8,0:0:0:0:
276,228,90650,1,8,0:0:0:0:
236,208,90813,1,8,0:0:0:0:
236,208,91139,1,8,0:0:0:0:
40,348,91464,1,0,0:0:0:0:
236,208,92116,1,8,0:0:0:0:
236,208,92442,1,8,0:0:0:0:
452,64,92768,1,0,0:0:0:0:
236,208,93094,1,8,0:0:0:0:
236,208,93420,1,0,0:0:0:0:
236,208,93745,1,0,0:0:0:0:
236,208,94071,1,12,0:0:0:0:
156,272,94397,1,0,0:0:0:0:
256,192,94723,5,8,0:0:0:0:
256,192,95048,1,8,0:0:0:0:
448,68,95374,1,0,0:0:0:0:
256,192,95701,1,8,0:0:0:0:
276,228,95863,1,8,0:0:0:0:
256,192,96026,1,8,0:0:0:0:
256,192,96352,1,8,0:0:0:0:
48,344,96678,1,0,0:0:0:0:
228,184,97004,1,8,0:0:0:0:
236,208,97329,1,8,0:0:0:0:
236,208,97655,1,8,0:0:0:0:
444,68,97981,1,0,0:0:0:0:
276,228,98307,1,8,0:0:0:0:
276,228,98470,1,8,0:0:0:0:
236,208,98633,1,8,0:0:0:0:
236,208,98959,1,8,0:0:0:0:
36,352,99285,1,0,0:0:0:0:
228,184,99611,1,8,0:0:0:0:
236,208,99936,1,8,0:0:0:0:
236,208,100262,1,8,0:0:0:0:
452,64,100588,1,0,0:0:0:0:
368,112,100914,1,8,0:0:0:0:
236,208,101240,1,8,0:0:0:0:
236,208,101566,1,8,0:0:0:0:
40,348,101891,1,0,0:0:0:0:
236,208,102218,1,4,0:0:0:0:
236,208,102544,1,4,0:0:0:0:
236,208,103195,1,4,0:0:0:0:
236,208,103521,1,4,0:0:0:0:
236,208,103847,1,4,0:0:0:0:
236,208,104173,1,4,0:0:0:0:
244,208,104499,1,12,0:0:0:0:
236,216,104825,1,8,0:0:0:0:
236,212,105150,1,0,0:0:0:0:
236,212,105313,1,0,0:0:0:0:
236,212,105476,1,0,0:0:0:0:
260,228,105802,1,8,0:0:0:0:
236,216,106128,1,8,0:0:0:0:
236,212,106454,1,0,0:0:0:0:
236,212,106780,1,0,0:0:0:0:
260,228,107106,1,8,0:0:0:0:
228,216,107431,1,8,0:0:0:0:
236,212,107757,1,0,0:0:0:0:
236,212,107920,1,0,0:0:0:0:
236,212,108083,1,0,0:0:0:0:
260,228,108409,1,8,0:0:0:0:
228,216,108735,1,8,0:0:0:0:
236,212,109061,1,0,0:0:0:0:
268,216,109387,1,8,0:0:0:0:
260,228,109712,1,12,0:0:0:0:
228,216,110038,1,8,0:0:0:0:
236,212,110364,1,0,0:0:0:0:
240,212,110527,1,0,0:0:0:0:
236,212,110690,1,0,0:0:0:0:
260,228,111016,1,8,0:0:0:0:
228,216,111342,1,8,0:0:0:0:
236,212,111668,1,0,0:0:0:0:
236,212,111993,1,0,0:0:0:0:
244,212,112319,1,8,0:0:0:0:
244,212,112645,1,8,0:0:0:0:
236,212,112971,1,0,0:0:0:0:
228,224,113134,1,0,0:0:0:0:
236,212,113297,1,0,0:0:0:0:
240,232,113623,1,0,0:0:0:0:
236,212,113948,1,0,0:0:0:0:
240,232,114111,1,0,0:0:0:0:
236,212,114274,1,0,0:0:0:0:
248,216,114600,1,0,0:0:0:0:
252,212,114926,1,8,0:0:0:0:
252,220,115252,1,12,0:0:0:0:
252,220,115578,1,12,0:0:0:0:
252,220,115904,1,12,0:0:0:0:
264,212,116555,5,4,0:0:0:0:
264,208,116881,1,4,0:0:0:0:
264,208,117207,1,4,0:0:0:0:
252,220,117859,1,12,0:0:0:0:
252,220,118185,1,12,0:0:0:0:
252,220,118510,1,12,0:0:0:0:
252,220,118836,1,12,0:0:0:0:
268,216,119162,1,4,0:0:0:0:
252,220,119488,5,4,0:0:0:0:
252,220,119814,1,4,0:0:0:0:
252,220,120466,1,12,0:0:0:0:
252,220,120791,1,12,0:0:0:0:
252,220,121117,1,12,0:0:0:0:
252,220,121443,1,12,0:0:0:0:
252,220,121769,1,12,0:0:0:0:
252,220,122095,1,12,0:0:0:0:
252,220,122421,1,12,0:0:0:0:
252,220,122747,1,12,0:0:0:0:
252,220,123072,1,12,0:0:0:0:
252,220,123398,1,12,0:0:0:0:
252,220,123724,1,12,0:0:0:0:
236,208,124050,5,4,0:0:0:0:
296,300,124376,1,4,0:0:0:0:
236,208,124702,1,4,0:0:0:0:
292,300,125028,1,4,0:0:0:0:
256,192,125353,12,0,126331,0:0:0:0:
256,192,126657,5,12,0:0:0:0:
256,192,126983,1,8,0:0:0:0:
256,192,127309,1,0,0:0:0:0:
256,192,127635,1,8,0:0:0:0:
256,192,127961,1,0,0:0:0:0:
256,192,128124,1,0,0:0:0:0:
256,192,128287,1,8,0:0:0:0:
256,192,128613,1,0,0:0:0:0:
256,192,128938,1,8,0:0:0:0:
256,192,129264,1,0,0:0:0:0:
256,192,129427,1,0,0:0:0:0:
256,192,129590,1,8,0:0:0:0:
256,192,129916,1,0,0:0:0:0:
256,192,130242,1,8,0:0:0:0:
256,192,130568,1,0,0:0:0:0:
256,192,130731,1,0,0:0:0:0:
256,192,130894,1,8,0:0:0:0:
256,192,131219,1,0,0:0:0:0:
256,192,131545,1,8,0:0:0:0:
256,192,131871,1,0,0:0:0:0:
256,192,132034,1,0,0:0:0:0:
256,192,132197,1,8,0:0:0:0:
256,192,132523,1,0,0:0:0:0:
256,192,132849,1,8,0:0:0:0:
256,192,133175,1,0,0:0:0:0:
256,192,133338,1,0,0:0:0:0:
256,192,133500,1,8,0:0:0:0:
256,192,133826,1,0,0:0:0:0:
256,192,134152,1,8,0:0:0:0:
256,192,134478,1,0,0:0:0:0:
256,192,134641,1,0,0:0:0:0:
256,192,134804,1,8,0:0:0:0:
256,192,135130,1,8,0:0:0:0:
256,192,135456,1,8,0:0:0:0:
256,192,135781,1,8,0:0:0:0:
256,192,136107,1,8,0:0:0:0:
256,192,136433,1,8,0:0:0:0:
256,192,136759,1,8,0:0:0:0:
256,192,137084,1,12,0:0:0:0:
256,192,137573,1,8,0:0:0:0:
256,192,137736,1,8,0:0:0:0:
256,192,138225,1,0,0:0:0:0:
256,192,138388,1,0,0:0:0:0:
256,192,138714,1,12,0:0:0:0:
256,192,139039,1,12,0:0:0:0:
256,192,139365,1,12,0:0:0:0:
256,192,139691,1,12,0:0:0:0:
256,192,140180,1,8,0:0:0:0:
256,192,140343,1,8,0:0:0:0:
256,192,140832,1,0,0:0:0:0:
256,192,140995,1,0,0:0:0:0:
256,192,141321,1,12,0:0:0:0:
256,192,141646,1,12,0:0:0:0:
256,192,141972,1,12,0:0:0:0:
256,192,142298,1,12,0:0:0:0:
256,192,142787,1,8,0:0:0:0:
256,192,142950,1,8,0:0:0:0:
256,192,143439,1,0,0:0:0:0:
256,192,143602,1,0,0:0:0:0:
256,192,143928,1,12,0:0:0:0:
256,192,144253,1,12,0:0:0:0:
256,192,144579,1,12,0:0:0:0:
256,192,144905,1,12,0:0:0:0:
256,192,145394,1,8,0:0:0:0:
256,192,145557,1,8,0:0:0:0:
256,192,146046,1,0,0:0:0:0:
256,192,146209,1,0,0:0:0:0:
248,192,146534,1,8,0:0:0:0:
268,200,146860,1,8,0:0:0:0:
268,196,147023,1,8,0:0:0:0:
268,192,147186,1,8,0:0:0:0:
268,192,147349,1,8,0:0:0:0:
