osu file format v8

[General]
AudioFilename: Sum41 In Too Deep.mp3
AudioLeadIn: 0
PreviewTime: 32089
Countdown: 1
SampleSet: Normal
StackLeniency: 0.7
Mode: 0
LetterboxInBreaks: 1

[Editor]
DistanceSpacing: 0.8
BeatDivisor: 2
GridSize: 16

[Metadata]
Title:In Too Deep
Artist:Sum 41
Creator:loser101
Version:Normal
Source:
Tags:DiamondCrash Larto

[Difficulty]
HPDrainRate:3
CircleSize:3
OverallDifficulty:3
ApproachRate:5
SliderMultiplier:1
SliderTickRate:1

[Events]
//Background and Video events
Video,-5200,"Sum 41 - In Too Deep.avi"
0,0,"Sum_41_-_All_Killer_No_Filler_-_Front.jpg"
//Break Periods
2,51899,58770
2,107723,119245
2,140287,141436
//Storyboard Layer 0 (Background)
//Storyboard Layer 1 (Fail)
//Storyboard Layer 2 (Pass)
//Storyboard Layer 3 (Foreground)
//Storyboard Sound Samples
//Background Colour Transformations
3,100,163,162,255

[TimingPoints]
4147,517.687661777394,4,1,1,60,1,0
24822,516.884906960717,4,2,1,60,1,0
142636,518.338531317494,4,2,1,60,1,0
165419,517.687661777394,4,1,1,60,1,0

[HitObjects]
64,80,8288,1,4
144,80,8806,2,0,B|208:80|208:80|208:120,1,100,0|0
208,176,9841,1,0
320,176,10359,6,0,B|384:176|384:176|384:224,1,100,4|0
432,192,11394,1,0
432,272,11912,1,0
352,272,12430,6,0,B|256:272|256:272|256:160,1,200,4|4
256,48,13983,1,0
256,160,14500,1,4
96,336,15536,5,0
96,224,16053,1,0
96,96,16571,6,0,B|320:96,1,200
288,224,18124,1,0
288,352,18642,2,0,B|80:352,1,200
96,240,20195,5,0
176,240,20713,1,0
208,208,20971,1,0
240,208,21230,2,0,L|352:208,1,100
368,176,22007,1,4
448,176,22524,1,0
448,176,24822,5,0
352,176,25338,1,0
272,176,25855,1,0
192,176,26372,1,0
112,176,26889,1,0
112,16,27923,6,0,L|224:16|224:16,1,100
288,16,28957,1,0
336,16,29215,1,0
384,16,29473,1,0
416,96,29990,1,0
352,160,30507,5,0
288,208,31024,1,4
256,240,31283,1,4
224,272,31541,1,4
144,272,32058,1,4
80,224,32575,5,4
80,144,33092,2,4,B|32:144|32:144|32:80|32:80|96:80,1,150
144,64,34642,1,4
224,64,35159,1,4
304,64,35676,1,4
384,64,36193,1,4
336,144,36710,6,4,B|528:144,1,150
480,192,38002,2,0,L|480:304,1,100
352,272,39294,1,0
272,272,39811,1,0
192,272,40328,1,0
112,272,40845,1,0
112,192,41362,6,0,B|112:144|112:144|160:144|160:144|160:192,1,140
240,192,42912,1,4
320,192,43429,1,4
400,192,43946,1,4
400,272,44463,1,4
320,272,44980,6,4,B|160:272,1,140
176,192,46531,2,0,B|24:192,1,140
32,112,48081,1,0
32,32,48598,1,0
112,32,49115,5,0
112,112,49632,1,0
112,192,50149,1,0
112,272,50666,2,0,B|272:272,1,150
40,40,59970,5,0
112,40,60487,1,0
184,40,61003,1,0
256,40,61520,1,0
256,112,62037,5,0
208,160,62554,1,0
152,208,63071,1,0
120,272,63588,2,0,B|192:272,1,70
264,272,64622,2,0,B|264:96,1,140
328,160,66172,1,0
416,192,68240,5,0
360,224,68757,2,0,L|320:256,2,50
272,224,69790,1,0
192,208,70307,1,0
112,176,70824,1,0
56,88,71341,5,0
128,96,71858,2,0,B|240:96,1,100
304,96,72892,1,0
304,176,73409,2,0,B|352:224|432:176,2,100
0,272,76510,5,0
0,192,77027,1,0
0,112,77544,1,0
48,48,78061,1,0
128,48,78578,5,0
208,48,79094,1,0
288,48,79611,1,0
368,48,80128,1,0
448,48,80645,6,0,B|448:216,1,140
448,272,82196,1,0
368,272,82713,2,4,L|304:272,2,50
368,192,83746,2,4,L|368:144,2,50
288,192,84780,5,0
208,192,85297,1,0
128,192,85814,1,0
48,192,86331,1,0
48,112,86848,1,0
128,112,87365,1,0
128,144,87623,6,0,B|184:232|288:272,1,200
400,272,89432,1,0
400,192,89949,2,2,L|400:144,2,50
320,192,90983,1,0
320,112,91500,1,0
400,112,92017,1,0
400,192,92533,1,0
320,192,93050,1,0
304,112,93567,6,0,B|416:112,1,100
416,192,94601,1,0
368,256,95118,1,0
288,256,95635,1,0
288,176,96152,6,0,B|288:64,1,100
288,0,97185,2,0,B|400:0,1,100
400,80,98219,2,0,B|400:192,1,100
400,256,99253,2,0,B|192:256,1,200
208,336,100804,2,0,B|416:336,1,200
256,192,102354,12,4,107523
48,56,120445,5,8
208,64,121479,1,8
368,64,122513,1,8
368,224,123547,1,8
240,320,124580,1,8
80,320,125614,1,8
80,160,126648,1,8
240,160,127682,1,8
400,160,128715,5,4
400,240,129232,1,4
400,320,129749,1,4
240,320,130783,5,4
160,320,131300,1,4
80,320,131817,1,4
80,240,132334,1,0
112,88,133367,5,0
192,112,133884,2,4,B|240:160,1,50
256,176,134401,2,4,B|320:240,1,50
320,240,134918,2,4,B|368:288,1,50
336,304,135435,1,4
256,304,135952,5,0
176,304,136469,1,0
176,144,137502,1,0
176,64,138019,1,0
256,64,138536,1,0
256,224,139570,1,0
176,224,140087,1,0
64,224,142636,5,0
64,144,143154,1,0
64,64,143672,1,0
128,112,144191,1,0
208,112,144709,5,2
240,112,144968,1,2
272,112,145227,1,2
304,112,145486,1,2
304,192,146005,5,8
304,224,146264,1,8
336,224,146523,1,8
464,224,147301,5,8
448,256,147560,1,8
400,320,148078,1,4
368,352,148337,1,4
336,320,148596,1,4
288,256,149115,5,8
256,224,149374,1,8
224,192,149633,1,8
96,96,150670,5,0
208,96,151447,1,0
288,96,151966,1,8
320,96,152225,1,8
352,96,152484,5,4
352,176,153002,1,2
352,256,153521,1,2
320,256,153780,1,2
240,256,154298,5,8
208,256,154557,1,8
208,224,154816,1,8
208,112,155594,5,4
208,80,155853,1,4
288,80,156371,5,8
336,80,156631,1,8
368,80,156890,1,8
480,80,157667,6,0,B|480:288,1,200
400,224,159222,1,8
320,224,159741,1,8
240,224,160259,1,0
160,224,160777,1,0
160,144,161296,5,8
160,64,161814,1,8
240,64,162332,2,0,B|240:176,1,100
240,240,163369,1,8
320,240,163887,1,8
400,240,164406,5,0
400,320,164924,1,8
320,320,165419,1,8
240,320,165936,2,0,B|32:320,1,200,0|8
32,240,167489,1,8
32,160,168007,5,0
112,160,168525,1,8
192,160,169042,1,8
272,160,169560,2,0,B|480:160,1,200,0|8
480,240,171113,5,8
400,240,171631,1,0
384,320,172148,2,0,B|272:320,1,100,0|8
208,320,173184,2,8,B|208:208,1,100,8|0
128,224,174219,1,8
128,144,174737,5,8
128,64,175255,2,0,B|352:64,1,200,0|8
336,144,176808,2,0,B|128:144,1,200,8|0
128,224,178361,1,8
128,304,178878,5,8
208,304,179396,2,0,B|416:304,1,200,0|8
480,304,180949,1,8
480,224,181467,5,0
480,144,181985,2,8,B|272:144,1,200,0|8
272,64,183538,2,0,B|48:64,1,200,0|8
80,144,185091,2,0,B|80:352,1,200,8|0
256,192,186644,12,4,191303
