osu file format v11

[General]
AudioFilename: Sum 41 - In Too Deep.mp3
AudioLeadIn: 0
PreviewTime: 32260
Countdown: 1
SampleSet: Soft
StackLeniency: 0.3
Mode: 0
LetterboxInBreaks: 1

[Editor]
DistanceSpacing: 1.1
BeatDivisor: 4
GridSize: 8

[Metadata]
Title:In Too Deep
TitleUnicode:In Too Deep
Artist:Sum 41
ArtistUnicode:Sum 41
Creator:Mik-ey
Version:Too Shieky!
Source:
Tags:Mitiai -Shieky- ShadowLord Shadow Lego Rock Band All Killer No Filler
BeatmapID:118260
BeatmapSetID:36539

[Difficulty]
HPDrainRate:7
CircleSize:4
OverallDifficulty:6
ApproachRate:7
SliderMultiplier:1.4
SliderTickRate:2

[Events]
//Background and Video events
0,0,"Shieky_BG.png"
//Break Periods
2,53653,59012
//Storyboard Layer 0 (Background)
//Storyboard Layer 1 (Fail)
//Storyboard Layer 2 (Pass)
//Storyboard Layer 3 (Foreground)
//Storyboard Sound Samples
//Background Colour Transformations
3,100,163,162,255

[TimingPoints]
4358,516.795865633075,4,2,0,80,1,0
33298,-66.6666666666667,4,1,0,80,0,1
53453,-100,4,1,0,80,0,0
59526,-100,4,1,0,50,0,0
84332,-100,4,2,0,80,0,0
84978,-66.6666666666667,4,1,0,80,0,1
107717,-100,4,2,0,80,0,0
111851,-66.6666666666667,4,1,0,50,0,1
119608,-100,4,2,0,80,0,0
144926,-66.6666666666667,4,1,0,80,0,1
173608,-133.333333333333,4,1,0,80,0,1
176451,-100,4,1,0,80,0,1
196606,-100,4,2,0,80,0,0

[Colours]
Combo1 : 255,128,64
Combo2 : 0,255,0
Combo3 : 255,0,0
Combo4 : 255,255,0
Combo5 : 0,0,255

[HitObjects]
104,96,8234,1,0,0:0:0
144,80,8363,1,0,0:0:0
184,64,8492,2,0,B|224:64|256:128,1,70
256,208,9009,1,0,0:0:0
256,312,9267,1,0,0:0:0
256,208,9526,1,0,0:0:0
360,216,9784,1,0,0:0:0
432,144,10042,2,0,B|480:176|472:232,2,70
328,144,10818,5,0,0:0:0
224,144,11076,1,0,0:0:0
136,144,11334,1,0,0:0:0
96,128,11464,1,0,0:0:0
64,96,11593,2,0,B|80:56|128:32,1,70
256,24,12110,1,0,0:0:0
256,128,12368,1,0,0:0:0
360,128,12626,2,0,B|448:128,2,70
256,128,13402,1,0,0:0:0
152,128,13660,5,0,0:0:0
152,232,13918,1,0,0:0:0
256,232,14177,1,0,0:0:0
288,232,14306,1,0,0:0:0
328,232,14435,2,0,B|328:144,1,70
327,162,14952,1,8,0:0:0
327,162,15210,1,8,0:0:0
56,328,16244,5,0,0:0:0
72,224,16502,1,0,0:0:0
144,288,16761,1,0,0:0:0
160,184,17019,2,0,B|216:176|248:200,2,70
80,120,17794,1,0,0:0:0
80,120,18053,1,0,0:0:0
184,120,18311,2,0,B|272:120,1,70
288,216,18828,6,0,B|328:152,1,70
464,168,19345,2,0,B|392:136,1,70
320,48,19862,1,0,0:0:0
288,32,19991,1,0,0:0:0
256,48,20120,2,8,B|168:48,1,70
80,192,20637,5,0,0:0:0
152,272,20895,1,0,0:0:0
80,192,21154,1,0,0:0:0
152,112,21412,1,0,0:0:0
80,192,21670,1,0,0:0:0
184,192,21929,2,0,B|280:192,1,70
360,192,22446,1,0,0:0:0
256,112,22704,2,0,B|312:160,2,70,0|0|8,0:0|0:0|0:0,0:0:0
256,112,23479,1,8,0:0:0
96,224,24513,5,0,0:0:0
128,240,24642,1,0,0:0:0
168,232,24771,1,0,0:0:0
200,256,24900,1,0,0:0:0
240,256,25029,1,0,0:0:0
352,208,25288,1,0,0:0:0
368,280,25546,1,0,0:0:0
416,224,25805,1,0,0:0:0
416,224,26063,2,0,B|496:224,1,70,0|0,0:0|0:0,0:0:0
352,208,26580,2,0,B|280:144,1,70,0|0,0:0|0:0,0:0:0
232,64,27097,1,0,0:0:0
232,64,27355,5,8,0:0:0
272,80,27484,1,0,0:0:0
304,104,27614,1,8,0:0:0
352,208,27872,1,0,0:0:0
352,312,28130,2,0,B|408:336|440:304,2,70
248,304,28906,5,0,0:0:0
144,288,29164,1,0,0:0:0
88,200,29422,1,0,0:0:0
192,200,29681,2,0,B|224:176|224:128,1,70
328,136,30197,2,0,B|320:192|360:208,1,70
416,136,30714,2,0,B|368:72,1,70
256,40,31231,5,0,0:0:0
152,64,31489,1,0,0:0:0
80,144,31748,1,0,0:0:0
96,248,32006,1,0,0:0:0
184,312,32264,1,0,0:0:0
248,336,32523,1,0,0:0:0
316,336,32781,1,0,0:0:0
359,317,32911,1,0,0:0:0
392,288,33040,1,0,0:0:0
392,248,33169,1,0,0:0:0
376,208,33298,1,4,0:0:0
264,144,33557,5,0,0:0:0
160,208,33815,1,0,0:0:0
72,120,34073,2,0,B|72:256,1,104.999996870756,8|8,0:0|0:0,0:0:0
176,304,34590,2,0,B|240:296|248:224,2,104.999996870756
32,272,35365,1,0,0:0:0
144,176,35624,1,0,0:0:0
288,184,35882,1,0,0:0:0
272,224,36011,1,0,0:0:0
240,200,36140,1,0,0:0:0
192,304,36399,5,0,0:0:0
368,192,36657,1,0,0:0:0
256,32,36916,1,0,0:0:0
120,192,37174,1,0,0:0:0
224,192,37433,2,0,B|280:216|280:280,1,104.999996870756
384,272,37949,1,8,0:0:0
280,272,38208,6,0,B|408:272,1,104.999996870756,8|0,0:0|0:0,0:0:0
336,168,38725,1,0,0:0:0
232,168,38983,1,0,0:0:0
128,168,39241,1,0,0:0:0
64,88,39500,2,0,B|112:56|176:64,2,104.999996870756
64,192,40275,1,0,0:0:0
56,296,40533,2,0,B|128:296|160:232,2,104.999996870756,0|8|8,0:0|0:0|0:0,0:0:0
48,344,41179,5,0,0:0:0
104,352,41309,1,0,0:0:0
152,360,41438,1,0,0:0:0
200,352,41567,2,0,B|256:336|264:264,1,104.999996870756,0|0,0:0|0:0,0:0:0
296,136,42084,1,0,0:0:0
208,80,42342,1,0,0:0:0
296,136,42601,1,0,0:0:0
384,80,42859,1,0,0:0:0
440,168,43117,2,0,B|488:264,2,104.999996870756
336,192,43893,5,8,0:0:0
336,192,44022,1,0,0:0:0
336,192,44151,2,8,B|280:232|200:176,1,104.999996870756,8|0,0:0|0:0,0:0:0
128,200,44668,1,0,0:0:0
128,32,44926,2,0,B|256:32,3,104.999996870756
304,112,45960,1,0,0:0:0
336,208,46218,1,0,0:0:0
304,304,46477,1,0,0:0:0
200,304,46735,5,8,0:0:0
200,304,46864,1,0,0:0:0
200,304,46993,2,0,B|128:296|144:208,1,104.999996870756,8|0,0:0|0:0,0:0:0
152,128,47510,1,0,0:0:0
256,128,47769,1,0,0:0:0
360,128,48027,2,0,B|432:152|432:240,1,104.999996870756
320,208,48544,2,0,B|256:208|240:112,1,104.999996870756
352,128,49061,2,0,B|408:144|424:224,1,104.999996870756
312,224,49577,6,0,B|248:208|248:120,1,104.999996870756
160,96,50094,1,0,0:0:0
56,128,50353,1,0,0:0:0
40,232,50611,1,0,0:0:0
112,312,50869,1,0,0:0:0
216,296,51128,1,0,0:0:0
256,200,51386,1,0,0:0:0
256,160,51515,1,0,0:0:0
256,120,51645,1,0,0:0:0
256,80,51774,1,0,0:0:0
256,40,51903,1,0,0:0:0
256,192,52032,12,0,53453,0:0:0
224,40,59912,5,0,0:0:0
264,48,60042,1,0,0:0:0
296,64,60171,2,0,B|328:80|336:152,1,70
376,216,60688,2,0,B|400:160|440:160,1,70
456,264,61205,1,0,0:0:0
384,344,61464,1,0,0:0:0
280,312,61722,1,0,0:0:0
224,224,61980,6,0,B|160:224|152:280,1,70
56,240,62497,2,0,B|80:200|128:184,1,70
144,288,63014,1,0,0:0:0
248,288,63272,2,0,B|320:288,2,70
216,184,64048,1,0,0:0:0
320,184,64306,6,0,B|408:184,1,70
392,80,64823,1,0,0:0:0
288,56,65081,1,0,0:0:0
192,104,65340,1,0,0:0:0
288,56,65598,1,0,0:0:0
392,80,65856,2,0,B|432:112|416:152,2,70
288,56,66632,1,8,0:0:0
288,56,66890,1,8,0:0:0
256,192,67407,5,0,0:0:0
256,192,67665,1,0,0:0:0
136,192,67924,1,0,0:0:0
96,176,68053,1,0,0:0:0
64,144,68182,2,0,B|56:88|104:72,1,70
296,80,68699,6,0,B|200:80,1,70
272,176,69216,2,0,B|344:176,1,70
416,256,69732,1,0,0:0:0
384,360,69991,1,0,0:0:0
312,280,70249,1,0,0:0:0
416,304,70508,2,0,B|464:296|472:256,2,70
312,304,71283,2,0,B|224:304,1,70
136,296,71800,5,0,0:0:0
56,232,72058,1,0,0:0:0
128,152,72316,1,0,0:0:0
208,224,72575,1,0,0:0:0
104,192,72833,2,0,B|40:128,1,70
152,192,73350,2,0,B|240:192,1,70
128,240,73867,2,0,B|128:312,2,70
232,256,74642,5,8,0:0:0
272,256,74771,1,0,0:0:0
320,256,74900,1,8,0:0:0
336,152,75159,1,0,0:0:0
440,152,75417,1,8,0:0:0
440,192,75546,1,0,0:0:0
440,232,75676,1,8,0:0:0
312,152,75934,1,0,0:0:0
264,152,76063,1,0,0:0:0
224,152,76192,2,0,B|176:192|224:232,1,70
208,216,76709,1,0,0:0:0
232,312,76967,5,0,0:0:0
312,256,77226,1,0,0:0:0
352,344,77484,1,0,0:0:0
272,288,77743,1,0,0:0:0
352,240,78001,1,0,0:0:0
288,160,78260,1,0,0:0:0
384,128,78518,1,0,0:0:0
432,224,78776,1,8,0:0:0
432,224,78906,1,0,0:0:0
432,224,79035,2,8,B|432:304,1,70,8|0,0:0|0:0,0:0:0
240,232,79552,2,0,B|280:232|320:280,2,70
128,192,80327,1,0,0:0:0
48,128,80585,5,0,0:0:0
144,80,80843,1,0,0:0:0
208,152,81102,1,0,0:0:0
256,240,81360,1,0,0:0:0
256,240,81618,2,0,B|288:208|288:208|336:208|336:208,1,70
408,208,82135,1,0,0:0:0
384,312,82394,1,0,0:0:0
424,216,82652,1,0,0:0:0
352,296,82911,1,0,0:0:0
360,192,83169,1,0,0:0:0
280,104,83427,1,0,0:0:0
160,40,83686,1,0,0:0:0
24,40,83944,1,0,0:0:0
24,192,84203,5,0,0:0:0
72,192,84332,1,0,0:0:0
120,192,84461,1,0,0:0:0
168,192,84590,1,0,0:0:0
216,192,84719,1,0,0:0:0
264,192,84849,1,0,0:0:0
312,192,84978,2,0,B|368:192|384:120,1,104.999996870756,4|0,0:0|0:0,0:0:0
296,64,85495,1,8,0:0:0
192,72,85753,1,8,0:0:0
120,144,86011,6,0,B|128:224|216:216,2,104.999996870756,0|0|0,0:0|0:0|0:0,0:0:0
16,144,86787,2,0,B|8:208|80:240,1,104.999996870756
168,240,87303,2,0,B|264:184,2,105.000004005432,0|8|8,0:0|0:0|0:0,0:0:0
256,192,88079,1,0,0:0:0
256,80,88337,1,0,0:0:0
128,192,88595,1,0,0:0:0
256,304,88854,5,0,0:0:0
360,200,89112,2,0,B|336:176|280:240|232:160,1,104.999996870756
256,192,89629,1,0,0:0:0
160,184,89887,1,8,0:0:0
120,112,90146,1,8,0:0:0
136,56,90275,1,0,0:0:0
176,48,90404,1,8,0:0:0
264,48,90663,1,8,0:0:0
432,232,90921,5,0,0:0:0
384,328,91179,1,0,0:0:0
352,232,91438,1,0,0:0:0
432,296,91696,2,0,B|496:288|488:224,1,104.999996870756
424,144,92213,1,0,0:0:0
424,40,92471,2,0,B|424:144,1,104.999996870756
384,176,92859,5,0,0:0:0
344,216,92988,1,0,0:0:0
296,232,93117,1,0,0:0:0
240,240,93247,2,0,B|168:232|160:320,1,104.999996870756
264,320,93763,2,0,B|336:320|320:240,1,104.999996870756
224,288,94280,1,0,0:0:0
120,288,94539,6,0,B|104:208|184:200,1,104.999996870756
224,288,95055,1,0,0:0:0
304,224,95314,2,0,B|344:248|352:256|368:312,1,104.999996870756
472,304,95831,2,0,B|448:256|504:192,1,104.999996870756
492,206,96347,1,0,0:0:0
404,148,96606,1,0,0:0:0
256,304,96864,5,0,0:0:0
256,184,97123,1,0,0:0:0
208,352,97381,2,0,B|264:384|320:344,2,104.999996870756
128,280,98156,1,8,0:0:0
88,248,98285,1,0,0:0:0
56,208,98415,2,8,B|80:160|152:168,1,104.999996870756
248,168,98931,1,8,0:0:0
336,104,99190,2,0,B|400:136|384:192,1,104.999996870756
336,256,99707,6,0,B|384:304|448:248,2,104.999996870756
248,168,100482,1,0,0:0:0
168,232,100740,1,0,0:0:0
240,304,100999,1,0,0:0:0
320,240,101257,1,0,0:0:0
400,168,101515,2,0,B|440:200|416:272,1,104.999996870756
312,264,102032,2,0,B|336:208|296:160,1,104.999996870756
192,176,102549,2,0,B|240:216|216:280,1,104.999996870756
256,192,103066,12,0,105133,0:0:0
256,192,105391,12,0,107717,0:0:0
112,64,107975,5,0,0:0:0
168,64,108104,1,0,0:0:0
224,64,108234,2,0,B|256:80|256:144,1,70
296,224,108750,5,0,0:0:0
344,216,108880,1,0,0:0:0
400,216,109009,1,0,0:0:0
448,224,109138,1,0,0:0:0
496,240,109267,2,0,B|520:280|496:336,1,70
200,304,109784,5,0,0:0:0
240,336,109913,1,0,0:0:0
288,344,110042,1,0,0:0:0
344,344,110172,1,0,0:0:0
392,328,110301,2,0,B|424:288|408:240,1,70
320,200,110818,6,0,B|248:160,1,70
208,144,111205,1,0,0:0:0
152,136,111334,1,0,0:0:0
112,168,111464,1,0,0:0:0
104,224,111593,1,0,0:0:0
144,256,111722,1,0,0:0:0
192,272,111851,6,0,B|264:264,3,52.4999984353781
296,264,112368,1,0,0:0:0
336,296,112497,1,0,0:0:0
392,304,112626,1,0,0:0:0
440,296,112756,2,0,B|464:240,3,52.4999984353781
432,200,113272,1,0,0:0:0
384,168,113402,2,0,B|400:104|312:72,1,104.999996870756
232,224,113918,5,0,0:0:0
128,80,114177,1,0,0:0:0
336,88,114435,1,0,0:0:0
128,80,114694,1,0,0:0:0
232,224,114952,1,0,0:0:0
128,80,115210,1,0,0:0:0
280,176,115469,2,0,B|344:80,2,105.000004005432
272,208,116115,5,0,0:0:0
232,240,116244,1,0,0:0:0
200,280,116373,1,0,0:0:0
152,304,116502,2,0,B|112:336|80:304,3,52.4999984353781
64,280,117019,2,0,B|40:224|56:208,1,52.4999984353781
72,184,117278,1,0,0:0:0
104,144,117407,1,0,0:0:0
144,112,117536,2,0,B|176:80|248:80,1,104.999996870756
280,176,118053,5,0,0:0:0
336,264,118311,1,0,0:0:0
440,264,118570,1,0,0:0:0
488,168,118828,1,0,0:0:0
384,152,119086,1,0,0:0:0
312,72,119345,1,0,0:0:0
232,136,119603,1,0,0:0:0
232,136,119732,1,0,0:0:0
232,136,119862,2,0,B|176:8|48:96,1,210
88,304,120895,6,0,B|120:344|168:304,1,70
216,232,121412,1,0,0:0:0
312,280,121670,1,0,0:0:0
400,224,121929,1,0,0:0:0
344,136,122187,2,0,B|312:88|264:96,2,70
400,224,122962,1,0,0:0:0
320,288,123221,2,0,B|280:328|232:288,1,70
152,272,123738,2,8,B|128:232|136:192,1,70,8|8,0:0|0:0,0:0:0
240,192,124254,5,0,0:0:0
344,192,124513,2,0,B|384:192|408:152,2,70
240,192,125288,1,0,0:0:0
136,184,125546,2,0,B|80:160|88:112,1,70
184,96,126063,2,0,B|256:96,1,70
344,152,126580,1,0,0:0:0
424,224,126838,1,0,0:0:0
368,312,127097,1,0,0:0:0
264,328,127355,2,0,B|248:288|216:336|192:272,1,70
96,296,127872,2,8,B|120:248|152:232,1,70
240,232,128389,1,0,0:0:0
344,232,128647,1,0,0:0:0
344,64,128906,5,0,0:0:0
344,64,129035,1,0,0:0:0
344,64,129164,2,0,B|344:144,1,70
344,232,129681,2,0,B|256:232,1,70,0|8,0:0|0:0,0:0:0
274,232,130197,1,8,0:0:0
152,72,130456,5,0,0:0:0
152,72,130585,1,0,0:0:0
152,72,130714,2,0,B|104:144,1,70
48,224,131231,1,0,0:0:0
48,328,131489,2,0,B|112:344|128:288,1,70
216,320,132006,2,0,B|312:320,1,70,8|8,0:0|0:0,0:0:0
392,320,132523,1,0,0:0:0
392,216,132781,1,0,0:0:0
392,320,133040,5,0,0:0:0
392,216,133298,2,0,B|392:192|336:160,2,70
392,320,134073,1,0,0:0:0
296,288,134332,1,0,0:0:0
200,256,134590,2,0,B|168:208|224:176,1,70
296,232,135107,2,0,B|320:192|288:160,1,70
192,176,135624,2,0,B|184:128|216:96,1,70
312,120,136141,2,8,B|312:80|272:48,1,70
176,48,136657,5,0,0:0:0
120,40,136787,1,0,0:0:0
72,64,136916,2,0,B|32:128,1,70
64,224,137433,1,0,0:0:0
144,288,137691,1,0,0:0:0
232,232,137949,1,0,0:0:0
144,168,138208,2,8,B|144:248,1,70
456,304,138983,5,0,0:0:0
416,264,139112,1,0,0:0:0
440,216,139241,2,0,B|480:160,1,70
400,88,139758,1,0,0:0:0
320,152,140017,1,0,0:0:0
248,72,140275,1,0,0:0:0
144,72,140533,6,8,B|104:64|80:112,1,70
128,200,141050,1,0,0:0:0
232,208,141309,1,0,0:0:0
288,208,141438,1,0,0:0:0
344,208,141567,2,0,B|416:192|416:152,1,70
416,72,142084,1,0,0:0:0
416,72,142342,1,0,0:0:0
416,72,142601,1,0,0:0:0
416,72,142859,1,0,0:0:0
312,64,143117,6,0,B|264:40|224:72,1,70
168,128,143634,2,0,B|104:160|136:208,1,70
144,232,144022,1,0,0:0:0
184,272,144151,1,0,0:0:0
240,280,144280,1,0,0:0:0
296,272,144409,1,0,0:0:0
344,240,144539,1,0,0:0:0
384,208,144668,2,0,B|392:144|368:120,1,70
232,152,145185,6,0,B|216:96|264:40,1,104.999996870756,0|8,0:0|0:0,0:0:0
336,136,145701,1,8,0:0:0
408,224,145960,1,0,0:0:0
416,336,146218,2,0,B|352:368|296:320,2,104.999996870756
352,240,146993,2,0,B|304:208|248:256,2,104.999996870756,8|0|8,0:0|0:0|0:0,0:0:0
464,256,147769,2,0,B|488:184|424:144,1,104.999996870756,8|0,0:0|0:0,0:0:0
144,184,148285,5,8,0:0:0
256,304,148544,1,0,0:0:0
256,192,148802,1,0,0:0:0
256,192,149061,1,0,0:0:0
256,192,149319,2,0,B|392:192,1,104.999996870756
464,136,149836,2,0,B|504:192|456:264,2,104.999996870756,0|8|8,0:0|0:0|0:0,0:0:0
360,96,150611,1,0,0:0:0
264,32,150869,5,0,0:0:0
176,112,151128,1,0,0:0:0
272,176,151386,1,0,0:0:0
360,96,151645,1,0,0:0:0
264,32,151903,1,0,0:0:0
176,112,152161,1,0,0:0:0
272,176,152420,6,8,B|352:176|384:216,1,104.999996870756
400,256,152807,1,0,0:0:0
384,312,152937,1,0,0:0:0
344,352,153066,1,0,0:0:0
288,360,153195,2,0,B|208:336|184:272,1,104.999996870756
96,256,153712,1,8,0:0:0
16,168,153970,2,0,B|64:112|128:128,1,104.999996870756,8|0,0:0|0:0,0:0:0
184,208,154487,5,0,0:0:0
272,128,154745,1,0,0:0:0
184,208,155004,1,0,0:0:0
296,224,155262,1,0,0:0:0
384,296,155520,1,0,0:0:0
296,224,155779,1,8,0:0:0
400,168,156037,1,8,0:0:0
296,224,156296,1,0,0:0:0
88,192,156554,6,0,B|192:192,1,104.999996870756
120,104,157071,2,0,B|240:104,2,104.999996870756
64,208,157846,1,0,0:0:0
128,304,158104,1,0,0:0:0
208,224,158363,1,8,0:0:0
304,168,158621,2,0,B|368:192|384:264,1,104.999996870756,8|0,0:0|0:0,0:0:0
496,232,159138,2,0,B|464:176|496:128,1,104.999996870756
408,48,159655,5,0,0:0:0
304,88,159913,1,0,0:0:0
248,112,160042,1,0,0:0:0
200,80,160172,1,0,0:0:0
88,96,160430,1,0,0:0:0
104,208,160688,1,0,0:0:0
136,256,160818,1,0,0:0:0
104,304,160947,1,0,0:0:0
216,344,161205,1,0,0:0:0
328,336,161464,2,0,B|400:352|424:280,1,104.999996870756
472,216,161980,5,0,0:0:0
392,128,162239,1,0,0:0:0
376,72,162368,1,0,0:0:0
336,32,162497,2,0,B|280:8|224:56,1,104.999996870756
240,160,163014,1,0,0:0:0
240,272,163272,1,0,0:0:0
240,160,163531,1,0,0:0:0
256,192,163789,12,0,165081,0:0:0
128,88,165339,5,0,0:0:0
192,224,165598,1,0,0:0:0
248,88,165856,1,0,0:0:0
304,224,166115,2,0,B|328:152,1,52.4999984353781
328,144,166373,1,0,0:0:0
384,248,166632,1,0,0:0:0
288,192,166890,2,0,B|224:152|160:208,1,104.999996870756
149,292,167407,2,0,B|200:328|248:288,1,104.999996870756
256,192,167924,12,0,169216,0:0:0
256,192,169474,6,0,B|400:192,1,104.999996870756
360,80,169991,1,0,0:0:0
248,80,170249,2,0,B|120:80,1,104.999996870756
112,192,170766,1,0,0:0:0
112,304,171024,2,0,B|192:336|240:296,1,104.999996870756
248,200,171541,1,0,0:0:0
360,200,171800,1,0,0:0:0
248,200,172058,1,0,0:0:0
120,128,172316,1,0,0:0:0
112,272,172575,1,0,0:0:0
32,152,172833,1,0,0:0:0
112,272,173091,2,0,B|184:288,1,52.4999984353781
192,288,173350,1,0,0:0:0
280,288,173608,6,0,B|416:232|352:136|360:48|216:32,1,367.500014019013
192,64,175546,1,0,0:0:0
168,96,175675,5,0,0:0:0
144,136,175805,1,0,0:0:0
144,184,175934,1,0,0:0:0
208,240,176192,1,0,0:0:0
320,208,176451,2,0,P|248:248,1,70
344,128,176967,1,0,0:0:0
344,128,177226,5,0,0:0:0
248,128,177484,1,0,0:0:0
168,72,177743,2,0,B|112:88|128:152,1,70
112,216,178260,2,0,B|144:280|192:256,1,70
272,256,178776,2,0,B|312:240|304:192,1,70
288,144,179164,1,0,0:0:0
248,120,179293,1,0,0:0:0
208,128,179422,1,0,0:0:0
168,136,179552,2,0,B|128:152|144:216,1,70
248,336,180068,5,0,0:0:0
344,336,180327,1,0,0:0:0
416,272,180585,1,0,0:0:0
208,40,181102,5,0,0:0:0
120,88,181360,1,0,0:0:0
88,184,181619,1,0,0:0:0
472,192,182135,5,0,0:0:0
376,192,182394,1,0,0:0:0
280,192,182652,1,0,0:0:0
48,56,183169,5,0,0:0:0
112,128,183427,1,0,0:0:0
184,192,183686,1,0,0:0:0
256,32,184203,5,0,0:0:0
256,128,184461,1,0,0:0:0
256,224,184719,1,0,0:0:0
448,192,185236,6,0,B|352:192,2,70
128,192,186270,6,0,B|40:192,2,70
256,192,187303,5,0,0:0:0
256,96,187562,1,0,0:0:0
256,296,187820,1,0,0:0:0
256,192,188337,5,0,0:0:0
256,192,188466,1,0,0:0:0
256,192,188595,1,0,0:0:0
256,192,188725,1,0,0:0:0
256,192,188854,1,0,0:0:0
456,192,189371,5,0,0:0:0
456,192,189500,1,0,0:0:0
456,192,189629,1,0,0:0:0
456,192,189758,1,0,0:0:0
456,192,189887,1,0,0:0:0
256,184,190404,5,0,0:0:0
160,184,190663,1,0,0:0:0
64,184,190921,1,0,0:0:0
224,64,191438,5,0,0:0:0
320,64,191696,1,0,0:0:0
416,64,191955,1,0,0:0:0
256,192,192471,6,0,B|176:248,2,70
368,192,193505,6,0,B|448:192,2,70
272,120,194539,6,0,B|272:48,2,70
72,192,195572,5,0,0:0:0
120,192,195701,1,0,0:0:0
168,192,195831,1,0,0:0:0
216,192,195960,1,0,0:0:0
264,192,196089,1,0,0:0:0
312,192,196218,2,0,B|448:192,1,105
