osu file format v12

[General]
AudioFilename: Sum 41 - In Too Deep.mp3
AudioLeadIn: 0
PreviewTime: 32260
Countdown: 1
SampleSet: Soft
StackLeniency: 0.3
Mode: 0
LetterboxInBreaks: 1

[Editor]
Bookmarks: 4870,60167,108229,119598,143888,175929
DistanceSpacing: 1
BeatDivisor: 4
GridSize: 4

[Metadata]
Title:In Too Deep
TitleUnicode:In Too Deep
Artist:Sum 41
ArtistUnicode:Sum 41
Creator:Mik-ey
Version:Too Collab!
Source:
Tags:Mitiai -Shieky- ShadowLord Shadow Lego Rock Band All Killer No Filler
BeatmapID:118041
BeatmapSetID:36539

[Difficulty]
HPDrainRate:8
CircleSize:4
OverallDifficulty:7
ApproachRate:8
SliderMultiplier:1.8
SliderTickRate:2

[Events]
//Background and Video events
0,0,"bluebg.jpg",0,0
//Break Periods
2,122387,128156
//Storyboard Layer 0 (Background)
Sprite,Background,Centre,"bgorange.jpg",320,240 S,0,60167,,0.6240001 F,0,60167,60425,0,1 F,0,60425,108229,1 F,0,108229,119598,1,0 F,0,119598,119857,0,1 F,0,119857,143888,1 F,0,143888,144146,1,0 F,0,144146,175929,0 F,0,175929,176187,0,1 F,0,176187,204870,1 F,0,204870,205128,1,0
Sprite,Background,Centre,"bluebg.jpg",320,240 S,0,218,,0.6240001 F,0,218,223,0.996,0 F,0,223,482,0,1 F,0,482,60167,1,0.996 F,0,60167,60425,0.996,0 F,0,60425,108229,0 F,0,108229,108487,0,1 F,0,108487,119598,1 F,0,119598,119857,1,0 F,0,119857,143888,0 F,0,143888,144146,0,1 F,0,144146,175929,1 F,0,175929,176187,1,0 F,0,176187,204870,0 F,0,204870,205128,0,1 F,0,205128,206420,1,0
//Storyboard Layer 1 (Fail)
//Storyboard Layer 2 (Pass)
//Storyboard Layer 3 (Foreground)
Sprite,Foreground,Centre,"MITIAI.png",320,240 S,0,4870,,1.264 F,0,4870,5386,0,1 M,0,4870,204740,136,374 F,0,5386,60167,1 F,0,60167,60425,1,0 F,0,60425,108229,0 F,0,108229,108487,0,1 F,0,108487,119598,1 F,0,119598,119857,1,0 F,0,119857,143888,0 F,0,143888,144146,0,1 F,0,144146,175929,1 F,0,175929,176187,1,0 F,0,176187,204870,0 M,0,204740,204870,136,374,137,322 M,0,204870,,137,322 M,0,204870,204999,137,322,137,326 F,0,204870,204999,0,1 M,0,204999,206420,137,326,373,321 F,0,204999,206420,1,0
Sprite,Foreground,Centre,"bluebg.jpg",320,240 F,0,60037,60296,0,0.4879999 S,0,60167,60425,0.624,1.168 F,0,60296,60425,0.4879999,0
Sprite,Foreground,Centre,"MIKEY.png",320,240 S,0,60167,,1.072 F,0,60167,60425,0.1760001,1 M,0,60167,204870,136,375 F,0,60425,108229,1 F,0,108229,108487,1,0 F,0,108487,119598,0 F,0,119598,119857,0,1 F,0,119857,143888,1 F,0,143888,144146,1,0 F,0,144146,175929,0 F,0,175929,176187,0,1 F,0,176187,204870,1 M,0,204870,204999,136,375 F,0,204870,206420,1,0 M,0,204999,206420,136,375,380,379
Sprite,Foreground,Centre,"bgorange.jpg",320,240 F,0,108099,108358,0,0.4879999 S,0,108229,108487,0.624,1.168 F,0,108358,108487,0.4879999,0
Sprite,Foreground,Centre,"bluebg.jpg",320,240 F,0,119469,119727,0,0.4879999 S,0,119598,119857,0.624,1.168 F,0,119727,119857,0.4879999,0
Sprite,Foreground,Centre,"bgorange.jpg",320,240 F,0,143758,144017,0,0.4879999 S,0,143888,144146,0.624,1.168 F,0,144017,144146,0.4879999,0
Sprite,Foreground,Centre,"bluebg.jpg",320,240 F,0,175800,176058,0,0.4879999 S,0,175929,176187,0.624,1.168 F,0,176058,176187,0.4879999,0
//Storyboard Sound Samples
//Background Colour Transformations
3,100,163,162,255

[TimingPoints]
4358,516.795865633075,4,2,0,60,1,0
32523,-100,4,1,0,65,0,0
33298,-66.6666666666667,4,1,0,65,0,1
60171,-100,4,2,0,65,0,0
84461,-100,4,1,0,80,0,0
84978,-66.6666666666667,4,1,0,80,0,1
108233,-100,4,2,0,80,0,0
111851,-66.6666666666667,4,1,0,80,0,1
112109,-66.6666666666667,4,2,0,80,0,1
119603,-100,4,2,0,65,0,0
143888,-50,4,1,0,80,0,1
196606,-100,4,2,0,60,0,0

[Colours]
Combo1 : 255,128,64
Combo2 : 0,255,0
Combo3 : 255,0,0
Combo4 : 255,255,0
Combo5 : 0,0,255

[HitObjects]
256,192,4875,1,0,0:0:0:0:
480,192,5391,1,0,0:0:0:0:
432,112,5650,1,0,0:0:0:0:
352,64,5908,2,0,B|256:64,1,90
272,320,6425,5,0,0:0:0:0:
336,256,6683,1,0,0:0:0:0:
368,224,6812,1,0,0:0:0:0:
400,192,6942,1,0,0:0:0:0:
336,144,7200,1,0,0:0:0:0:
464,240,7458,1,0,0:0:0:0:
448,128,7717,1,0,0:0:0:0:
448,128,7975,2,0,B|448:64|368:64,1,90
304,64,8492,5,0,0:0:0:0:
208,64,8750,2,0,B|208:176,1,90,0|8,0:0|0:0,0:0:0:0:
304,160,9267,2,0,B|304:256|256:288|272:352,1,180
352,336,10042,1,8,0:0:0:0:
269,335,10301,6,0,B|173:335,1,90,0|0,0:0|0:0,0:0:0:0:
176,240,10818,2,0,B|176:144,1,90,0|8,0:0|0:0,0:0:0:0:
256,192,11334,2,0,B|352:192|400:144|448:160,1,180
432,240,12110,1,8,0:0:0:0:
432,336,12368,6,0,B|368:352|336:336,1,90
336,256,12885,1,0,0:0:0:0:
247,253,13143,2,0,B|288:240|336:256,1,90,8|0,0:0|0:0,0:0:0:0:
432,256,13660,1,0,0:0:0:0:
438,170,13918,1,0,0:0:0:0:
384,96,14177,1,8,0:0:0:0:
304,64,14435,1,0,0:0:0:0:
212,64,14694,1,0,0:0:0:0:
212,64,14952,5,0,0:0:0:0:
212,64,15081,1,0,0:0:0:0:
212,64,15210,1,8,0:0:0:0:
256,144,15469,1,0,0:0:0:0:
208,224,15727,1,0,0:0:0:0:
256,304,15986,1,0,0:0:0:0:
304,224,16244,1,8,0:0:0:0:
256,144,16502,6,0,B|256:48,1,90
256,144,17019,2,0,B|256:256,1,90,0|8,0:0|0:0,0:0:0:0:
352,240,17536,1,0,0:0:0:0:
432,192,17794,1,0,0:0:0:0:
352,160,18053,1,0,0:0:0:0:
272,192,18311,1,8,0:0:0:0:
224,192,18440,1,0,0:0:0:0:
176,192,18570,2,0,B|80:192,1,90
80,288,19086,6,0,B|176:288,1,90,0|8,0:0|0:0,0:0:0:0:
256,288,19603,2,0,B|352:288,2,90
256,288,20378,1,8,0:0:0:0:
256,192,20637,1,0,0:0:0:0:
256,96,20895,1,0,0:0:0:0:
256,96,21024,1,0,0:0:0:0:
256,96,21154,2,0,B|352:96,1,90,0|8,0:0|0:0,0:0:0:0:
346,96,21670,1,0,0:0:0:0:
256,288,21929,6,0,B|144:288,1,90
166,288,22316,1,0,0:0:0:0:
166,288,22446,2,0,B|112:288|96:224,1,90,8|0,0:0|0:0,0:0:0:0:
192,208,22962,2,0,B|256:144,1,90
287,112,23350,1,0,0:0:0:0:
318,80,23479,1,8,0:0:0:0:
364,157,23738,1,0,0:0:0:0:
342,244,23996,1,0,0:0:0:0:
259,279,24254,1,0,0:0:0:0:
178,238,24513,1,8,0:0:0:0:
178,238,24642,1,0,0:0:0:0:
178,238,24771,1,0,0:0:0:0:
160,144,25030,5,4,0:0:0:0:
240,96,25288,1,2,0:0:0:0:
304,32,25546,1,0,0:0:0:0:
368,96,25805,1,2,0:0:0:0:
448,144,26063,2,2,B|448:240,1,90
352,240,26580,1,0,0:0:0:0:
256,240,26838,2,0,B|256:368,2,90
256,144,27614,1,2,0:0:0:0:
256,48,27872,6,0,B|160:48,1,90,0|2,0:0|0:0,0:0:0:0:
160,144,28389,1,2,0:0:0:0:
160,144,28518,1,0,0:0:0:0:
160,144,28647,1,0,0:0:0:0:
160,234,28906,2,2,B|161:291|215:312,1,90
243,226,29422,2,0,B|284:192|339:226,2,90
291,301,30197,1,0,0:0:0:0:
381,301,30456,1,0,0:0:0:0:
444,237,30714,1,2,0:0:0:0:
444,146,30973,1,0,0:0:0:0:
352,144,31231,5,2,0:0:0:0:
240,48,31489,1,0,0:0:0:0:
128,144,31748,1,2,0:0:0:0:
240,240,32006,1,2,0:0:0:0:
240,240,32265,1,2,0:0:0:0:
240,240,32523,5,0,0:0:0:0:
280,260,32652,1,0,0:0:0:0:
324,276,32781,1,0,0:0:0:0:
368,264,32911,1,0,0:0:0:0:
408,240,33040,1,0,0:0:0:0:
432,204,33169,1,0,0:0:0:0:
452,168,33298,1,4,0:0:0:0:
332,108,33557,5,0,0:0:0:0:
208,56,33815,1,8,0:0:0:0:
136,168,34073,1,0,0:0:0:0:
60,280,34332,1,0,0:0:0:0:
60,280,34590,2,0,B|104:324|184:340,1,134.999995976687,0|8,0:0|0:0,0:0:0:0:
316,340,35107,2,0,B|384:328|440:276,1,134.999995976687
312,224,35624,2,0,B|208:120,1,134.999995976687,0|8,0:0|0:0,0:0:0:0:
312,224,36141,1,0,0:0:0:0:
340,252,36270,1,0,0:0:0:0:
376,268,36399,1,0,0:0:0:0:
488,192,36657,5,0,0:0:0:0:
380,112,36916,1,8,0:0:0:0:
312,224,37174,2,0,B|232:200|208:132,1,134.999995976687
84,192,37691,1,0,0:0:0:0:
80,328,37949,1,8,0:0:0:0:
200,264,38208,2,0,B|304:164,1,134.999995976687
297,170,38595,1,0,0:0:0:0:
297,170,38725,1,0,0:0:0:0:
84,192,38983,5,8,0:0:0:0:
100,156,39112,1,0,0:0:0:0:
116,120,39241,2,0,B|152:48|248:72,2,134.999995976687
229,69,40017,1,8,0:0:0:0:
304,328,40275,5,0,0:0:0:0:
264,340,40404,1,0,0:0:0:0:
224,344,40533,1,0,0:0:0:0:
184,336,40663,1,0,0:0:0:0:
148,320,40792,2,0,B|88:280|116:192,1,134.999995976687
128,160,41179,1,0,0:0:0:0:
152,128,41309,1,0,0:0:0:0:
180,96,41438,1,0,0:0:0:0:
208,68,41567,6,0,B|356:68,1,134.999995976687,4|0,0:0|0:0,0:0:0:0:
400,128,42084,2,0,B|448:192|404:264,1,134.999995976687,8|0,0:0|0:0,0:0:0:0:
356,196,42601,2,0,B|212:196,1,134.999995976687
140,192,43117,5,8,0:0:0:0:
140,192,43247,1,0,0:0:0:0:
140,192,43376,2,0,B|140:124|216:68,1,134.999995976687
252,144,43893,2,0,B|328:160|392:144,1,134.999995976687,0|8,0:0|0:0,0:0:0:0:
392,228,44409,2,0,B|320:264|252:260,1,134.999995976687
262,260,44926,5,0,0:0:0:0:
262,260,45055,1,0,0:0:0:0:
262,260,45185,1,8,0:0:0:0:
180,268,45443,2,0,B|180:112,2,134.999995976687
100,272,46218,1,8,0:0:0:0:
68,196,46477,1,0,0:0:0:0:
64,156,46606,1,0,0:0:0:0:
72,116,46735,2,0,B|92:48|184:32,1,134.999995976687
184,116,47252,1,8,0:0:0:0:
188,196,47510,6,0,B|256:232|336:192,1,134.999995976687
348,276,48027,2,0,B|424:224|372:148,1,134.999995976687,0|8,0:0|0:0,0:0:0:0:
295,116,48544,1,0,0:0:0:0:
255,90,48673,1,0,0:0:0:0:
215,115,48802,1,0,0:0:0:0:
132,161,49061,2,0,B|87:224|163:276,1,134.999995976687,0|8,0:0|0:0,0:0:0:0:
92,336,49577,2,0,B|180:368|232:332,1,134.999995976687
252,247,50094,2,0,B|256:175|320:123,1,134.999995976687,0|8,0:0|0:0,0:0:0:0:
408,132,50611,5,0,0:0:0:0:
416,172,50740,1,0,0:0:0:0:
416,212,50869,1,0,0:0:0:0:
404,252,50999,2,0,B|352:304,1,67.4999979883433
308,268,51257,2,0,B|236:256,1,67.4999979883433
204,300,51515,2,0,B|136:324,1,67.4999979883433
112,272,51774,2,0,B|48:244,1,67.4999979883433,0|4,0:0|0:0,0:0:0:0:
112,88,52420,6,0,B|180:64|248:92,1,134.999995976687,8|0,0:0|0:0,0:0:0:0:
248,172,52937,1,0,0:0:0:0:
288,180,53066,1,0,0:0:0:0:
328,172,53195,2,0,B|408:136|416:72,2,134.999995976687,0|8|0,0:0|0:0|0:0,0:0:0:0:
348,252,53970,2,0,B|296:304|224:296,1,134.999995976687
144,296,54487,6,0,B|100:236|112:168,1,134.999995976687,8|0,0:0|0:0,0:0:0:0:
192,168,55004,1,0,0:0:0:0:
208,204,55133,1,0,0:0:0:0:
240,228,55262,2,0,B|312:216|360:164,2,134.999995976687,0|8|0,0:0|0:0|0:0,0:0:0:0:
192,168,56037,2,0,B|192:88|244:32,1,134.999995976687
316,40,56554,6,0,B|348:108|344:176,1,134.999995976687,8|0,0:0|0:0,0:0:0:0:
292,232,57071,1,0,0:0:0:0:
260,260,57200,1,0,0:0:0:0:
224,276,57329,1,0,0:0:0:0:
184,288,57458,1,0,0:0:0:0:
144,292,57588,2,0,B|68:288|64:200,2,134.999995976687,8|0|0,0:0|0:0|0:0,0:0:0:0:
224,276,58363,6,0,B|224:136,1,134.999995976687,0|8,0:0|0:0,0:0:0:0:
288,92,58880,1,0,0:0:0:0:
288,92,59009,1,0,0:0:0:0:
288,92,59138,1,0,0:0:0:0:
375,194,59396,1,8,0:0:0:0:
288,297,59655,1,8,0:0:0:0:
257,323,59784,1,0,0:0:0:0:
217,331,59913,1,0,0:0:0:0:
256,192,60172,5,4,0:0:0:0:
256,192,60430,1,4,0:0:0:0:
256,192,61722,5,4,0:0:0:0:
128,64,62239,1,4,0:0:0:0:
64,127,62497,1,4,0:0:0:0:
256,192,63789,5,4,0:0:0:0:
383,319,64306,1,4,0:0:0:0:
446,255,64564,1,4,0:0:0:0:
123,323,65856,6,4,B|192:256,1,90
123,196,66373,2,4,B|205:124,1,90
359,199,67148,2,4,B|291:131,2,90
88,199,68440,5,4,0:0:0:0:
172,231,68699,1,4,0:0:0:0:
256,200,68957,1,8,0:0:0:0:
301,121,69216,1,0,0:0:0:0:
211,121,69474,1,0,0:0:0:0:
256,200,69732,1,0,0:0:0:0:
341,230,69991,1,4,0:0:0:0:
425,199,70249,1,4,0:0:0:0:
376,122,70508,2,4,B|300:72|172:108,1,180,4|8,0:0|0:0,0:0:0:0:
202,100,71283,1,0,0:0:0:0:
202,100,71541,1,0,0:0:0:0:
202,100,71800,1,0,0:0:0:0:
202,101,72058,5,4,0:0:0:0:
291,101,72316,1,4,0:0:0:0:
248,180,72575,1,4,0:0:0:0:
158,180,72833,1,4,0:0:0:0:
116,99,73092,1,8,0:0:0:0:
428,310,74125,6,0,B|343:263,1,90,4|4,0:0|0:0,0:0:0:0:
327,160,74642,1,4,0:0:0:0:
263,223,74900,1,4,0:0:0:0:
263,313,75159,1,8,0:0:0:0:
263,223,75417,2,4,B|360:272,2,90
44,64,76709,6,0,B|227:64,1,180,0|8,0:0|0:0,0:0:0:0:
305,102,77484,1,0,0:0:0:0:
305,192,77743,1,0,0:0:0:0:
215,192,78001,1,0,0:0:0:0:
215,282,78260,1,8,0:0:0:0:
276,347,78518,2,0,B|442:310|442:130,1,270,0|8,0:0|0:0,0:0:0:0:
425,69,79552,5,0,0:0:0:0:
345,28,79810,1,0,0:0:0:0:
264,67,80068,1,0,0:0:0:0:
173,67,80327,1,8,0:0:0:0:
123,142,80585,6,2,B|12:142|12:266,1,180
76,318,81360,1,8,0:0:0:0:
166,318,81619,1,0,0:0:0:0:
246,358,81877,1,0,0:0:0:0:
326,318,82135,1,0,0:0:0:0:
416,318,82394,1,8,0:0:0:0:
479,254,82652,2,0,B|478:143,1,90,0|4,0:0|0:0,0:0:0:0:
478,164,83169,5,4,0:0:0:0:
478,164,83427,1,4,0:0:0:0:
478,164,83686,1,4,0:0:0:0:
478,164,83944,1,4,0:0:0:0:
478,164,84203,1,4,0:0:0:0:
372,85,84461,1,0,0:0:0:0:
352,85,84590,1,0,0:0:0:0:
328,85,84719,1,0,0:0:0:0:
308,85,84849,1,0,0:0:0:0:
288,85,84978,6,0,B|288:248|464:264,1,269.999991953373,0|8,0:0|0:0,0:0:0:0:
498,135,85753,2,0,B|328:107|306:279,1,269.999991953373,0|0,0:0|0:0,0:0:0:0:
439,240,86528,1,8,0:0:0:0:
343,335,86787,2,0,B|172:380|128:188,1,269.999991953373
136,82,87562,1,8,0:0:0:0:
256,20,87820,2,0,B|256:293,1,269.999991953373
370,217,88595,1,8,0:0:0:0:
370,81,88854,2,0,B|136:282,1,269.999991953373
69,161,89629,1,8,0:0:0:0:
203,161,89887,2,0,B|472:302,1,269.999991953373
511,169,90663,5,8,0:0:0:0:
415,73,90921,2,0,B|291:-8|155:76,1,269.999991953373
95,192,91696,1,8,0:0:0:0:
190,287,91955,1,0,0:0:0:0:
324,287,92213,1,0,0:0:0:0:
419,191,92471,1,0,0:0:0:0:
283,191,92730,6,0,B|193:215|138:123|201:30|289:66,1,269.999991953373,0|4,0:0|0:0,0:0:0:0:
416,63,93505,1,0,0:0:0:0:
416,197,93763,1,8,0:0:0:0:
320,292,94022,2,0,B|102:111,1,269.999991953373
207,23,94797,1,8,0:0:0:0:
302,118,95055,2,0,B|109:328,1,269.999991953373
56,196,95831,1,8,0:0:0:0:
151,100,96089,2,0,B|434:100,1,269.999991953373
325,195,96864,5,8,0:0:0:0:
420,290,97123,2,0,B|506:150|394:10,1,269.999991953373
278,36,97898,1,8,0:0:0:0:
143,36,98156,2,0,B|38:154|126:289,1,269.999991953373
257,283,98931,5,8,0:0:0:0:
352,187,99190,1,0,0:0:0:0:
352,52,99448,1,0,0:0:0:0:
216,52,99707,1,0,0:0:0:0:
120,147,99965,1,8,0:0:0:0:
120,281,100223,1,0,0:0:0:0:
215,185,100482,1,0,0:0:0:0:
310,89,100740,1,8,0:0:0:0:
466,310,101257,6,2,B|255:277|356:68|207:29,1,404.99998793006,2|8,0:0|0:0,0:0:0:0:
114,125,102291,1,0,0:0:0:0:
209,220,102549,1,0,0:0:0:0:
343,220,102807,1,0,0:0:0:0:
343,84,103066,2,2,B|412:48|515:63|555:159|543:275|423:331|300:300|299:159,1,539.999983906746,2|8,0:0|0:0,0:0:0:0:
435,169,104358,1,0,0:0:0:0:
339,264,104616,1,0,0:0:0:0:
308,132,104875,1,0,0:0:0:0:
256,192,105133,12,0,107717,0:0:0:0:
256,192,108234,6,0,B|260:256|320:260,1,90,4|0,0:0|0:0,0:0:0:0:
360,260,108750,1,0,0:0:0:0:
384,244,108880,1,0,0:0:0:0:
400,224,109009,1,0,0:0:0:0:
408,200,109138,1,0,0:0:0:0:
408,164,109267,2,0,B|408:104|348:92,1,90,4|0,0:0|0:0,0:0:0:0:
288,95,109784,5,0,0:0:0:0:
260,99,109913,1,0,0:0:0:0:
236,107,110042,1,0,0:0:0:0:
216,123,110172,1,0,0:0:0:0:
192,148,110301,2,0,B|156:184|164:244,1,90,4|0,0:0|0:0,0:0:0:0:
211,281,110818,5,4,0:0:0:0:
211,281,110947,1,0,0:0:0:0:
211,281,111076,1,4,0:0:0:0:
235,293,111205,1,0,0:0:0:0:
259,301,111334,1,4,0:0:0:0:
287,301,111464,1,0,0:0:0:0:
316,300,111593,1,4,0:0:0:0:
339,289,111722,1,0,0:0:0:0:
363,281,111851,1,4,0:0:0:0:
379,201,112110,6,2,B|307:197,1,67.4999979883433
267,145,112368,2,0,B|195:137,1,67.4999979883433
175,201,112626,2,2,B|95:189,1,67.4999979883433
103,149,112885,1,0,0:0:0:0:
119,113,113014,1,0,0:0:0:0:
151,89,113143,1,2,0:0:0:0:
187,69,113272,1,0,0:0:0:0:
227,57,113402,2,0,B|299:57|367:105,2,134.999995976687,2|0|0,0:0|0:0|0:0,0:0:0:0:
227,97,114048,5,0,0:0:0:0:
247,133,114177,1,2,0:0:0:0:
255,173,114306,1,0,0:0:0:0:
243,213,114435,1,2,0:0:0:0:
243,253,114564,1,0,0:0:0:0:
263,289,114694,1,2,0:0:0:0:
247,325,114823,1,0,0:0:0:0:
267,361,114952,1,2,0:0:0:0:
307,361,115081,1,0,0:0:0:0:
347,357,115210,2,2,B|407:301|347:229,1,134.999995976687
435,229,115727,2,0,B|435:141|343:117,1,134.999995976687,2|4,0:0|0:0,0:0:0:0:
327,117,116115,5,2,0:0:0:0:
279,61,116244,2,2,B|199:49,1,67.4999979883433
183,117,116502,2,0,B|107:97,1,67.4999979883433
83,165,116761,2,2,B|163:189,1,67.4999979883433
223,177,117019,2,0,B|299:209,1,67.4999979883433
315,233,117278,1,2,0:0:0:0:
319,273,117407,1,0,0:0:0:0:
295,305,117536,2,2,B|211:309|179:237,2,134.999995976687
331,321,118182,5,0,0:0:0:0:
371,313,118311,1,2,0:0:0:0:
399,285,118440,1,0,0:0:0:0:
391,245,118570,1,2,0:0:0:0:
407,209,118699,1,0,0:0:0:0:
375,181,118828,1,2,0:0:0:0:
379,141,118957,1,0,0:0:0:0:
351,113,119086,2,2,B|198:113,1,134.999995976687
256,192,119603,12,4,122187,0:0:0:0:
257,320,128906,5,4,0:0:0:0:
129,192,129422,1,4,0:0:0:0:
192,128,129681,1,4,0:0:0:0:
255,64,129939,1,8,0:0:0:0:
382,191,130456,6,0,B|247:55,1,180,0|8,0:0|0:0,0:0:0:0:
382,190,131489,1,4,0:0:0:0:
318,253,131748,1,4,0:0:0:0:
254,316,132006,1,8,0:0:0:0:
126,188,132523,6,0,B|258:319,1,180,0|8,0:0|0:0,0:0:0:0:
381,187,133557,1,4,0:0:0:0:
381,276,133815,1,4,0:0:0:0:
317,339,134073,1,8,0:0:0:0:
253,275,134332,1,0,0:0:0:0:
189,338,134590,1,4,0:0:0:0:
125,274,134849,1,4,0:0:0:0:
125,184,135107,1,8,0:0:0:0:
188,120,135365,1,0,0:0:0:0:
324,120,135624,2,0,B|388:184|388:184|388:280,1,180,4|8,0:0|0:0,0:0:0:0:
255,165,136657,5,4,0:0:0:0:
255,255,136916,1,4,0:0:0:0:
191,318,137174,2,0,B|83:318|83:198,1,180,0|4,0:0|0:0,0:0:0:0:
210,75,138208,1,8,0:0:0:0:
400,265,138983,1,4,0:0:0:0:
400,175,139241,1,8,0:0:0:0:
272,302,139758,1,4,0:0:0:0:
272,121,140275,1,8,0:0:0:0:
399,248,140792,5,4,0:0:0:0:
462,184,141050,1,4,0:0:0:0:
375,159,141309,1,8,0:0:0:0:
226,57,141825,2,0,B|130:81|114:213,1,180,0|8,0:0|0:0,0:0:0:0:
239,312,142859,2,0,B|206:203|80:177,1,180,0|4,0:0|0:0,0:0:0:0:
388,192,143893,6,0,B|288:220,1,90,0|0,0:0|0:0,0:0:0:0:
244,164,144151,2,0,B|156:200,1,90
192,268,144409,2,0,B|108:300,1,90
60,244,144668,1,0,0:0:0:0:
80,192,144797,1,0,0:0:0:0:
128,172,144926,1,0,0:0:0:0:
308,88,145185,6,0,B|380:160|312:272,1,180,0|8,0:0|0:0,0:0:0:0:
156,188,145701,1,0,0:0:0:0:
176,348,145960,2,0,B|276:360|360:320,1,180
448,192,146477,1,8,0:0:0:0:
424,144,146606,1,0,0:0:0:0:
380,112,146735,2,0,B|284:112|228:200,2,180
452,276,147510,1,8,0:0:0:0:
380,112,147769,1,0,0:0:0:0:
356,292,148027,2,0,B|264:324|176:248,1,180
260,92,148544,1,8,0:0:0:0:
408,192,148802,6,0,B|368:276|256:296,1,180
88,292,149319,1,0,0:0:0:0:
84,242,149448,1,0,0:0:0:0:
92,196,149577,2,0,B|104:96|192:56,1,180,8|0,0:0|0:0,0:0:0:0:
168,236,150094,2,0,B|312:352,1,180
404,196,150611,5,8,0:0:0:0:
332,276,150869,2,0,B|256:320|148:308,2,180
404,196,151645,2,0,B|348:120|256:96,1,180,8|0,0:0|0:0,0:0:0:0:
256,200,152161,2,0,B|240:304|136:332,1,180
84,160,152678,1,0,0:0:0:0:
116,116,152807,1,0,0:0:0:0:
160,84,152937,1,0,0:0:0:0:
164,136,153066,1,0,0:0:0:0:
168,188,153195,1,4,0:0:0:0:
80,268,153453,6,0,B|168:308|256:256,1,180,0|8,0:0|0:0,0:0:0:0:
432,256,153970,1,0,0:0:0:0:
412,208,154099,1,0,0:0:0:0:
376,168,154229,2,0,B|376:132|376:132|328:95|276:132|276:132|276:180,1,180
268,348,154745,2,0,B|176:364|84:356,1,180,8|0,0:0|0:0,0:0:0:0:
84,172,155262,2,0,B|132:88|228:64,1,180
268,240,155779,1,8,0:0:0:0:
296,196,155908,1,0,0:0:0:0:
336,160,156037,2,0,B|432:200|412:320,2,180
268,240,156812,5,8,0:0:0:0:
184,80,157071,1,0,0:0:0:0:
60,208,157329,2,8,B|64:304|148:372,1,180,0|0,0:0|0:0,0:0:0:0:
312,316,157846,1,8,0:0:0:0:
440,192,158104,1,0,0:0:0:0:
440,192,158234,1,0,0:0:0:0:
440,192,158363,2,0,B|496:116|460:20,1,180
308,116,158880,1,8,0:0:0:0:
132,76,159138,5,8,0:0:0:0:
124,100,159267,1,0,0:0:0:0:
116,124,159396,1,8,0:0:0:0:
72,152,159655,2,0,B|72:248|172:316,1,180,0|8,0:0|0:0,0:0:0:0:
376,296,160172,1,0,0:0:0:0:
256,160,160430,1,0,0:0:0:0:
256,160,160559,1,0,0:0:0:0:
256,160,160688,2,0,B|352:160|428:88,1,180,0|8,0:0|0:0,0:0:0:0:
244,60,161205,5,0,0:0:0:0:
192,52,161334,1,0,0:0:0:0:
140,64,161464,1,0,0:0:0:0:
140,244,161722,2,0,B|228:280|316:240,2,180,0|8|0,0:0|0:0|0:0,0:0:0:0:
314,240,162497,1,0,0:0:0:0:
256,192,162756,12,0,165081,0:0:0:0:
256,192,165340,5,0,0:0:0:0:
256,192,165469,1,0,0:0:0:0:
256,192,165598,1,0,0:0:0:0:
436,188,165856,2,0,B|376:108|280:92,1,180,0|8,0:0|0:0,0:0:0:0:
140,192,166373,5,0,0:0:0:0:
164,240,166502,1,0,0:0:0:0:
200,280,166632,1,0,0:0:0:0:
308,280,166890,1,0,0:0:0:0:
344,240,167019,1,0,0:0:0:0:
364,188,167148,1,8,0:0:0:0:
256,44,167407,1,8,0:0:0:0:
256,224,167665,1,0,0:0:0:0:
256,192,167924,12,0,169216,0:0:0:0:
256,192,169474,5,0,0:0:0:0:
256,192,169603,1,0,0:0:0:0:
256,192,169732,2,0,B|256:288|360:348,1,180
472,204,170249,1,8,0:0:0:0:
420,212,170378,1,0,0:0:0:0:
404,160,170508,1,0,0:0:0:0:
256,28,170766,2,0,B|188:84|168:193,1,180
170,183,171283,5,8,0:0:0:0:
189,234,171412,1,0,0:0:0:0:
225,274,171541,2,0,B|301:330|425:282,1,180,0|4,0:0|0:0,0:0:0:0:
397,110,172058,1,0,0:0:0:0:
357,146,172187,1,0,0:0:0:0:
305,138,172316,1,8,0:0:0:0:
237,54,172575,1,0,0:0:0:0:
285,82,172704,1,0,0:0:0:0:
305,138,172833,2,8,B|345:226|321:330,1,180
168,240,173350,1,0,0:0:0:0:
256,192,173608,12,0,174384,0:0:0:0:
416,196,174900,6,0,B|392:148|336:160,1,90
328,84,175159,2,0,B|277:65|244:112,1,90
172,96,175417,2,0,B|138:138|173:183,1,90
132,244,175676,1,0,0:0:0:0:
180,268,175805,1,0,0:0:0:0:
232,252,175934,1,4,0:0:0:0:
400,192,176192,6,0,B|347:312|231:354|97:301,1,360
24,136,176968,1,0,0:0:0:0:
176,40,177226,1,0,0:0:0:0:
224,212,177484,2,0,B|216:112|273:23|425:3|553:71|572:304|416:396|268:316,2,720,0|4|4,0:0|0:0|0:0,0:0:0:0:
256,192,179810,12,0,181619,0:0:0:0:
88,240,182135,5,0,0:0:0:0:
252,314,182394,1,8,0:0:0:0:
379,186,182652,1,0,0:0:0:0:
280,36,182911,1,8,0:0:0:0:
104,76,183169,1,0,0:0:0:0:
104,255,183427,1,8,0:0:0:0:
256,159,183686,2,0,B|414:43,1,180,0|8,0:0|0:0,0:0:0:0:
445,227,184203,5,0,0:0:0:0:
293,323,184461,1,8,0:0:0:0:
165,195,184719,1,0,0:0:0:0:
267,46,184978,1,8,0:0:0:0:
440,96,185236,1,0,0:0:0:0:
308,220,185495,1,8,0:0:0:0:
356,46,185753,1,0,0:0:0:0:
421,213,186011,1,8,0:0:0:0:
271,112,186270,1,0,0:0:0:0:
91,112,186528,1,8,0:0:0:0:
173,272,186787,2,0,B|352:272,1,180,0|8,0:0|0:0,0:0:0:0:
353,92,187303,2,0,B|154:92,3,180,0|8|0|8,0:0|0:0|0:0|0:0,0:0:0:0:
45,219,188337,6,0,B|177:87,1,180,0|8,0:0|0:0,0:0:0:0:
300,219,188854,2,0,B|152:71,1,180,0|8,0:0|0:0,0:0:0:0:
172,272,189371,2,0,B|172:72,1,180,0|8,0:0|0:0,0:0:0:0:
351,92,189887,2,0,B|163:92,1,180,0|8,0:0|0:0,0:0:0:0:
351,92,190404,6,0,B|351:289,1,180,0|8,0:0|0:0,0:0:0:0:
170,272,190921,2,0,B|360:272,1,180,0|8,0:0|0:0,0:0:0:0:
222,144,191438,2,0,B|357:279,1,180,0|8,0:0|0:0,0:0:0:0:
476,143,191955,2,0,B|341:280,1,180,0|8,0:0|0:0,0:0:0:0:
169,271,192471,5,0,0:0:0:0:
41,143,192730,1,8,0:0:0:0:
169,271,192988,1,0,0:0:0:0:
169,90,193247,1,8,0:0:0:0:
169,271,193505,1,0,0:0:0:0:
296,143,193763,1,8,0:0:0:0:
169,271,194022,1,0,0:0:0:0:
348,271,194280,5,8,0:0:0:0:
167,271,194539,1,0,0:0:0:0:
348,271,194797,1,8,0:0:0:0:
220,143,195055,1,0,0:0:0:0:
348,271,195314,1,8,0:0:0:0:
348,91,195572,1,0,0:0:0:0:
348,271,195831,1,8,0:0:0:0:
475,143,196089,1,0,0:0:0:0:
348,271,196347,1,8,0:0:0:0:
348,271,196606,1,0,0:0:0:0:
348,90,197123,5,4,0:0:0:0:
258,90,197381,1,0,0:0:0:0:
194,153,197639,1,0,0:0:0:0:
257,216,197898,1,0,0:0:0:0:
193,279,198156,1,4,0:0:0:0:
256,342,198415,1,0,0:0:0:0:
319,278,198673,6,0,B|255:210,1,90
347,212,199190,2,0,B|279:135,1,90,4|0,0:0|0:0,0:0:0:0:
377,144,199707,2,0,B|311:71,3,90,0|0|4|0,0:0|0:0|0:0|0:0,0:0:0:0:
226,77,200740,1,0,0:0:0:0:
135,77,200999,1,0,0:0:0:0:
71,140,201257,1,4,0:0:0:0:
71,229,201515,1,0,0:0:0:0:
134,292,201774,6,0,B|246:292,1,90
224,201,202291,2,0,B|346:201,1,90,4|0,0:0|0:0,0:0:0:0:
314,111,202807,2,0,B|435:111,1,90
403,200,203324,1,4,0:0:0:0:
339,263,203583,1,0,0:0:0:0:
249,263,203841,1,0,0:0:0:0:
185,199,204099,1,0,0:0:0:0:
185,108,204358,1,4,0:0:0:0:
274,108,204616,2,0,B|274:207,1,90,0|4,0:0|0:0,0:0:0:0:
