osu file format v10

[General]
AudioFilename: Twist of Love.mp3
AudioLeadIn: 1700
PreviewTime: 50918
Countdown: 0
SampleSet: Normal
StackLeniency: 0.4
Mode: 0
LetterboxInBreaks: 1

[Editor]
Bookmarks: 366,12282,27178,39094,51011,62928,74844,86761,98677,113573,125490,137406,149323,161239,170177,176135
DistanceSpacing: 1
BeatDivisor: 4
GridSize: 4

[Metadata]
Title:Twist of Love
TitleUnicode:
Artist:Sul Woondo
ArtistUnicode:
Creator:ykcarrot
Version:Insane
Source:
Tags:trot ppongjjak Seol Undo Reisen Udongein -Kirito -Neipezi
BeatmapID:171622
BeatmapSetID:56819

[Difficulty]
HPDrainRate:6
CircleSize:4
OverallDifficulty:8
ApproachRate:8
SliderMultiplier:2
SliderTickRate:1

[Events]
//Background and Video events
0,0,"twist.jpg"
//Break Periods
2,86961,96438
//Storyboard Layer 0 (Background)
//Storyboard Layer 1 (Fail)
//Storyboard Layer 2 (Pass)
//Storyboard Layer 3 (Foreground)
//Storyboard Sound Samples
//Background Colour Transformations
3,100,255,128,0

[TimingPoints]
366,372.393247269116,4,1,0,40,1,0
6324,-100,4,1,0,32,0,0
7813,-100,4,1,0,34,0,0
9303,-100,4,1,0,36,0,0
10793,-100,4,1,0,38,0,0
11723,-100,4,1,0,40,0,0
21220,-100,4,1,0,33,0,0
21406,-100,4,1,0,34,0,0
21592,-100,4,1,0,35,0,0
21778,-100,4,1,0,36,0,0
21964,-100,4,1,0,37,0,0
22151,-100,4,1,0,38,0,0
22337,-100,4,1,0,39,0,0
22523,-100,4,1,0,40,0,0
36301,-100,4,1,0,35,0,0
38815,-100,4,1,0,40,0,0
49801,-100,4,2,0,40,0,0
50173,-100,4,1,0,40,0,0
51011,-100,4,1,0,50,0,1
59948,-100,4,1,0,50,0,0
62928,-100,4,1,0,50,0,1
74844,-100,4,1,0,45,0,0
83782,-100,4,1,0,40,0,0
107615,-100,4,1,0,33,0,0
107801,-100,4,1,0,34,0,0
107987,-100,4,1,0,35,0,0
108173,-100,4,1,0,36,0,0
108360,-100,4,1,0,37,0,0
108546,-100,4,1,0,38,0,0
108732,-100,4,1,0,39,0,0
108918,-100,4,1,0,40,0,0
122697,-100,4,1,0,35,0,0
125210,-100,4,1,0,40,0,0
136196,-100,4,2,0,40,0,0
136568,-100,4,1,0,40,0,0
137406,-100,4,1,0,50,0,1
146344,-100,4,1,0,50,0,0
149323,-100,4,1,0,50,0,1
161239,-100,4,1,0,45,0,0
170177,-100,4,1,0,40,0,0
172970,-100,4,1,0,45,0,0
176135,-100,4,1,0,40,0,0
183583,-100,4,1,0,35,0,0
184328,-100,4,1,0,40,0,0
184700,-100,4,1,0,45,0,0
185073,-100,4,1,0,50,0,0

[Colours]
Combo1 : 0,0,255
Combo2 : 255,0,0
Combo3 : 0,255,0
Combo4 : 255,0,255

[HitObjects]
348,232,366,2,0,B|300:276|212:276|164:232,1,200,6|0,0:0|0:0,0:0:0
80,176,924,1,0,0:0:0
164,120,1110,2,0,B|212:76|300:76|348:120,1,200
432,176,1669,1,0,0:0:0
164,232,1855,6,0,B|164:32,1,200,6|0,0:0|0:0,0:0:0
348,32,2414,2,0,B|348:236,1,200,0|2,0:0|0:0,0:0:0
324,368,2972,1,2,0:0:0
188,368,3158,1,2,0:0:0
164,232,3345,6,0,B|212:232|236:204|236:204|276:204|276:204|300:232|348:232,1,200,6|0,0:0|0:0,0:0:0
348,132,3903,1,0,0:0:0
348,32,4089,2,0,B|300:32|276:60|276:60|236:60|236:60|212:32|164:32,1,200
164,132,4648,1,0,0:0:0
416,272,4834,6,0,B|380:232|380:232|296:252|256:180,1,200,6|0,0:0|0:0,0:0:0
96,272,5393,2,0,B|132:232|132:232|216:252|256:180,1,200,0|2,0:0|0:0,0:0:0
332,52,5951,1,2,0:0:0
180,52,6138,1,2,0:0:0
256,192,6324,12,0,7441,0:0:0
256,192,7813,12,0,8931,0:0:0
256,192,9303,12,0,10420,0:0:0
256,192,10793,12,0,11537,0:0:0
256,192,11723,6,0,B|256:300,2,100,0|0|0,0:0|0:0|0:0,0:0:0
336,100,12282,2,2,B|381:42|481:71|489:144,1,200,6|2,0:0|0:0,0:0:0
396,179,12841,1,0,0:0:0
176,100,13027,2,2,B|130:42|30:71|22:144,1,200
116,179,13585,1,0,0:0:0
132,280,13772,6,0,B|156:328|208:340,1,100,2|2,0:0|0:0,0:0:0
256,352,14051,1,0,0:0:0
304,340,14144,2,0,B|356:328|380:280,2,100,2|2|0,0:0|0:0|0:0,0:0:0
256,252,14703,1,2,0:0:0
176,192,14889,1,2,0:0:0
256,132,15075,1,2,0:0:0
336,192,15261,6,2,B|380:160|392:112|392:112|380:64|336:32,1,200
336,32,15820,1,0,0:0:0
176,192,16006,2,2,B|132:160|120:112|120:112|132:64|176:32,1,200
176,32,16565,1,0,0:0:0
256,132,16751,5,2,0:0:0
256,132,16937,2,0,B|256:336,2,200,2|2|2,0:0|0:0|0:0,0:0:0
308,44,17868,1,2,0:0:0
204,44,18054,1,2,0:0:0
124,104,18240,6,2,B|124:204|124:204|172:224|172:284,1,200
256,340,18799,1,0,0:0:0
388,104,18985,2,2,B|388:204|388:204|340:224|340:284,1,200
256,340,19544,1,0,0:0:0
256,240,19730,6,0,B|256:140,1,100,2|2,0:0|0:0,0:0:0
256,140,20009,1,2,0:0:0
256,140,20102,2,0,B|256:40,2,100,2|2|0,0:0|0:0|0:0,0:0:0
256,240,20661,1,2,0:0:0
208,328,20847,2,0,B|256:352|304:328,1,100,2|2,0:0|0:0,0:0:0
304,228,21220,5,2,0:0:0
208,228,21406,1,2,0:0:0
328,156,21592,1,2,0:0:0
184,156,21778,1,2,0:0:0
352,84,21964,1,2,0:0:0
160,84,22151,1,2,0:0:0
376,12,22337,1,2,0:0:0
136,12,22523,6,2,B|84:32|84:92|84:92|12:164,1,200,2|0,0:0|0:0,0:0:0
16,260,23081,1,0,0:0:0
100,208,23268,1,2,0:0:0
104,308,23454,2,0,B|160:308|184:260,1,100,2|2,0:0|0:0,0:0:0
408,308,23826,2,0,B|352:308|328:260,1,100,2|2,0:0|0:0,0:0:0
388,52,24199,6,0,B|388:108|340:132,1,100,4|0,0:0|0:0,0:0:0
256,192,24571,1,8,0:0:0
124,52,24757,2,0,B|124:108|172:132,1,100,4|0,0:0|0:0,0:0:0
256,192,25130,1,8,0:0:0
356,192,25316,1,0,0:0:0
380,192,25409,1,0,0:0:0
404,192,25502,1,0,0:0:0
428,192,25595,1,0,0:0:0
452,192,25688,1,0,0:0:0
464,204,26619,5,0,0:0:0
464,204,26712,1,0,0:0:0
464,204,26805,1,0,0:0:0
464,204,26992,1,0,0:0:0
404,284,27178,6,0,B|336:252|336:156|404:124,2,200
464,204,28109,2,0,B|256:204,1,200
164,204,28667,5,0,0:0:0
64,204,28854,1,0,0:0:0
116,120,29040,2,0,B|164:96|212:120,1,100,8|0,0:0|0:0,0:0:0
264,204,29412,2,0,B|264:304,2,100,0|0|8,0:0|0:0|0:0,0:0:0
364,204,29971,6,0,B|424:168|424:72|364:36,1,200
308,120,30529,2,0,B|212:168|116:120,1,200
60,36,31088,2,0,B|0:72|0:168|60:204,1,200
160,204,31647,5,0,0:0:0
256,180,31833,1,0,0:0:0
352,204,32019,2,0,B|400:228|448:204,1,100,8|0,0:0|0:0,0:0:0
448,104,32391,2,0,B|400:80|352:104,2,100,0|0|8,0:0|0:0|0:0,0:0:0
448,204,32950,6,0,B|424:320|308:320,1,200
204,320,33508,2,0,B|88:320|64:204,1,200,2|0,0:0|0:0,0:0:0
16,116,34067,2,0,B|64:88|112:116,1,100,2|0,0:0|0:0,0:0:0
164,204,34439,6,0,B|212:184|216:124,1,100,0|2,0:0|0:0,0:0:0
168,36,34812,2,0,B|244:8|292:64|292:64|360:64,1,200,0|2,0:0|0:0,0:0:0
456,64,35370,1,2,0:0:0
404,152,35557,1,0,0:0:0
504,152,35743,1,2,0:0:0
456,240,35929,2,0,B|436:272|404:272|404:272|368:272,1,100,0|2,0:0|0:0,0:0:0
68,272,36488,6,2,B|68:68,2,200,2|0|2,0:0|0:0|0:0,0:0:0
136,348,37419,1,0,0:0:0
204,272,37605,1,2,0:0:0
308,272,37791,1,2,0:0:0
376,348,37977,1,0,0:0:0
444,272,38163,2,2,B|444:64,1,200,2|0,0:0|0:0,0:0:0
444,72,38722,1,0,0:0:0
344,72,38908,6,0,B|292:72|256:112|256:112|220:72|168:72,1,200
176,172,39467,2,0,B|176:244|116:268|116:268|116:348,2,200,0|0|0,0:0|0:0|0:0,0:0:0
336,172,40398,2,0,B|336:244|396:268|396:268|396:348,1,200
256,348,40956,5,2,0:0:0
256,348,41329,1,2,0:0:0
116,348,41515,1,2,0:0:0
116,348,41887,6,0,B|116:268|116:268|176:244|176:172,1,200,0|0,0:0|0:0,0:0:0
164,72,42446,1,0,0:0:0
256,28,42632,1,0,0:0:0
348,72,42818,1,0,0:0:0
336,172,43005,2,0,B|336:244|396:268|396:268|396:348,2,200
256,112,43936,5,2,0:0:0
256,112,44122,1,2,0:0:0
256,264,44308,1,2,0:0:0
256,264,44494,2,0,B|256:372,1,100,2|0,0:0|0:0,0:0:0
340,60,45053,6,0,B|304:0|208:0|172:60,2,200
256,112,45984,2,0,B|256:224,1,100
172,264,46356,2,0,B|208:324|304:324|340:264,2,200
172,164,47287,1,0,0:0:0
256,112,47473,1,0,0:0:0
340,164,47659,1,0,0:0:0
256,312,47846,6,2,B|256:108,1,200,6|2,0:0|0:0,0:0:0
148,60,48404,1,2,0:0:0
40,112,48590,1,2,0:0:0
40,232,48777,1,2,0:0:0
148,284,48963,1,2,0:0:0
184,296,49056,1,0,0:0:0
220,308,49149,1,2,0:0:0
256,312,49242,1,0,0:0:0
292,308,49335,1,2,0:0:0
328,296,49428,1,0,0:0:0
364,284,49521,1,2,0:0:0
484,156,49847,6,0,B|484:124,5,25,2|0|0|0|0|0,0:0|0:0|0:0|0:0|0:0|0:0,0:0:0
436,232,50266,5,0,0:0:0
436,232,50359,1,0,0:0:0
436,232,50452,1,0,0:0:0
436,232,50545,1,0,0:0:0
436,232,50639,1,0,0:0:0
344,152,50825,1,0,0:0:0
256,72,51011,6,0,B|156:32|156:112|60:72,1,200,6|10,0:0|0:0,0:0:0
204,160,51570,1,8,0:0:0
256,72,51756,2,0,B|356:32|356:112|452:72,1,200,2|10,0:0|0:0,0:0:0
308,160,52314,1,8,0:0:0
256,248,52501,6,0,B|156:288|156:208|60:248,1,200,2|10,0:0|0:0,0:0:0
256,248,53059,2,0,B|356:288|356:208|452:248,1,200,10|2,0:0|0:0,0:0:0
504,332,53618,1,10,0:0:0
404,332,53804,1,2,0:0:0
336,248,53990,5,2,0:0:0
176,248,54176,1,0,0:0:0
296,180,54363,1,8,0:0:0
216,316,54549,1,0,0:0:0
216,180,54735,1,2,0:0:0
296,316,54921,2,0,B|348:340|392:304,2,100,0|8|0,0:0|0:0|0:0,0:0:0
216,180,55480,6,0,B|216:120|160:84|160:84|76:84,1,200,2|8,0:0|0:0,0:0:0
296,180,56038,2,0,B|296:120|352:84|352:84|436:84,1,200,2|10,0:0|0:0,0:0:0
436,84,56597,1,10,0:0:0
448,184,56783,6,0,B|448:244|392:280|392:280|308:280,1,200
204,280,57342,2,0,B|120:280|120:280|64:244|64:184,1,200,8|0,0:0|0:0,0:0:0
64,84,57900,2,0,B|116:84|152:44,1,100,0|8,0:0|0:0,0:0:0
256,28,58273,6,0,B|256:228,1,200
172,284,58831,2,0,B|208:344|304:344|340:284,1,200,8|0,0:0|0:0,0:0:0
340,172,59390,2,0,B|304:112|208:112|172:172,1,200
256,228,59948,1,0,0:0:0
476,28,60321,6,2,B|476:132,1,100,2|0,0:0|0:0,0:0:0
476,228,60693,1,2,0:0:0
392,176,60879,1,2,0:0:0
392,276,61066,1,0,0:0:0
304,228,61252,1,2,0:0:0
304,328,61438,6,0,B|256:352|208:328,1,100,0|0,0:0|0:0,0:0:0
72,268,61810,1,0,0:0:0
72,268,61997,1,0,0:0:0
72,116,62183,1,0,0:0:0
72,116,62369,1,0,0:0:0
208,56,62555,1,0,0:0:0
208,56,62648,1,0,0:0:0
208,56,62741,1,0,0:0:0
208,56,62834,1,0,0:0:0
208,56,62928,6,0,B|260:56|260:56|348:100|348:100|400:100,1,200,6|10,0:0|0:0,0:0:0
500,100,63486,1,8,0:0:0
304,236,63672,2,0,B|252:236|252:236|164:192|164:192|112:192,1,200,2|10,0:0|0:0,0:0:0
12,192,64231,1,8,0:0:0
208,56,64417,6,0,B|208:108|208:108|164:196|164:196|164:248,1,200,2|10,0:0|0:0,0:0:0
304,328,64976,2,0,B|304:276|304:276|348:188|348:188|348:136,1,200,10|2,0:0|0:0,0:0:0
348,36,65534,1,10,0:0:0
432,88,65721,1,2,0:0:0
432,188,65907,5,2,0:0:0
348,240,66093,1,0,0:0:0
264,188,66279,1,8,0:0:0
264,88,66465,1,0,0:0:0
348,36,66651,1,2,0:0:0
432,88,66838,2,0,B|488:88|516:136,2,100,0|8|0,0:0|0:0|0:0,0:0:0
348,140,67396,6,0,B|256:208|164:140,1,200,2|8,0:0|0:0,0:0:0
164,300,67955,2,0,B|256:232|348:300,1,200,2|10,0:0|0:0,0:0:0
256,376,68513,1,10,0:0:0
164,300,68700,1,2,0:0:0
72,224,68886,6,0,B|44:128|100:124|72:24,2,200,4|0|0,0:0|0:0|0:0,0:0:0
192,224,69817,2,0,B|164:128|220:124|192:24,1,200
320,28,70375,6,0,B|292:124|348:128|320:228,2,200,4|0|0,0:0|0:0|0:0,0:0:0
440,28,71306,2,0,B|412:124|468:128|440:228,1,200
352,308,71865,6,0,B|256:356|160:308,1,200,4|2,0:0|0:0,0:0:0
56,252,72424,1,2,0:0:0
56,132,72610,1,2,0:0:0
160,76,72796,2,0,B|256:28|352:76,1,200,2|2,0:0|0:0,0:0:0
456,132,73355,5,0,0:0:0
456,132,73541,1,0,0:0:0
352,192,73727,1,0,0:0:0
352,192,73913,1,0,0:0:0
456,252,74099,1,0,0:0:0
456,252,74286,1,0,0:0:0
352,308,74472,1,0,0:0:0
352,308,74565,1,0,0:0:0
352,308,74658,1,0,0:0:0
352,308,74751,1,0,0:0:0
352,308,74844,6,0,B|304:340|256:340|256:340|208:320|160:340,1,200,4|8,0:0|0:0,0:0:0
64,316,75403,1,0,0:0:0
132,244,75589,2,0,B|100:196|100:148|100:148|120:100|100:52,1,200,0|8,0:0|0:0,0:0:0
12,100,76148,1,0,0:0:0
12,200,76334,5,0,0:0:0
12,200,76520,2,0,B|108:228|204:172,1,200
252,84,77079,2,0,B|304:100|304:160,1,100,0|0,0:0|0:0,0:0:0
256,248,77451,2,0,B|204:232|204:172,1,100,0|0,0:0|0:0,0:0:0
252,84,77823,6,0,B|348:28|444:56,1,200,0|8,0:0|0:0,0:0:0
504,136,78382,1,0,0:0:0
476,232,78568,2,0,B|380:288|284:260,1,200,0|8,0:0|0:0,0:0:0
224,180,79127,1,0,0:0:0
124,180,79313,6,0,B|124:296|24:344,2,200,0|8|0,0:0|0:0|0:0,0:0:0
124,80,80244,1,8,0:0:0
124,80,80430,1,8,0:0:0
224,80,80616,6,0,B|328:80|396:168,1,200,2|0,0:0|0:0,0:0:0
452,252,81175,2,0,B|496:224|496:168,1,100,2|0,0:0|0:0,0:0:0
444,80,81547,2,0,B|396:56|348:80,1,100,2|0,0:0|0:0,0:0:0
296,168,81920,2,0,B|296:224|340:252,1,100,2|0,0:0|0:0,0:0:0
396,168,82292,5,2,0:0:0
396,168,82478,2,0,B|328:80|224:80,1,200,0|2,0:0|0:0,0:0:0
124,80,83037,1,0,0:0:0
44,140,83223,1,0,0:0:0
124,200,83409,1,0,0:0:0
156,224,83502,1,0,0:0:0
168,264,83595,1,0,0:0:0
156,304,83688,1,0,0:0:0
124,328,83782,6,0,B|92:372|36:360,2,100,8|0|0,0:0|0:0|0:0,0:0:0
40,240,84340,1,8,0:0:0
108,140,84526,2,0,B|132:92|186:87,1,100
404,140,84899,2,0,B|380:92|326:87,1,100,8|0,0:0|0:0,0:0:0
256,204,85271,6,0,B|256:316,2,100,8|0|0,0:0|0:0|0:0,0:0:0
188,88,85829,1,8,0:0:0
324,88,86016,1,0,0:0:0
352,220,86202,1,0,0:0:0
337,264,86295,1,0,0:0:0
301,293,86388,1,0,0:0:0
256,304,86481,1,0,0:0:0
211,293,86575,1,0,0:0:0
175,264,86668,1,0,0:0:0
160,220,86761,1,4,0:0:0
256,192,97188,5,0,0:0:0
344,144,97374,1,0,0:0:0
256,96,97560,1,0,0:0:0
168,144,97746,1,0,0:0:0
168,244,97933,1,0,0:0:0
256,292,98119,1,0,0:0:0
344,244,98305,1,0,0:0:0
256,192,98491,1,0,0:0:0
168,144,98677,6,2,B|88:152|68:232|68:232|8:232,1,200,6|2,0:0|0:0,0:0:0
168,144,99236,1,0,0:0:0
344,144,99422,2,2,B|424:152|444:232|444:232|504:232,1,200
344,144,99981,1,0,0:0:0
256,92,100167,5,2,0:0:0
256,192,100353,1,2,0:0:0
256,192,100446,1,2,0:0:0
256,192,100539,1,2,0:0:0
340,248,100725,2,0,B|304:308|208:308|172:248,1,200,2|2,0:0|0:0,0:0:0
168,144,101284,1,2,0:0:0
256,92,101470,1,2,0:0:0
344,144,101656,6,2,B|344:348,1,200
344,344,102215,1,0,0:0:0
168,144,102401,2,2,B|168:348,1,200
168,344,102960,1,0,0:0:0
256,292,103146,5,2,0:0:0
256,292,103332,2,0,B|256:88,2,200,2|2|2,0:0|0:0|0:0,0:0:0
344,344,104263,1,2,0:0:0
432,292,104449,1,2,0:0:0
432,192,104636,6,2,B|408:116|344:104|344:104|332:136|292:152,1,200
256,60,105194,1,0,0:0:0
80,192,105380,2,2,B|104:116|168:104|168:104|180:136|220:152,1,200
256,60,105938,1,0,0:0:0
356,60,106125,5,2,0:0:0
432,124,106311,1,2,0:0:0
432,124,106404,1,2,0:0:0
432,124,106498,1,2,0:0:0
356,192,106684,2,0,B|148:192,1,200,2|2,0:0|0:0,0:0:0
80,260,107242,1,2,0:0:0
156,324,107429,1,2,0:0:0
256,324,107615,5,2,0:0:0
356,324,107801,1,2,0:0:0
256,252,107987,1,2,0:0:0
396,252,108173,1,2,0:0:0
256,180,108360,1,2,0:0:0
436,180,108546,1,2,0:0:0
256,108,108732,1,2,0:0:0
476,108,108918,6,0,B|424:16|308:20,1,200,2|0,0:0|0:0,0:0:0
204,20,109477,1,0,0:0:0
256,108,109663,1,2,0:0:0
352,140,109849,2,0,B|384:152|384:192|384:192|384:228,1,100,2|2,0:0|0:0,0:0:0
160,140,110222,2,0,B|128:152|128:192|128:192|128:228,1,100,2|2,0:0|0:0,0:0:0
80,336,110594,6,0,B|128:360|176:336,1,100,4|0,0:0|0:0,0:0:0
256,276,110966,1,8,0:0:0
432,336,111152,2,0,B|384:360|336:336,1,100,4|0,0:0|0:0,0:0:0
256,276,111525,1,8,0:0:0
256,176,111711,1,0,0:0:0
256,152,111804,1,0,0:0:0
256,128,111897,1,0,0:0:0
256,104,111990,1,0,0:0:0
256,80,112083,1,0,0:0:0
268,92,113014,5,0,0:0:0
268,92,113108,1,0,0:0:0
268,92,113201,1,0,0:0:0
268,92,113387,1,0,0:0:0
368,96,113573,6,0,B|416:192|368:288,1,200
460,324,114132,1,0,0:0:0
368,288,114318,2,0,B|272:240|176:288,1,200
84,324,114876,1,0,0:0:0
176,288,115063,6,0,B|160:240|104:224,1,100
128,128,115435,2,0,B|177:138|219:97,1,100,8|0,0:0|0:0,0:0:0
292,168,115807,2,0,B|258:205|272:262,2,100,0|0|8,0:0|0:0|0:0,0:0:0
316,72,116366,6,0,B|352:12|448:12|484:72,1,200
400,128,116925,2,0,B|400:336,2,200
316,72,117856,1,0,0:0:0
216,72,118042,6,0,B|162:75|132:120,1,100
128,220,118414,2,0,B|157:264|211:268,1,100,8|0,0:0|0:0,0:0:0
300,224,118787,2,0,B|324:176|300:128,2,100,0|0|8,0:0|0:0|0:0,0:0:0
300,324,119345,6,0,B|360:324|388:276|388:276|484:276,1,200
484,176,119904,2,0,B|388:176|388:176|360:128|300:128,1,200,2|0,0:0|0:0,0:0:0
300,224,120462,2,0,B|196:224,1,100,2|0,0:0|0:0,0:0:0
200,324,120835,6,0,B|144:324|116:280,1,100,0|2,0:0|0:0,0:0:0
60,196,121207,2,0,B|160:160|180:48,1,200,0|2,0:0|0:0,0:0:0
84,24,121766,1,2,0:0:0
24,104,121952,1,0,0:0:0
60,196,122138,1,2,0:0:0
116,280,122324,2,0,B|144:324|200:324,1,100,0|2,0:0|0:0,0:0:0
500,324,122883,6,2,B|548:228|500:132,2,200,2|0|2,0:0|0:0|0:0,0:0:0
400,324,123814,1,0,0:0:0
332,252,124000,1,2,0:0:0
400,180,124186,1,2,0:0:0
468,252,124372,1,0,0:0:0
400,324,124559,2,2,B|304:372|208:324,1,200,2|0,0:0|0:0,0:0:0
208,324,125117,1,0,0:0:0
140,252,125303,6,0,B|100:216|100:164|100:164|152:152|180:108,1,200
256,40,125862,2,0,B|256:252,2,200
332,108,126793,2,0,B|360:152|412:164|412:164|412:216|372:252,1,200
332,344,127352,5,2,0:0:0
332,344,127724,1,2,0:0:0
180,344,127910,1,2,0:0:0
180,344,128283,6,0,B|204:272|308:272|332:344,1,200
432,344,128841,1,0,0:0:0
480,256,129027,1,0,0:0:0
380,256,129214,2,0,B|308:240|308:168|308:168|308:92,1,200
204,92,129772,2,0,B|204:168|204:168|204:240|132:256,1,200
32,256,130331,5,2,0:0:0
32,256,130517,1,2,0:0:0
32,108,130703,1,2,0:0:0
32,108,130889,2,0,B|48:56|108:56,1,100,2|0,0:0|0:0,0:0:0
404,56,131448,6,0,B|428:96|404:136|404:136|404:188|472:228,2,200
304,96,132379,2,0,B|256:120|208:96,1,100
108,56,132751,2,0,B|84:96|108:136|108:136|108:188|40:228,2,200
208,96,133682,2,0,B|256:120|304:96,2,100
352,164,134241,6,0,B|256:212|160:164,1,200,6|2,0:0|0:0,0:0:0
196,52,134799,1,2,0:0:0
316,52,134986,1,2,0:0:0
432,80,135172,1,2,0:0:0
468,192,135358,1,2,0:0:0
452,228,135451,1,0,0:0:0
432,264,135544,1,2,0:0:0
400,288,135637,1,0,0:0:0
364,308,135730,1,2,0:0:0
324,320,135824,1,0,0:0:0
284,324,135917,1,2,0:0:0
108,324,136242,6,0,B|68:324,5,25,2|0|0|0|0|0,0:0|0:0|0:0|0:0|0:0|0:0,0:0:0
196,324,136661,5,0,0:0:0
196,324,136755,1,0,0:0:0
196,324,136848,1,0,0:0:0
196,324,136941,1,0,0:0:0
196,324,137034,1,0,0:0:0
196,204,137220,1,0,0:0:0
196,84,137406,6,0,B|144:84|108:128|108:128|100:184|40:192,1,200,6|10,0:0|0:0,0:0:0
196,84,137965,1,8,0:0:0
316,84,138151,2,0,B|368:84|404:128|404:128|412:184|472:192,1,200,2|10,0:0|0:0,0:0:0
316,84,138710,1,8,0:0:0
316,192,138896,6,0,B|340:300|448:328,1,200,2|10,0:0|0:0,0:0:0
196,192,139454,2,0,B|172:300|64:328,1,200,10|2,0:0|0:0,0:0:0
256,384,140013,2,0,B|256:264,1,100,10|2,0:0|0:0,0:0:0
316,192,140385,5,2,0:0:0
196,192,140572,1,0,0:0:0
316,192,140758,1,8,0:0:0
196,192,140944,1,0,0:0:0
316,192,141130,1,2,0:0:0
256,284,141316,2,0,B|256:388,2,100,0|8|0,0:0|0:0|0:0,0:0:0
412,260,141875,6,0,B|396:212|396:212|404:172|380:112|312:112,1,200,2|8,0:0|0:0,0:0:0
100,260,142434,2,0,B|116:212|116:212|108:172|132:112|200:112,1,200,2|10,0:0|0:0,0:0:0
200,112,142992,1,10,0:0:0
312,112,143178,6,0,B|408:64|504:112,1,200
504,212,143737,2,0,B|408:260|312:212,1,200,8|0,0:0|0:0,0:0:0
224,160,144295,2,0,B|172:160|144:212,1,100,0|8,0:0|0:0,0:0:0
160,312,144668,6,0,B|256:264|352:312,1,200
408,224,145226,2,0,B|320:172|308:60,1,200,8|0,0:0|0:0,0:0:0
204,60,145785,2,0,B|192:172|104:224,1,200
104,224,146344,1,0,0:0:0
328,240,146716,6,2,B|352:192|328:144,1,100,2|0,0:0|0:0,0:0:0
256,72,147088,1,2,0:0:0
256,72,147275,1,2,0:0:0
184,144,147461,2,0,B|160:192|184:240,1,100,0|2,0:0|0:0,0:0:0
256,312,147833,6,0,B|304:336|352:312,1,100,0|0,0:0|0:0,0:0:0
492,260,148206,1,0,0:0:0
492,260,148392,1,0,0:0:0
360,192,148578,1,0,0:0:0
360,192,148764,1,0,0:0:0
492,124,148950,1,0,0:0:0
492,124,149044,1,0,0:0:0
492,124,149137,1,0,0:0:0
492,124,149230,1,0,0:0:0
492,124,149323,6,0,B|424:124|424:124|372:80|372:80|308:80,1,200,6|10,0:0|0:0,0:0:0
308,80,149881,1,8,0:0:0
20,124,150068,2,0,B|88:124|88:124|140:80|140:80|204:80,1,200,2|10,0:0|0:0,0:0:0
204,80,150626,1,8,0:0:0
204,336,150812,6,0,B|196:240|316:280|308:184,1,200,2|10,0:0|0:0,0:0:0
308,336,151371,2,0,B|316:240|196:280|204:184,1,200,10|2,0:0|0:0,0:0:0
204,80,151930,1,10,0:0:0
308,80,152116,1,2,0:0:0
356,168,152302,5,2,0:0:0
256,168,152488,1,0,0:0:0
256,268,152674,1,8,0:0:0
256,168,152861,1,0,0:0:0
156,168,153047,1,2,0:0:0
256,168,153233,2,0,B|256:56,2,100,0|8|0,0:0|0:0|0:0,0:0:0
356,168,153792,6,0,B|388:216|388:264|388:264|364:308|316:328,1,200,2|8,0:0|0:0,0:0:0
156,168,154350,2,0,B|124:216|124:264|124:264|148:308|196:328,1,200,2|8,0:0|0:0,0:0:0
256,224,154909,1,10,0:0:0
256,104,155095,1,2,0:0:0
356,168,155281,6,0,B|380:216|432:216|432:216|468:252|468:312,2,200,4|0|0,0:0|0:0|0:0,0:0:0
340,288,156212,2,0,B|304:348|208:348|172:288,1,200
156,168,156771,6,0,B|132:216|80:216|80:216|44:252|44:312,2,200,4|0|0,0:0|0:0|0:0,0:0:0
172,288,157702,2,0,B|208:348|304:348|340:288,1,200
468,312,158260,6,0,B|468:252|432:216|432:216|380:216|356:168,1,200,4|2,0:0|0:0,0:0:0
316,52,158819,1,2,0:0:0
196,52,159005,1,2,0:0:0
156,168,159191,2,0,B|132:216|80:216|80:216|44:252|44:312,1,200,2|2,0:0|0:0,0:0:0
144,380,159750,5,0,0:0:0
144,380,159936,1,0,0:0:0
196,272,160122,1,0,0:0:0
196,272,160308,1,0,0:0:0
316,272,160495,1,0,0:0:0
316,272,160681,1,0,0:0:0
368,380,160867,1,0,0:0:0
368,380,160960,1,0,0:0:0
368,380,161053,1,0,0:0:0
368,380,161146,1,0,0:0:0
368,380,161239,6,0,B|432:356|432:288|432:288|432:208,1,200,4|8,0:0|0:0,0:0:0
432,96,161798,1,0,0:0:0
320,96,161984,2,0,B|256:120|256:188|256:188|256:268,1,200,0|8,0:0|0:0,0:0:0
256,380,162543,1,0,0:0:0
144,380,162729,5,0,0:0:0
144,380,162915,2,0,B|80:356|80:288|80:288|80:208,2,200
256,380,163846,2,0,B|256:272,1,100,0|0,0:0|0:0,0:0:0
348,236,164219,6,0,B|372:188|344:140|344:140|372:92|348:44,1,200,0|8,0:0|0:0,0:0:0
256,88,164777,1,0,0:0:0
164,44,164963,2,0,B|140:92|168:140|168:140|140:188|164:236,1,200,0|8,0:0|0:0,0:0:0
256,192,165522,1,0,0:0:0
340,136,165708,6,0,B|304:76|208:76|172:136,2,200,0|8|0,0:0|0:0|0:0,0:0:0
256,192,166639,1,8,0:0:0
256,192,166825,1,8,0:0:0
172,248,167011,6,0,B|208:308|304:308|340:248,1,200,2|0,0:0|0:0,0:0:0
340,148,167570,2,0,B|364:100|416:88,1,100,2|0,0:0|0:0,0:0:0
256,112,167942,2,0,B|256:4,1,100,2|0,0:0|0:0,0:0:0
172,148,168315,2,0,B|148:100|96:88,1,100,2|0,0:0|0:0,0:0:0
76,188,168687,5,2,0:0:0
76,188,168873,2,0,B|16:224|16:320|76:356,1,200,0|2,0:0|0:0,0:0:0
176,356,169432,1,0,0:0:0
256,296,169618,1,0,0:0:0
296,204,169804,1,0,0:0:0
324,172,169898,1,0,0:0:0
364,160,169991,1,0,0:0:0
404,172,170084,1,0,0:0:0
432,204,170177,6,0,B|432:260|484:280,2,100,8|0|0,0:0|0:0|0:0,0:0:0
500,132,170735,1,8,0:0:0
432,60,170922,2,0,B|332:60,1,100
80,60,171294,2,0,B|180:60,1,100,8|0,0:0|0:0,0:0:0
256,192,171666,6,0,B|256:292,2,100,8|0|0,0:0|0:0|0:0,0:0:0
332,60,172225,1,8,0:0:0
180,60,172411,1,0,0:0:0
256,192,172597,1,8,0:0:0
256,192,172784,1,8,0:0:0
340,248,172970,6,0,B|304:308|208:308|172:248,1,200,2|0,0:0|0:0,0:0:0
96,88,173529,2,0,B|148:100|172:148,1,100,2|0,0:0|0:0,0:0:0
256,12,173901,2,0,B|256:112,1,100,2|0,0:0|0:0,0:0:0
416,88,174274,2,0,B|364:100|340:148,1,100,2|0,0:0|0:0,0:0:0
436,188,174646,5,2,0:0:0
436,188,174832,2,0,B|496:224|496:320|436:356,1,200,0|2,0:0|0:0,0:0:0
336,356,175391,1,0,0:0:0
256,296,175577,1,0,0:0:0
216,204,175763,1,0,0:0:0
188,172,175857,1,0,0:0:0
148,160,175950,1,0,0:0:0
108,172,176043,1,0,0:0:0
80,204,176135,6,0,B|44:276|104:332|104:332|164:332,1,200,6|0,0:0|0:0,0:0:0
256,296,176694,1,0,0:0:0
432,204,176880,2,0,B|468:276|408:332|408:332|348:332,1,200
256,296,177439,1,0,0:0:0
256,96,177625,6,0,B|200:104|164:152|164:152|120:164|76:144,1,200,6|0,0:0|0:0,0:0:0
256,96,178183,2,0,B|312:104|348:152|348:152|392:164|436:144,1,200,0|2,0:0|0:0,0:0:0
356,328,178742,1,2,0:0:0
156,328,178928,1,2,0:0:0
76,144,179114,6,0,B|120:132|164:152|164:152|220:140|256:96,1,200,6|0,0:0|0:0,0:0:0
316,16,179673,1,0,0:0:0
436,144,179859,2,0,B|392:132|348:152|348:152|292:140|256:96,1,200
196,16,180418,1,0,0:0:0
80,176,180604,6,0,B|116:240|196:240|196:240|256:240,1,200,6|0,0:0|0:0,0:0:0
432,176,181162,2,0,B|396:240|316:240|316:240|256:240,1,200,0|2,0:0|0:0,0:0:0
156,64,181721,1,2,0:0:0
356,64,181907,1,2,0:0:0
256,240,182093,5,6,0:0:0
124,316,182280,1,0,0:0:0
124,164,182466,1,0,0:0:0
256,240,182652,1,6,0:0:0
388,316,182839,1,0,0:0:0
388,164,183025,1,0,0:0:0
256,92,183211,1,6,0:0:0
220,300,183583,6,0,B|220:364,3,50
292,352,183955,2,0,B|292:296,3,50
256,240,184328,5,0,0:0:0
248,216,184421,1,0,0:0:0
244,192,184514,1,0,0:0:0
248,168,184607,1,0,0:0:0
256,144,184700,1,0,0:0:0
264,120,184793,1,0,0:0:0
268,96,184886,1,0,0:0:0
264,72,184979,1,0,0:0:0
256,48,185073,1,2,0:0:0
