osu file format v10

[General]
AudioFilename: Twist of Love.mp3
AudioLeadIn: 1700
PreviewTime: 50918
Countdown: 0
SampleSet: Normal
StackLeniency: 0.4
Mode: 0
LetterboxInBreaks: 1

[Editor]
Bookmarks: 366,12282,27178,39094,51011,62928,74844,86761,98677,113573,125490,137406,149323,161239,170177,176135
DistanceSpacing: 1
BeatDivisor: 2
GridSize: 4

[Metadata]
Title:Twist of Love
TitleUnicode:
Artist:Sul Woondo
ArtistUnicode:
Creator:ykcarrot
Version:Easy
Source:
Tags:trot ppongjjak Seol Undo Reisen Udongein -Kirito -Neipezi
BeatmapID:172531
BeatmapSetID:56819

[Difficulty]
HPDrainRate:2
CircleSize:3
OverallDifficulty:2
ApproachRate:3
SliderMultiplier:0.8
SliderTickRate:1

[Events]
//Background and Video events
0,0,"twist.jpg"
//Break Periods
2,86961,95748
//Storyboard Layer 0 (Background)
//Storyboard Layer 1 (Fail)
//Storyboard Layer 2 (Pass)
//Storyboard Layer 3 (Foreground)
//Storyboard Sound Samples
//Background Colour Transformations
3,100,255,128,0

[TimingPoints]
366,372.393247269116,4,1,0,40,1,0
6324,-100,4,1,0,32,0,0
7813,-100,4,1,0,34,0,0
9303,-100,4,1,0,36,0,0
10793,-100,4,1,0,38,0,0
12282,-100,4,1,0,40,0,0
36301,-100,4,1,0,35,0,0
38722,-100,4,1,0,40,0,0
51011,-100,4,1,0,50,0,1
59948,-100,4,1,0,50,0,0
62928,-100,4,1,0,50,0,1
74844,-100,4,1,0,45,0,0
83782,-100,4,1,0,40,0,0
122697,-100,4,1,0,35,0,0
125117,-100,4,1,0,40,0,0
137406,-100,4,1,0,50,0,1
146344,-100,4,1,0,50,0,0
149323,-100,4,1,0,50,0,1
161239,-100,4,1,0,45,0,0
170177,-100,4,1,0,40,0,0
172970,-100,4,1,0,45,0,0
176135,-100,4,1,0,40,0,0
183583,-100,4,1,0,35,0,0
184328,-100,4,1,0,40,0,0
184700,-100,4,1,0,45,0,0
185073,-100,4,1,0,50,0,0

[Colours]
Combo1 : 0,0,255
Combo2 : 255,0,0
Combo3 : 0,255,0
Combo4 : 255,0,255

[HitObjects]
96,200,366,1,6,0:0:0
416,200,1855,1,6,0:0:0
96,280,3345,1,6,0:0:0
416,280,4834,1,6,0:0:0
216,32,6324,6,0,B|156:152|24:152,1,240,4|0,0:0|0:0,0:0:0
24,232,7813,2,0,B|156:232|216:352,1,240,4|0,0:0|0:0,0:0:0
296,352,9303,2,0,B|356:232|488:232,1,240,4|0,0:0|0:0,0:0:0
488,152,10793,2,0,B|356:152|296:32,1,240,4|0,0:0|0:0,0:0:0
216,32,12282,6,2,B|216:132,1,80,6|2,0:0|0:0,0:0:0
136,112,13027,2,2,B|136:208,1,80
56,192,13772,2,0,B|56:328,2,120,2|2|2,0:0|0:0|0:0,0:0:0
136,192,15261,6,2,B|228:192,1,80
216,272,16006,2,2,B|300:272,1,80
296,352,16751,2,0,B|424:352,2,120,2|2|2,0:0|0:0|0:0,0:0:0
216,352,18240,6,2,B|216:268,1,80
296,272,18985,2,2,B|296:184,1,80
376,192,19730,2,0,B|376:64,2,120,2|2|2,0:0|0:0|0:0,0:0:0
376,272,21220,5,2,0:0:0
316,324,21592,1,2,0:0:0
256,272,21964,2,0,B|256:144,2,120,2|2|0,0:0|0:0|0:0,0:0:0
196,324,23454,1,2,0:0:0
136,272,23826,1,2,0:0:0
136,192,24199,6,0,B|136:56,2,120,4|4|0,0:0|0:0|0:0,0:0:0
136,272,25688,1,0,0:0:0
408,104,27178,5,0,0:0:0
408,184,27550,1,8,0:0:0
356,244,27923,2,0,B|376:276|440:276|460:244,2,120,0|0|8,0:0|0:0|0:0,0:0:0
156,244,29971,6,0,B|136:276|72:276|52:244,1,120,0|8,0:0|0:0,0:0:0
104,184,30902,2,0,B|104:56,2,120,0|0|8,0:0|0:0|0:0,0:0:0
284,272,32950,6,0,B|424:272,1,120,0|2,0:0|0:0,0:0:0
404,192,33881,2,0,B|280:192,1,120,0|2,0:0|0:0,0:0:0
284,112,34812,2,0,B|428:112,2,120,2|2|0,0:0|0:0|0:0,0:0:0
164,128,36488,6,2,B|112:148|112:236|164:256,1,160
212,192,37605,2,0,B|268:176|276:208|332:192,1,120,2|2,0:0|0:0,0:0:0
480,136,38908,6,0,B|516:192|480:248,1,120,0|8,0:0|0:0,0:0:0
432,312,39839,2,0,B|372:284|316:312,1,120
196,312,40956,2,0,B|140:340|80:312,1,120,2|2,0:0|0:0,0:0:0
32,248,41887,6,0,B|-4:192|32:136,1,120,0|8,0:0|0:0,0:0:0
80,72,42818,2,0,B|140:100|196:72,1,120
316,72,43936,2,0,B|372:44|432:72,1,120,2|2,0:0|0:0,0:0:0
432,192,45053,5,0,0:0:0
352,192,45425,1,8,0:0:0
284,232,45797,2,0,B|256:248|228:252|228:252|200:248|172:232,1,120
172,152,46728,2,0,B|200:136|228:132|228:132|256:136|284:152,2,120,0|0|6,0:0|0:0|0:0,0:0:0
52,152,48404,6,0,B|52:64,2,80,2|2|2,0:0|0:0|0:0,0:0:0
52,232,49521,1,2,0:0:0
308,40,51011,6,0,B|376:80,1,80,6|10,0:0|0:0,0:0:0
352,156,51756,2,0,B|420:196,1,80,2|10,0:0|0:0,0:0:0
396,272,52501,2,0,B|508:336,2,120,2|2|10,0:0|0:0|0:0,0:0:0
328,232,53990,6,0,B|296:240|296:268|296:268|296:296,1,80,2|8,0:0|0:0,0:0:0
216,296,54735,2,0,B|216:268|216:268|216:240|184:232,1,80,2|8,0:0|0:0,0:0:0
116,272,55480,2,0,B|4:336,2,120,2|2|10,0:0|0:0|0:0,0:0:0
184,232,56969,6,0,B|176:136|312:144|296:36,1,240,0|8,0:0|0:0,0:0:0
216,36,58459,2,0,B|200:144|336:136|328:232,1,240,0|8,0:0|0:0,0:0:0
256,268,59948,5,0,0:0:0
216,336,60321,2,0,B|176:348|176:324|136:336,2,80,2|2|2,0:0|0:0|0:0,0:0:0
296,336,61438,2,0,B|336:348|336:324|376:336,2,80,0|0|0,0:0|0:0|0:0,0:0:0
256,268,62555,1,0,0:0:0
216,200,62928,6,0,B|216:108,1,80,6|10,0:0|0:0,0:0:0
296,120,63672,2,0,B|296:204,1,80,2|10,0:0|0:0,0:0:0
308,280,64417,2,0,B|284:312|228:312|204:280,2,120,2|2|10,0:0|0:0|0:0,0:0:0
336,204,65907,6,0,B|336:160|296:140,1,80,2|8,0:0|0:0,0:0:0
216,140,66651,2,0,B|176:160|176:204,1,80,2|8,0:0|0:0,0:0:0
204,280,67396,2,0,B|228:312|284:312|308:280,2,120,2|2|10,0:0|0:0|0:0,0:0:0
144,228,68886,6,0,B|172:100|340:100|368:228,3,320,4|4|4|0,0:0|0:0|0:0|0:0,0:0:0
324,296,73727,1,0,0:0:0
256,340,74099,1,0,0:0:0
188,296,74472,1,0,0:0:0
108,296,74844,6,0,B|88:232|128:168|128:168|184:156|216:112,1,240,4|8,0:0|0:0,0:0:0
296,112,76334,2,0,B|328:156|384:168|384:168|424:232|404:296,1,240,0|8,0:0|0:0,0:0:0
336,340,77823,2,0,B|288:360|156:288|156:172|256:116|356:172|356:288|224:360|176:340,1,480
60,304,80616,6,0,B|24:248|60:192,1,120,2|2,0:0|0:0,0:0:0
88,116,81547,1,2,0:0:0
168,116,81920,1,2,0:0:0
192,192,82292,2,0,B|212:244|300:244|320:192,1,160,2|2,0:0|0:0,0:0:0
344,116,83409,1,0,0:0:0
424,116,83782,6,0,B|460:172|424:228,2,120,8|8|8,0:0|0:0|0:0,0:0:0
344,116,85271,2,0,B|308:172|344:228,2,120,8|8|8,0:0|0:0|0:0,0:0:0
384,48,86761,1,4,0:0:0
448,40,97188,5,0,0:0:0
408,108,97560,1,0,0:0:0
332,132,97933,1,0,0:0:0
256,108,98305,1,0,0:0:0
216,40,98677,6,2,B|176:24|136:40,1,80,6|2,0:0|0:0,0:0:0
176,112,99422,2,2,B|132:112|108:152,1,80
176,192,100167,2,0,B|148:220|148:272|176:300,2,120,2|2|2,0:0|0:0|0:0,0:0:0
236,248,101656,6,2,B|276:268|312:248,1,80
276,176,102401,2,2,B|312:152|352:176,1,80
392,244,103146,2,0,B|428:232|444:172|424:140,2,120,2|2|2,0:0|0:0|0:0,0:0:0
356,316,104636,6,2,B|312:300|312:252,1,80
312,176,105380,2,2,B|264:176|244:212,1,80
236,292,106125,2,0,B|196:292|160:252|164:212,2,120,2|2|2,0:0|0:0|0:0,0:0:0
316,292,107615,5,2,0:0:0
376,240,107987,1,2,0:0:0
376,160,108360,2,0,B|424:160|448:200|448:200|488:200,2,120,2|2|0,0:0|0:0|0:0,0:0:0
296,160,109849,1,2,0:0:0
216,160,110222,1,2,0:0:0
136,160,110594,6,0,B|88:160|64:200|64:200|24:200,2,120,4|4|0,0:0|0:0|0:0,0:0:0
136,240,112083,1,0,0:0:0
456,152,113573,5,0,0:0:0
376,152,113945,1,8,0:0:0
364,232,114318,2,0,B|328:232|288:192|296:148,2,120,0|0|8,0:0|0:0|0:0,0:0:0
148,232,116366,6,0,B|184:232|224:192|216:148,1,120,0|8,0:0|0:0,0:0:0
136,152,117297,2,0,B|16:152,2,120,0|0|8,0:0|0:0|0:0,0:0:0
296,20,119345,6,0,B|296:64|296:64|332:84|336:124,1,120,0|2,0:0|0:0,0:0:0
256,136,120276,2,0,B|256:256,2,120,0|2|0,0:0|0:0|0:0,0:0:0
176,124,121766,2,0,B|180:84|216:64|216:64|216:20,1,120,2|0,0:0|0:0,0:0:0
256,136,122883,6,2,B|256:304,1,160
312,356,124000,2,0,B|280:384|232:384|200:356,1,120,2|2,0:0|0:0,0:0:0
120,220,125303,6,0,B|80:164|120:108,1,120,0|8,0:0|0:0,0:0:0
120,28,126234,2,0,B|164:28|200:60|200:100,1,120,0|0,0:0|0:0,0:0:0
200,220,127352,2,0,B|256:260|312:220,1,120,2|2,0:0|0:0,0:0:0
392,220,128283,6,0,B|432:164|392:108,1,120,0|8,0:0|0:0,0:0:0
392,28,129214,2,0,B|348:28|312:60|312:100,1,120
312,220,130331,2,0,B|256:260|200:220,1,120,2|2,0:0|0:0,0:0:0
84,192,131448,5,0,0:0:0
84,112,131820,1,8,0:0:0
116,40,132193,2,0,B|156:20|196:40|196:40|216:72,1,120
296,72,133124,2,0,B|316:40|316:40|356:20|396:40,2,120,0|0|6,0:0|0:0|0:0,0:0:0
296,192,134799,6,0,B|400:192,2,80,2|2|2,0:0|0:0|0:0,0:0:0
216,192,135917,1,2,0:0:0
480,376,137406,6,0,B|480:296,1,80,6|10,0:0|0:0,0:0:0
412,256,138151,2,0,B|412:172,1,80,2|10,0:0|0:0,0:0:0
344,136,138896,2,0,B|344:12,2,120,2|2|10,0:0|0:0|0:0,0:0:0
344,216,140385,6,0,B|328:252|328:252|296:276,1,80,2|8,0:0|0:0,0:0:0
216,276,141130,2,0,B|184:252|184:252|168:216,1,80,2|8,0:0|0:0,0:0:0
168,136,141875,2,0,B|168:12,2,120,2|2|10,0:0|0:0|0:0,0:0:0
88,136,143365,6,0,B|88:176|112:212|160:228|204:208|204:208|216:240|216:284,1,240,0|8,0:0|0:0,0:0:0
296,284,144854,2,0,B|296:240|308:208|308:208|352:228|400:212|424:176|424:136,1,240,0|8,0:0|0:0,0:0:0
344,136,146344,5,0,0:0:0
296,72,146716,2,0,B|332:44|372:60,2,80,2|2|2,0:0|0:0|0:0,0:0:0
216,72,147833,2,0,B|180:44|140:60,2,80
168,136,148950,1,0,0:0:0
148,212,149323,6,0,B|172:248|216:248,1,80,6|10,0:0|0:0,0:0:0
296,248,150068,2,0,B|340:248|364:212,1,80,2|10,0:0|0:0,0:0:0
296,168,150812,2,0,B|292:120|220:120|216:168,2,120,2|2|10,0:0|0:0|0:0,0:0:0
296,248,152302,6,0,B|297:278|304:288|304:288|296:296|296:328,1,80,2|8,0:0|0:0,0:0:0
216,324,153047,2,0,B|216:293|208:284|208:284|216:276|216:244,1,80,2|8,0:0|0:0,0:0:0
256,176,153792,2,0,B|256:36,2,120,2|2|10,0:0|0:0|0:0,0:0:0
316,228,155281,6,0,B|352:276|332:348|256:384|180:348|160:276|196:228,3,320,4|4|4|0,0:0|0:0|0:0|0:0,0:0:0
256,176,160122,1,0,0:0:0
296,108,160495,1,0,0:0:0
216,108,160867,1,0,0:0:0
136,108,161239,6,0,B|140:156|176:176|176:176|176:224|216:248|216:248|216:320,1,240,4|8,0:0|0:0,0:0:0
296,320,162729,2,0,B|296:248|296:248|336:224|336:176|336:176|372:156|376:108,1,240,0|8,0:0|0:0,0:0:0
452,84,164219,2,0,B|432:36|380:8|324:32|304:76|304:76|284:96|228:96|208:76|208:76|188:32|132:8|80:36|60:84,1,480
60,204,167011,6,0,B|60:272|112:308,1,120,2|2,0:0|0:0,0:0:0
176,352,167942,1,2,0:0:0
256,364,168315,1,2,0:0:0
336,352,168687,2,0,B|372:324|372:324|408:324|444:300|452:256,1,160,2|2,0:0|0:0,0:0:0
372,244,169804,1,0,0:0:0
372,164,170177,6,0,B|372:44,2,120,8|8|8,0:0|0:0|0:0,0:0:0
452,164,171666,2,0,B|452:36,2,120,8|8|8,0:0|0:0|0:0,0:0:0
452,204,172970,6,0,B|452:272|400:308,1,120,2|2,0:0|0:0,0:0:0
336,352,173901,1,2,0:0:0
256,364,174273,1,2,0:0:0
176,352,174646,2,0,B|140:324|140:324|104:324|68:300|60:256,1,160,2|2,0:0|0:0,0:0:0
140,244,175763,1,0,0:0:0
92,180,176135,5,6,0:0:0
420,180,177625,1,6,0:0:0
92,100,179114,1,6,0:0:0
420,100,180604,1,6,0:0:0
200,332,182093,6,4,B|256:368|312:332,2,120,6|6|6,0:0|0:0|0:0,0:0:0
256,192,183583,12,2,185073,0:0:0
