osu file format v7

[General]
AudioFilename: Zenryoku Shounen.mp3
AudioLeadIn: 0
PreviewTime: 59418
Countdown: 1
SampleSet: Normal
StackLeniency: 0.7
Mode: 0
LetterboxInBreaks: 1
SkinPreference:Ouendan2 v4

[Editor]
Bookmarks: 0,13402,22728,29876,33394,41101,45233,58189,70029,80304,84381,98454,109120,127549,150278,157147,161168
DistanceSpacing: 1
BeatDivisor: 8
GridSize: 8

[Metadata]
Title:Zenryoku Shounen
Artist:Sukima Switch
Creator:TraceTheKriken
Version:Insane
Source:Osu! Tatakae Ouendan 2
Tags:Osu! Tatakae Ouendan 2 Zenryoku Shounen Sukima Switch

[Difficulty]
HPDrainRate:7
CircleSize:4
OverallDifficulty:9
SliderMultiplier:1.5
SliderTickRate:2

[Events]
//Background and Video events
Video,-5192,"Ouendan2 Zenryoku Shonen Insane Perfect 300.avi"
0,0,"ouendan 2 song 1 insane.PNG"
//Break Periods
2,44875,58818
2,84190,98133
2,112783,128513
//Storyboard Layer 0 (Background)
//Storyboard Layer 1 (Fail)
//Storyboard Layer 2 (Pass)
//Storyboard Layer 3 (Foreground)
//Storyboard Sound Samples
//Background Colour Transformations
3,100,163,162,255

[TimingPoints]
446,446.760982874162,4,1,0,83,1,0

[Colours]
Combo1 : 255,0,0
Combo2 : 255,150,0
Combo3 : 5,255,5
Combo4 : 0,0,255

[HitObjects]
432,352,16529,1,0
344,344,16752,1,0
264,328,16976,1,0
96,376,17422,1,0
96,208,17869,1,0
16,208,18093,1,0
16,128,18316,2,0,B|32:112|56:104|80:104|104:104|120:104|152:120|160:136|160:136,1,150
216,192,18986,1,0
400,312,19880,6,0,B|480:320|528:264|552:200|536:152|536:152,1,225
448,192,20773,2,0,B|400:208|352:208|320:168|312:144|312:144,1,150
272,88,21443,1,0
272,88,21667,1,4
160,96,23230,5,0
112,24,23454,2,0,B|40:40|0:88|-24:152|0:208|0:208,1,225
176,216,24571,1,0
232,264,24794,1,0
288,312,25017,1,0
352,264,25241,2,0,B|400:264|432:248|456:240|480:224|496:192|504:160|512:120|512:120,1,225
512,48,26134,1,0
360,64,27028,6,0,B|320:16|256:0|208:8|152:72|152:72,1,225,0|8
120,208,28145,1,0
192,248,28368,1,0
264,208,28591,1,0
264,136,28815,1,0
384,232,29262,1,0
384,232,29485,1,4
96,368,30825,5,0
176,352,31048,1,0
256,336,31272,1,0
424,368,31718,1,0
416,208,32165,1,0
496,208,32389,1,0
496,128,32612,2,0,B|480:112|456:104|432:104|408:104|392:104|360:120|352:136|352:136,1,150
296,192,33282,1,0
112,312,34176,6,0,B|64:320|-16:272|-32:200|-16:144|-16:144,1,225
64,192,35069,2,0,B|112:208|160:208|192:192|208:152|208:152,1,150
256,88,35739,1,0
256,88,35963,1,4
360,96,37526,5,0
400,24,37750,2,0,B|472:48|504:96|520:152|512:208|512:208,1,225
352,216,38867,1,0
288,264,39090,1,0
232,320,39313,1,0
168,368,39537,2,0,B|120:360|96:352|64:336|40:312|16:288|8:264|8:216|8:216,1,225
8,152,40430,1,0
184,216,41324,5,0
256,264,41548,1,8
256,176,41771,1,0
320,216,41994,1,0
464,320,42441,1,0
496,224,42776,1,8
480,128,43111,2,0,B|432:64|360:24|288:16|288:16,1,225
264,88,44005,1,0
224,240,44451,1,0
296,240,44675,1,4
16,256,59418,5,2
96,280,59641,1,4
176,296,59865,1,2
336,296,60311,1,2
416,280,60535,1,4
496,256,60758,1,2
472,176,60982,2,0,B|424:168|392:168|352:184|320:224|320:224,1,150
256,256,61652,1,2
256,96,62099,1,4
496,256,62992,5,2
416,280,63215,1,4
336,296,63439,1,2
176,296,63885,1,2
96,280,64109,1,4
16,256,64332,1,2
40,176,64556,2,0,B|88:168|120:168|160:184|192:224|192:224,1,150
256,256,65226,1,2
256,96,65673,1,4
160,8,66566,5,0
240,8,66790,1,0
320,8,67013,1,0
400,8,67236,2,0,B|472:24|504:72|520:160|512:200|512:200,1,225,0|4
360,192,68353,1,0
280,192,68577,1,0
200,192,68800,1,0
120,192,69023,2,0,B|48:176|16:128|0:40|8:0|8:0,1,225,0|4
152,8,70140,5,0
256,8,70475,1,0
360,8,70810,1,0
472,128,71257,1,0
336,216,71704,2,0,B|256:248|176:216|176:216,1,150
144,376,72597,2,4,B|208:392|320:392|384:368|384:368,1,225
496,256,73714,5,2
416,280,73937,1,4
336,296,74161,1,2
176,296,74607,1,2
96,280,74831,1,4
16,256,75054,1,2
40,176,75278,2,0,B|88:168|120:168|160:184|192:224|192:224,1,150
256,256,75948,1,2
256,96,76395,1,4
16,256,77288,5,2
96,280,77511,1,4
176,296,77735,1,2
336,296,78181,1,2
416,280,78405,1,4
496,256,78628,1,2
472,176,78852,2,0,B|424:168|392:168|352:184|320:224|320:224,1,150
256,256,79522,1,2
256,96,79969,1,4
264,344,80862,5,2
264,344,81086,1,0
176,208,81533,1,6
336,208,81980,1,0
496,184,82426,2,0,B|496:112|448:56|400:40|336:48|336:48,1,225
256,48,83320,1,0
264,208,83766,1,0
264,208,83990,1,4
104,368,98733,5,2
176,336,98956,1,0
256,320,99180,1,2
336,336,99403,1,0
408,368,99626,1,4
336,232,100073,1,0
336,144,100297,1,0
336,56,100520,2,0,B|328:40|272:16|240:24|208:48|192:72|192:72,1,150
192,144,101190,1,0
392,312,102084,6,0,B|344:312|288:288|264:240|256:200|264:152|264:152,1,225
344,168,102977,2,0,B|368:184|432:192|472:168|488:128|488:128,1,150
512,64,103647,1,0
512,64,103871,1,4
40,96,105434,5,0
112,56,105658,2,0,B|176:32|264:24|344:56|344:56,1,225
200,120,106775,2,0,B|144:120|80:152|64:192|64:192,1,150,0|8
40,264,107445,1,0
192,288,107892,1,0
344,304,108338,1,4
496,328,108785,1,4
328,216,109232,5,0
256,264,109456,1,0
256,176,109679,1,0
184,216,109902,1,0
56,320,110349,1,0
16,224,110684,1,8
48,120,111019,2,0,B|72:80|112:48|168:24|208:8|248:8|248:8,1,225
256,88,111913,1,0
296,240,112359,1,0
216,240,112583,1,4
16,256,129113,5,2
96,280,129336,1,4
176,296,129560,1,2
336,296,130006,1,2
416,280,130230,1,4
496,256,130453,1,2
472,176,130677,2,0,B|424:168|392:168|352:184|320:224|320:224,1,150
256,256,131347,1,2
256,96,131794,1,4
496,256,132687,5,2
416,280,132910,1,4
336,296,133134,1,2
176,296,133580,1,2
96,280,133804,1,4
16,256,134027,1,2
40,176,134251,2,0,B|88:168|120:168|160:184|192:224|192:224,1,150
256,256,134921,1,2
256,96,135368,1,4
160,8,136261,5,0
240,8,136485,1,0
320,8,136708,1,0
400,8,136931,2,0,B|472:24|504:72|520:160|512:200|512:200,1,225,0|4
360,192,138048,1,0
280,192,138272,1,0
200,192,138495,1,0
120,192,138718,2,0,B|48:176|16:128|0:40|8:0|8:0,1,225,0|4
152,8,139835,5,0
256,8,140170,1,0
360,8,140505,1,0
360,168,140952,1,0
512,200,141399,2,0,B|464:296|408:360|304:400|176:392|112:368|56:304|56:304,1,525,0|4
336,256,143409,6,0,B|264:280|184:256|184:256,3,150
184,184,144973,2,0,B|144:176|112:184|72:208|48:248|48:248,1,150
0,312,145643,1,2
0,144,146090,1,2
56,64,146313,5,8
56,64,146536,1,8
184,256,146983,6,0,B|256:280|336:256|336:256,3,150
336,184,148547,2,0,B|376:176|408:184|448:208|472:248|472:248,1,150
512,312,149217,1,2
512,144,149664,1,2
464,64,149887,5,8
464,64,150110,1,8
264,352,150557,5,2
264,352,150781,1,0
176,208,151228,1,6
344,208,151675,1,0
488,184,152121,2,0,B|488:136|464:96|440:72|408:48|368:48|320:48|320:48,1,225
256,56,153015,1,6
264,208,153461,1,0
264,208,153685,1,6
424,288,154131,5,2
256,288,154578,1,2
88,288,155025,1,2
88,288,155248,1,2
152,136,155695,2,0,B|216:112|312:112|384:144|384:144,1,225,4|0
336,208,156588,1,0
176,208,157035,1,4
256,192,157929,12,4,160833
