osu file format v7

[General]
AudioFilename: Opening 3.mp3
AudioLeadIn: 0
PreviewTime: 40850
Countdown: 1
SampleSet: Normal
StackLeniency: 1
Mode: 0
LetterboxInBreaks: 1

[Editor]
Bookmarks: 7536,16109,30013,32539,44074,56248,70718,84483
DistanceSpacing: 1
BeatDivisor: 2
GridSize: 8

[Metadata]
Title:Golden Time Lover (TV Size)
Artist:Sukima Switch
Creator:Death_the_kid
Version:Hard
Source:Fullmetal Alchemist Brotherhood
Tags:CrimmiSkye KIA

[Difficulty]
HPDrainRate:5
CircleSize:4
OverallDifficulty:5
SliderMultiplier:1.8
SliderTickRate:1

[Events]
//Background and Video events
0,0,"a_FullMetalAlchemist_2.jpg"
Video,0,"Full Metal Alchemist Brotherhood Opening 3_(HD).avi.AVI"
//Break Periods
2,69680,71160
//Storyboard Layer 0 (Background)
//Storyboard Layer 1 (Fail)
//Storyboard Layer 2 (Pass)
//Storyboard Layer 3 (Foreground)
//Storyboard Sound Samples
//Background Colour Transformations
3,100,0,0,0

[TimingPoints]
1320,480,4,1,0,35,1,0
57000,-100,4,1,0,58,0,1
69480,-100,4,1,0,58,0,0
72360,-100,4,1,0,58,0,1
85010,-100,4,1,0,58,0,0
87480,-200,4,1,0,58,0,0

[Colours]
Combo1 : 0,128,128
Combo2 : 255,0,0
Combo3 : 0,128,64
Combo4 : 128,128,0

[HitObjects]
56,144,9000,6,0,L|120:80,1,90
200,80,9480,1,8
277,103,9720,2,0,L|320:80|368:112,2,90
277,184,10440,6,0,L|317:208|357:176,1,90,8|0
350,262,10920,2,0,L|310:286|270:254,1,90,0|0
192,256,11400,2,0,L|88:256,1,90,8|0
102,175,11880,1,0
184,168,12120,2,0,L|224:144|264:168,2,90,0|8|0
298,282,13080,5,0
383,282,13320,2,0,L|383:178,1,90,8|0
384,112,13800,2,0,L|432:96|480:120,1,90
472,192,14280,6,0,L|304:192,1,90,8|0
384,192,14760,2,0,L|250:192,2,90
376,112,15480,2,0,L|336:88|96:88,1,270,0|8
248,184,16680,1,0
167,184,16920,5,0
203,257,17160,1,8
280,248,17400,2,0,L|312:216|352:256,1,90
424,248,17880,2,0,L|456:208|416:160,1,90,0|8
358,140,18360,6,0,L|230:140,1,90
198,180,18840,2,0,L|198:84,1,90,0|8
248,24,19320,2,0,L|128:24,4,90,0|0|0|8|0
136,168,20760,5,0
136,240,21000,1,8
216,240,21240,2,0,L|248:208|224:168,2,90
296,240,21960,2,0,L|328:208|288:160,1,90,8|0
264,104,22440,2,0,L|304:88|352:112,1,90
424,128,22920,2,0,L|424:224,1,90,8|0
424,296,23400,2,0,L|312:296,3,90,0|0|8|0
256,192,24360,12,4,26040
139,125,26280,6,0,L|251:125,1,90
332,120,26760,1,8
328,208,27000,2,0,L|115:208,1,180
64,248,27720,6,0,L|40:208|72:160,1,90,8|0
65,96,28200,2,0,L|89:136|57:184,1,90
155,172,28680,2,0,L|195:148|259:196,1,90,8|0
319,174,29160,1,0
412,194,29400,2,0,L|412:242|356:242,2,90,0|8|0
284,66,30360,5,0
220,129,30600,1,8
130,129,30840,1,0
144,216,31080,2,0,L|176:248|208:216,1,90
296,216,31560,6,0,L|400:216,1,90,8|0
448,280,32040,2,0,L|448:176,1,90
400,112,32520,2,0,L|296:112,1,90,8|0
240,56,33000,2,0,L|240:240,1,180,0|0
64,264,33960,1,0
64,174,34200,5,0
136,120,34440,2,0,L|168:88|208:120,1,90,8|0
266,179,34920,2,0,L|298:211|330:171,1,90
416,176,35400,2,0,L|416:312,1,90,8|0
352,329,35880,5,0
264,328,36120,2,0,L|144:328,2,90,0|8|0
264,237,36840,2,0,L|264:141,3,90,0|0|8|0
104,64,38040,5,0
80,152,38280,2,0,L|64:192|104:232,1,90,8|0
184,232,38760,2,0,L|184:128,1,90
272,144,39240,2,0,L|376:144,1,90,8|0
376,232,39720,2,0,L|280:232|280:320,1,180,0|8
100,316,40680,1,0
136,232,40920,5,0
160,144,41160,1,8
88,88,41400,2,0,L|96:40|160:32,1,90
222,62,41880,1,0
285,125,42120,1,8
352,185,42360,1,0
351,311,42840,5,0
280,256,43080,2,0,L|168:256,1,90,8|0
190,75,43800,1,0
360,136,44280,6,0,L|360:248,1,90,0|0
272,240,44760,2,0,L|192:304,2,90,0|8|0
240,152,45480,1,0
60,152,45960,1,8
176,304,46440,6,0,L|176:208,1,90
168,128,46920,2,0,L|360:128,1,180,8|0
348,129,47640,1,0
348,129,47880,1,8
373,215,48120,5,0
373,305,48360,1,0
293,261,48600,1,8
200,264,48840,2,0,L|96:264,2,90,0|8|0
200,84,49800,5,8
380,84,50280,1,0
316,147,50520,1,0
379,210,50760,1,8
315,273,51000,1,0
251,209,51240,1,8
123,81,51720,5,8
303,81,52200,1,0
366,144,52440,1,0
302,207,52680,1,8
302,297,52920,1,0
122,297,53400,1,0
122,117,53880,1,0
302,117,54360,1,0
256,192,54600,12,4,56520
96,112,57000,5,0
96,202,57240,1,0
159,265,57480,1,0
304,152,57960,1,0
394,152,58200,1,0
352,232,58440,1,0
216,112,58920,6,0,L|216:216,1,90
152,138,59400,2,0,L|88:224,1,90,8|0
161,273,59880,2,0,L|233:351,1,90
312,339,60360,1,8
312,159,60840,5,0
376,96,61080,1,0
311,31,61320,1,8
136,80,61800,2,0,L|136:192,1,90
199,233,62280,1,8
360,152,62760,6,0,L|408:144|424:184,1,90
376,256,63240,2,0,L|336:280|304:232,1,90,8|0
256,168,63720,2,0,L|160:168,1,90
85,207,64200,6,0,L|85:111|189:111,1,180,8|0
259,111,64920,1,0
322,174,65160,5,8
412,174,65400,1,0
284,46,65880,1,0
194,46,66120,2,0,L|82:46,1,90,8|0
104,226,66840,1,0
272,162,67320,6,0,L|296:130|352:154,1,90
424,187,67800,2,0,L|472:187|472:251,1,90,8|0
256,192,68280,12,4,69480
392,128,72360,5,0
328,191,72600,1,0
238,191,72840,1,8
62,148,73320,1,0
126,85,73560,1,0
216,85,73800,1,8
392,96,74280,5,0
392,186,74520,1,0
302,186,74760,1,8
302,276,75000,1,0
216,280,75240,2,0,L|184:320|144:280,2,90,0|0|8
160,112,76200,6,0,L|232:64|328:112,1,180,0|8
251,169,76920,1,0
187,232,77160,2,0,L|259:280|355:232,1,180,0|8
469,110,78120,5,0
379,110,78360,1,8
289,110,78600,2,0,L|265:142|201:118,1,90
154,188,79080,2,0,L|178:220|242:196,1,90
314,202,79560,5,8
377,265,79800,1,0
377,85,80280,1,0
288,112,80520,1,8
198,112,80760,1,0
32,176,81240,6,0,L|128:176,1,90,0|8
168,256,81720,1,0
328,176,82200,2,0,L|216:176,1,90,0|8
174,112,82680,1,0
365,112,83160,5,0
455,112,83400,1,8
415,193,83640,1,0
256,280,84120,1,0
152,136,85080,6,0,L|240:88,1,90,0|8
272,176,85560,2,0,L|168:232,1,90,0|8
112,264,86040,2,0,L|24:176,1,90,0|8
56,112,86520,2,0,L|144:56,1,90,0|8
256,192,87000,12,4,88440
