osu file format v7

[General]
AudioFilename: Opening 3.mp3
AudioLeadIn: 1000
PreviewTime: 40920
Countdown: 1
SampleSet: Normal
StackLeniency: 0.7
Mode: 0
LetterboxInBreaks: 1

[Editor]
Bookmarks: 16109,30013,32539,44074,56248,70718,84483,5977
DistanceSpacing: 0.899999976158142
BeatDivisor: 4
GridSize: 8

[Metadata]
Title:Golden Time Lover (TV Size)
Artist:Sukima Switch
Creator:Death_the_kid
Version:Easy
Source:Fullmetal Alchemist Brotherhood
Tags:CrimmiSkye KIA

[Difficulty]
HPDrainRate:2
CircleSize:3
OverallDifficulty:3
SliderMultiplier:1.4
SliderTickRate:1

[Events]
//Background and Video events
0,0,"a_FullMetalAlchemist_2.jpg"
Video,0,"Full Metal Alchemist Brotherhood Opening 3_(HD).avi.AVI"
//Break Periods
//Storyboard Layer 0 (Background)
//Storyboard Layer 1 (Fail)
//Storyboard Layer 2 (Pass)
//Storyboard Layer 3 (Foreground)
//Storyboard Sound Samples
//Background Colour Transformations
3,100,0,0,0

[TimingPoints]
1320,480,4,1,0,40,1,0
57000,-100,4,1,0,40,0,1
69480,-100,4,1,0,40,0,0
72360,-100,4,1,0,40,0,1
85080,-100,4,1,0,40,0,0

[Colours]
Combo1 : 0,128,128
Combo2 : 255,0,0
Combo3 : 0,128,64
Combo4 : 128,128,0

[HitObjects]
59,56,9000,5,4
171,56,9480,2,0,L|323:56,1,140,8|0
423,56,10440,1,8
423,168,10920,1,0
423,280,11400,1,0
296,288,11880,2,0,L|128:288,1,140,0|8
16,344,13080,6,0,L|16:104,1,210,0|0
95,54,14280,1,8
207,54,14760,1,0
319,54,15240,1,8
431,54,15720,1,0
431,347,17160,5,8
361,277,17640,1,0
291,207,18120,1,8
193,207,18600,1,0
81,207,19080,2,0,B|80:352,3,140,8|0|8|0
159,267,21000,5,8
159,155,21480,1,0
271,155,21960,1,8
383,155,22440,1,0
368,264,22920,2,0,B|208:264,3,140,8|0|8|0
64,160,26280,5,0
64,272,26760,1,8
176,272,27240,2,0,L|480:272,1,280,0|0
456,160,28680,1,8
328,160,29160,2,0,L|232:160|232:88,1,140
148,66,30120,6,0,L|147:209,1,140,0|8
259,205,31080,1,0
259,92,31560,1,8
371,92,32040,1,0
450,171,32520,2,0,L|450:323|450:323,2,140,8|0|8
257,250,34440,5,8
145,250,34920,1,0
145,138,35400,1,8
257,138,35880,1,0
369,138,36360,2,0,B|369:282,2,140,8|0|8
176,217,38280,6,0,B|176:369,1,140,8|0
273,295,39240,1,8
385,295,39720,1,0
381,178,40200,5,8
269,178,40680,2,0,L|97:177,2,140,0|8|0
189,257,42120,1,8
301,257,42600,1,0
413,257,43080,1,8
413,145,43560,1,0
301,145,44040,6,0,B|128:144,3,140,8|0|8|0
240,64,45960,1,8
352,64,46440,1,0
352,176,46920,1,8
352,176,47160,1,0
233,57,48120,6,0,B|232:224,2,140
232,56,49320,1,0
456,196,50280,1,0
344,196,50760,1,8
232,196,51240,1,0
181,96,51720,5,8
141,200,52200,2,0,B|77:248|5:200|5:88|69:24|-10:277,2,280,0|8|0
256,192,54600,12,4,56040
160,56,57000,5,0
160,168,57480,1,8
272,168,57960,2,0,L|448:168,1,140,0|8
408,280,58920,1,0
296,280,59400,1,8
184,280,59880,2,0,L|184:80,1,140,0|8
296,184,60840,5,0
408,184,61320,1,8
424,296,61800,2,0,L|264:296,1,140,0|0
168,296,62760,1,0
56,296,63240,1,8
56,184,63720,1,0
168,184,64200,6,0,L|352:184,1,140,8|0
376,280,65160,2,0,L|200:280,1,140,8|0
112,312,66120,2,0,L|112:224|184:224|184:160,1,210
106,89,67320,6,0,L|328:88,2,210,0|8|0
106,257,69480,2,0,L|258:257,1,140,0|8
246,145,70440,2,0,L|94:145,1,140,0|8
185,65,71400,1,0
185,65,71880,1,8
73,65,72360,5,0
73,177,72840,1,8
73,288,73320,2,0,L|225:288,1,140,0|8
325,288,74280,1,0
325,176,74760,1,8
325,63,75240,1,0
213,63,75720,1,8
101,63,76200,6,0,L|101:223,1,140,0|8
101,315,77160,1,0
213,315,77640,1,8
325,315,78120,6,0,L|325:99|37:99,1,490,0|0
51,211,80280,1,0
163,211,80760,1,0
112,311,81240,5,0
224,311,81720,2,0,L|416:312,2,140
303,231,83160,2,0,L|127:231,1,140,8|0
163,119,84120,1,8
4,277,85080,5,0
116,277,85560,1,8
228,277,86040,2,0,L|228:109,1,140,0|0
332,178,87000,1,8
437,214,87480,2,0,B|437:62,2,140,4|0|4
