osu file format v12

[General]
AudioFilename: 1.mp3
AudioLeadIn: 1000
PreviewTime: 43536
Countdown: 0
SampleSet: None
StackLeniency: 0.7
Mode: 0
LetterboxInBreaks: 0
WidescreenStoryboard: 0

[Editor]
DistanceSpacing: 1.8
BeatDivisor: 4
GridSize: 32

[Metadata]
Title:I know You know
TitleUnicode:I know You know
Artist:Suke+Suke feat. Ribbon
ArtistUnicode:Suke+Suke feat. Ribbon
Creator:mochi
Version:Another
Source:beatmania IIDX
Tags:tricoro
BeatmapID:285432
BeatmapSetID:109345

[Difficulty]
HPDrainRate:6
CircleSize:4
OverallDifficulty:8
ApproachRate:9
SliderMultiplier:2
SliderTickRate:1

[Events]
//Background and Video events
//Break Periods
//Storyboard Layer 0 (Background)
//Storyboard Layer 1 (Fail)
//Storyboard Layer 2 (Pass)
//Storyboard Layer 3 (Foreground)
//Storyboard Sound Samples
//Background Colour Transformations
3,100,60,60,60

[TimingPoints]
81,441.176470588235,4,2,0,70,1,0
30080,-125,4,2,0,70,0,0
37139,-100,4,2,0,70,0,0
42213,-125,4,2,0,70,0,0
42654,-100,4,2,0,70,0,0

[Colours]
Combo1 : 77,138,240
Combo2 : 253,45,50
Combo3 : 148,115,234
Combo4 : 36,164,58

[HitObjects]
418,93,1183,1,0,0:0:0:0:
409,112,1257,1,0,0:0:0:0:
400,131,1330,1,0,0:0:0:0:
391,150,1404,2,0,P|334:172|279:143,1,100
90,62,1845,5,0,0:0:0:0:
104,224,2066,1,2,0:0:0:0:
188,85,2286,1,2,0:0:0:0:
39,148,2507,1,2,0:0:0:0:
197,185,2728,1,2,0:0:0:0:
171,345,2948,5,0,0:0:0:0:
357,161,3169,1,0,0:0:0:0:
230,189,3389,5,2,0:0:0:0:
445,256,3610,1,2,0:0:0:0:
395,37,3830,1,2,0:0:0:0:
230,189,4051,1,2,0:0:0:0:
129,72,4272,5,0,0:0:0:0:
129,72,4382,1,0,0:0:0:0:
129,72,4492,2,0,L|16:118,1,100
111,289,4933,2,0,L|224:243,1,100
290,101,5375,5,0,0:0:0:0:
402,252,5595,1,2,0:0:0:0:
193,79,5816,5,2,0:0:0:0:
305,230,6036,1,2,0:0:0:0:
149,337,6257,1,2,0:0:0:0:
99,338,6367,1,0,0:0:0:0:
54,319,6477,1,0,0:0:0:0:
21,281,6587,1,0,0:0:0:0:
9,233,6698,1,0,0:0:0:0:
95,56,6919,5,2,0:0:0:0:
95,56,7029,1,0,0:0:0:0:
95,56,7139,2,0,L|200:56,1,100,2|2,0:0|0:0,0:0:0:0:
385,14,7580,2,0,L|315:114,1,100,0|2,0:0|0:0,0:0:0:0:
341,149,7911,1,0,0:0:0:0:
354,202,8022,2,0,L|284:302,1,100,0|2,0:0|0:0,0:0:0:0:
152,316,8463,5,0,0:0:0:0:
248,178,8683,1,2,0:0:0:0:
98,100,8904,1,0,0:0:0:0:
218,50,9125,5,2,0:0:0:0:
137,209,9345,1,2,0:0:0:0:
377,133,9566,1,2,0:0:0:0:
296,292,9786,1,2,0:0:0:0:
423,257,10007,5,0,0:0:0:0:
216,149,10228,1,0,0:0:0:0:
377,133,10448,5,2,0:0:0:0:
296,292,10668,1,2,0:0:0:0:
137,209,10889,1,2,0:0:0:0:
218,50,11109,1,2,0:0:0:0:
377,133,11330,1,0,0:0:0:0:
216,149,11551,6,0,L|155:266,1,100,2|0,0:0|0:0,0:0:0:0:
115,247,11882,1,2,0:0:0:0:
61,257,11992,2,0,L|0:374,1,100,0|2,0:0|0:0,0:0:0:0:
164,365,12433,5,2,0:0:0:0:
66,129,12654,1,0,0:0:0:0:
320,106,12875,1,0,0:0:0:0:
293,297,13095,5,0,0:0:0:0:
258,260,13205,1,0,0:0:0:0:
223,223,13316,1,0,0:0:0:0:
188,186,13426,1,0,0:0:0:0:
153,149,13536,1,0,0:0:0:0:
253,29,13757,5,2,0:0:0:0:
97,288,13978,1,2,0:0:0:0:
97,288,14419,6,0,L|185:377,1,100
317,298,14860,1,0,0:0:0:0:
336,298,14933,1,0,0:0:0:0:
356,298,15007,1,0,0:0:0:0:
375,298,15080,2,0,L|433:256,1,50,2|0,0:0|0:0,0:0:0:0:
496,232,15301,2,0,L|454:174,1,50
388,147,15522,5,2,0:0:0:0:
401,131,15595,1,0,0:0:0:0:
414,115,15669,1,0,0:0:0:0:
427,99,15742,2,0,L|381:35,1,50
318,20,15963,2,0,P|258:46|227:102,1,100
263,289,16404,6,0,P|203:263|172:207,1,100
167,183,16735,1,0,0:0:0:0:
152,129,16845,2,0,P|131:102|71:76,1,100
39,236,17286,5,0,0:0:0:0:
297,130,17507,1,0,0:0:0:0:
176,61,17728,5,0,0:0:0:0:
259,263,17948,1,0,0:0:0:0:
73,140,18169,5,0,0:0:0:0:
303,45,18389,1,0,0:0:0:0:
330,93,18500,1,0,0:0:0:0:
357,140,18610,1,0,0:0:0:0:
506,163,18830,5,0,0:0:0:0:
510,217,18940,1,0,0:0:0:0:
495,270,19050,1,0,0:0:0:0:
462,314,19160,1,0,0:0:0:0:
417,343,19271,1,0,0:0:0:0:
363,355,19381,1,0,0:0:0:0:
309,346,19492,2,0,L|240:226,1,100
87,223,19933,5,0,0:0:0:0:
119,178,20044,1,0,0:0:0:0:
151,133,20154,1,0,0:0:0:0:
183,88,20264,1,0,0:0:0:0:
215,43,20375,1,0,0:0:0:0:
327,143,20595,5,0,0:0:0:0:
347,193,20705,1,0,0:0:0:0:
368,244,20816,2,0,L|270:306,1,100
87,223,21257,1,0,0:0:0:0:
87,223,21478,5,0,0:0:0:0:
113,175,21588,1,0,0:0:0:0:
161,149,21698,1,0,0:0:0:0:
215,154,21808,1,0,0:0:0:0:
219,98,21919,5,0,0:0:0:0:
265,129,22029,1,0,0:0:0:0:
319,129,22139,1,0,0:0:0:0:
365,101,22249,1,0,0:0:0:0:
364,45,22360,5,0,0:0:0:0:
405,62,22470,1,0,0:0:0:0:
440,91,22580,1,0,0:0:0:0:
464,129,22690,1,0,0:0:0:0:
474,172,22801,1,0,0:0:0:0:
472,217,22911,1,0,0:0:0:0:
453,258,23022,2,0,L|333:279,1,100
158,359,23463,6,0,L|204:240,1,100
171,215,23794,1,0,0:0:0:0:
148,164,23904,2,0,L|194:45,1,100,0|0,0:0|0:0,0:0:0:0:
349,45,24345,5,0,0:0:0:0:
422,216,24566,1,0,0:0:0:0:
458,93,24786,5,0,0:0:0:0:
319,296,25007,1,0,0:0:0:0:
489,298,25228,5,0,0:0:0:0:
259,155,25448,1,0,0:0:0:0:
225,190,25558,1,0,0:0:0:0:
190,227,25669,1,0,0:0:0:0:
158,354,25889,5,0,0:0:0:0:
103,349,25999,1,0,0:0:0:0:
54,325,26109,1,0,0:0:0:0:
18,283,26219,1,0,0:0:0:0:
1,232,26330,1,0,0:0:0:0:
3,177,26440,1,0,0:0:0:0:
25,127,26551,2,0,L|144:127,1,100
233,19,26992,5,0,0:0:0:0:
254,64,27103,1,0,0:0:0:0:
275,108,27213,1,0,0:0:0:0:
296,152,27323,1,0,0:0:0:0:
317,196,27433,1,0,0:0:0:0:
452,172,27654,5,0,0:0:0:0:
433,218,27764,1,0,0:0:0:0:
414,264,27875,1,0,0:0:0:0:
231,295,28095,5,0,0:0:0:0:
275,317,28205,1,0,0:0:0:0:
319,340,28316,1,0,0:0:0:0:
275,108,28536,5,0,0:0:0:0:
230,131,28646,1,0,0:0:0:0:
185,154,28757,2,0,L|80:62,1,100
51,325,29198,6,0,L|174:263,1,100
184,312,29529,1,0,0:0:0:0:
228,344,29639,2,0,L|351:282,1,100
364,144,30080,5,0,0:0:0:0:
289,93,30522,5,0,0:0:0:0:
214,43,30963,5,0,0:0:0:0:
71,237,31183,1,0,0:0:0:0:
22,107,31404,5,0,0:0:0:0:
208,235,31625,1,0,0:0:0:0:
512,154,32066,5,0,0:0:0:0:
398,325,32286,1,0,0:0:0:0:
382,189,32507,1,0,0:0:0:0:
335,175,32617,1,0,0:0:0:0:
287,161,32728,1,0,0:0:0:0:
112,40,32948,5,0,0:0:0:0:
180,204,33169,1,0,0:0:0:0:
288,64,33389,1,0,0:0:0:0:
96,143,33610,5,0,0:0:0:0:
55,223,34051,5,0,0:0:0:0:
15,303,34492,5,0,0:0:0:0:
247,268,34713,1,0,0:0:0:0:
177,369,34933,5,0,0:0:0:0:
144,136,35154,1,0,0:0:0:0:
509,255,35595,5,0,0:0:0:0:
420,62,35816,1,0,0:0:0:0:
341,179,36036,1,0,0:0:0:0:
291,179,36147,1,0,0:0:0:0:
241,179,36257,1,0,0:0:0:0:
104,70,36478,5,0,0:0:0:0:
205,318,36698,1,0,0:0:0:0:
353,94,36919,1,0,0:0:0:0:
391,125,37029,1,0,0:0:0:0:
428,156,37139,2,0,L|396:285,1,100
303,340,37580,5,0,0:0:0:0:
265,204,37801,1,0,0:0:0:0:
161,300,38022,1,0,0:0:0:0:
123,164,38242,2,0,L|173:72,1,100
390,20,38683,6,0,P|469:91|448:191,1,200
361,301,39345,1,0,0:0:0:0:
263,165,39566,5,0,0:0:0:0:
252,179,39639,1,0,0:0:0:0:
241,193,39713,1,0,0:0:0:0:
230,207,39786,2,0,L|117:195,1,100
94,154,40117,1,0,0:0:0:0:
42,174,40228,2,0,P|11:200|7:273,1,89.9999972534181
107,359,40669,5,0,0:0:0:0:
269,270,40889,1,0,0:0:0:0:
60,165,41110,1,0,0:0:0:0:
331,40,41330,1,0,0:0:0:0:
107,359,41772,5,0,0:0:0:0:
128,207,41992,1,0,0:0:0:0:
269,270,42213,2,0,P|377:254|413:194,1,160
431,143,42801,1,0,0:0:0:0:
431,143,42875,2,0,L|370:92,1,66.6666666666667
386,57,43095,2,0,L|268:90,1,100
76,14,43536,6,0,L|130:92,1,66.6666666666667
157,72,43757,2,0,L|111:170,1,100
115,162,44088,1,0,0:0:0:0:
115,162,44198,1,0,0:0:0:0:
0,236,44419,5,0,0:0:0:0:
128,356,44639,1,0,0:0:0:0:
236,218,44860,1,0,0:0:0:0:
264,177,44970,1,0,0:0:0:0:
292,136,45080,1,0,0:0:0:0:
339,151,45191,1,0,0:0:0:0:
386,166,45301,2,0,L|465:50,1,100
478,276,45742,5,0,0:0:0:0:
478,276,45853,1,0,0:0:0:0:
478,276,45963,2,0,P|433:310|362:302,1,100
337,295,46294,1,0,0:0:0:0:
285,277,46404,2,0,P|242:279|198:314,1,100
156,371,46735,1,0,0:0:0:0:
156,371,46845,2,0,L|65:350,1,50
18,339,47066,5,0,0:0:0:0:
110,134,47286,1,0,0:0:0:0:
285,277,47507,1,0,0:0:0:0:
377,72,47727,1,0,0:0:0:0:
