osu file format v14

[General]
AudioFilename: Tsuki no inori.mp3
AudioLeadIn: 2000
PreviewTime: 67946
Countdown: 0
SampleSet: Soft
StackLeniency: 0.7
Mode: 0
LetterboxInBreaks: 1
WidescreenStoryboard: 0

[Editor]
Bookmarks: 105382
DistanceSpacing: 1
BeatDivisor: 4
GridSize: 4
TimelineZoom: 1

[Metadata]
Title:Tsuki no Inori
TitleUnicode:月の祈り
Artist:Suirenji Ruka starring Yamazaki Haruka
ArtistUnicode:水蓮寺ルカ starring 山崎はるか
Creator:Rizia
Version:Insane
Source:Hayate no Gotoku! Cuties
Tags:ハヤテのごとく! ending 福音 Fukuin kawaiwkyik Zero__wind
BeatmapID:821594
BeatmapSetID:99611

[Difficulty]
HPDrainRate:7
CircleSize:4
OverallDifficulty:7
ApproachRate:7
SliderMultiplier:1.8
SliderTickRate:2

[Events]
//Background and Video events
0,0,"BG.png",0,0
//Break Periods
2,97377,103969
//Storyboard Layer 0 (Background)
//Storyboard Layer 1 (Fail)
//Storyboard Layer 2 (Pass)
//Storyboard Layer 3 (Foreground)
//Storyboard Sound Samples

[TimingPoints]
-1284,512.820512820513,4,2,1,40,1,0
9869,-100,4,2,1,40,0,0
9997,-100,4,2,1,20,0,0
10254,-100,4,2,1,40,0,0
10510,-100,4,2,1,60,0,0
11792,-100,4,2,1,40,0,0
12048,-100,4,2,1,30,0,0
12305,-100,4,2,1,60,0,0
15125,-100,4,2,1,55,0,0
15638,-100,4,2,1,50,0,0
16151,-100,4,2,1,45,0,0
16664,-100,4,2,1,40,0,0
16920,-100,4,2,1,5,0,0
17177,-100,4,2,1,40,0,0
18459,-100,4,2,0,40,0,0
35638,-100,4,2,1,50,0,0
51023,-100,4,2,1,40,0,0
51279,-100,4,1,1,50,0,0
52048,-100,4,2,1,50,0,0
68459,-100,4,2,1,60,0,1
84741,-100,4,2,1,60,0,0
84869,-100,4,2,1,60,0,1
97177,-100,4,2,1,50,0,0
120766,-100,4,2,1,40,0,0
121023,-100,4,1,1,50,0,0
121792,-100,4,2,1,50,0,0
136664,-100,4,2,1,40,0,0
137177,-100,4,2,1,30,0,0
137946,-100,4,2,1,50,0,0
138203,-100,4,2,1,60,0,1
154485,-100,4,2,1,60,0,0
154613,-100,4,2,1,60,0,1
166921,-100,4,2,1,50,0,0
174100,-100,4,1,1,50,0,0
175382,-100,4,2,1,50,0,0
182561,-100,4,1,1,50,0,0
182946,-100,4,2,1,50,0,0
183330,-200,4,2,1,50,0,0
185125,-100,4,2,1,50,0,0
193074,-100,4,2,1,40,0,0
193330,-100,4,2,1,50,0,0
193587,-100,4,2,1,60,0,1
201664,-100,4,2,1,60,0,0
201792,-100,4,2,1,60,0,1
214100,-100,4,2,1,50,0,0
224356,-100,4,1,1,50,0,0

[Colours]
Combo1 : 0,64,128
Combo2 : 0,128,255
Combo3 : 0,255,255
Combo4 : 192,192,192

[HitObjects]
84,112,510,5,0,0:0:0:0:
84,112,639,1,0,0:0:0:0:
84,112,767,1,2,0:0:0:0:
160,156,1023,1,0,0:0:0:0:
224,92,1280,1,0,0:0:0:0:
304,136,1536,6,0,P|352:148|428:48,1,180,2|0,0:0|0:0,0:0:0:0:
240,196,2305,1,0,0:0:0:0:
240,196,2562,2,0,P|192:184|116:284,1,180,2|0,0:0|0:0,0:0:0:0:
200,268,3331,1,0,0:0:0:0:
128,116,3587,5,0,0:0:0:0:
128,116,3844,1,2,0:0:0:0:
384,116,4357,1,0,0:0:0:0:
384,116,4613,1,2,0:0:0:0:
336,216,4869,6,0,P|344:236|352:320,1,90
212,288,5382,1,0,0:0:0:0:
268,156,5639,1,2,0:0:0:0:
120,64,6151,6,0,P|80:84|28:88,2,90,0|0|2,0:0|0:0|0:0,0:0:0:0:
392,64,7177,2,0,P|432:84|484:88,2,90,0|0|2,0:0|0:0|0:0,0:0:0:0:
176,184,8203,5,0,0:0:0:0:
336,184,8459,1,0,0:0:0:0:
256,216,8716,5,2,0:0:0:0:
256,232,8844,1,2,0:0:0:0:
256,248,8972,2,0,P|260:296|328:336,1,90,2|0,0:0|0:0,0:0:0:0:
344,256,9485,1,0,0:0:0:0:
392,188,9741,2,0,L|448:200,2,45,2|0|0,0:0|0:0|0:0,0:0:0:0:
376,100,10254,1,0,0:0:0:0:
300,52,10510,1,0,0:0:0:0:
212,76,10767,6,0,P|168:96|64:80,1,135,2|0,0:0|0:0,0:0:0:0:
56,124,11280,2,0,L|60:228,1,90,2|2,0:0|0:0,0:0:0:0:
59,213,11792,1,0,0:0:0:0:
176,336,12049,2,0,P|176:292|160:232,1,90,0|2,0:0|0:0,0:0:0:0:
256,240,12562,2,0,P|236:199|196:151,1,90,2|2,0:0|0:0,0:0:0:0:
124,188,13074,5,0,0:0:0:0:
107,101,13331,1,0,0:0:0:0:
197,84,13587,1,0,0:0:0:0:
216,172,13844,2,0,P|248:200|368:160,1,180,2|0,0:0|0:0,0:0:0:0:
394,80,14613,2,0,P|349:79|308:96,1,90,0|6,0:0|0:0,0:0:0:0:
256,192,14998,12,0,16921,0:0:0:0:
256,264,17177,5,0,0:0:0:0:
184,204,17433,1,0,0:0:0:0:
328,204,17690,1,0,0:0:0:0:
256,148,17946,1,0,0:0:0:0:
256,58,18203,2,0,L|256:148,1,90,0|0,0:0|0:0,0:0:0:0:
328,204,18716,1,2,0:0:0:0:
184,204,18972,1,0,0:0:0:0:
180,116,19228,6,0,P|136:116|80:104,2,90,4|0|0,0:0|0:0|0:0,0:0:0:0:
192,28,19998,2,0,P|232:48|384:52,1,180
452,72,20767,1,8,0:0:0:0:
408,152,21023,2,0,P|388:184|380:244,1,90
320,304,21536,2,0,P|280:324|216:320,1,90,0|0,0:0|0:0,0:0:0:0:
101,221,22049,2,0,P|208:212|280:220,1,180
348,164,22818,2,0,P|356:124|344:64,1,90,0|0,0:0|0:0,0:0:0:0:
392,244,23331,5,0,0:0:0:0:
448,316,23587,1,0,0:0:0:0:
376,368,23844,1,0,0:0:0:0:
316,300,24100,2,0,P|256:316|116:276,1,180
68,240,24869,2,0,P|28:192|20:148,2,90,8|0|0,0:0|0:0|0:0,0:0:0:0:
184,128,25639,5,0,0:0:0:0:
344,168,25895,1,0,0:0:0:0:
281,253,26151,2,0,P|264:208|276:79,1,180
281,253,26921,2,0,P|218:256|194:248,1,90
108,112,27433,5,0,0:0:0:0:
28,156,27690,1,0,0:0:0:0:
48,244,27946,1,0,0:0:0:0:
12,328,28203,2,0,B|44:340|44:340|112:304|220:344,1,180
276,328,28972,1,8,0:0:0:0:
348,272,29228,2,0,P|372:220|368:160,1,90
348,100,29741,1,0,0:0:0:0:
288,164,29998,1,0,0:0:0:0:
440,128,30254,1,0,0:0:0:0:
328,12,30510,5,0,0:0:0:0:
264,76,30767,1,0,0:0:0:0:
324,256,31023,1,0,0:0:0:0:
348,100,31280,1,0,0:0:0:0:
176,84,31536,6,0,P|124:68|20:140,1,180
60,248,32305,2,0,P|112:264|216:192,1,180
336,124,33074,1,8,0:0:0:0:
484,220,33331,2,0,B|436:252|436:252|312:228,1,180
336,124,34100,1,0,0:0:0:0:
336,124,34357,1,0,0:0:0:0:
180,68,34613,6,0,L|187:115,3,45,2|2|2|2,0:0|0:0|0:0|0:0,0:0:0:0:
196,160,35126,1,2,0:0:0:0:
148,148,35254,1,2,0:0:0:0:
100,156,35382,1,2,0:0:0:0:
60,184,35510,1,2,0:0:0:0:
40,224,35639,6,0,P|20:272|32:340,1,90,4|0,0:0|0:0,0:0:0:0:
128,368,36151,2,0,P|168:356|224:360,1,90,8|0,0:0|0:0,0:0:0:0:
256,336,36536,1,0,0:0:0:0:
300,344,36664,1,0,0:0:0:0:
388,356,36921,1,0,0:0:0:0:
356,272,37177,1,8,0:0:0:0:
412,200,37433,1,0,0:0:0:0:
412,200,37562,1,0,0:0:0:0:
412,200,37690,6,0,P|428:152|436:92,1,90
316,36,38203,2,0,P|300:84|292:144,1,90,8|0,0:0|0:0,0:0:0:0:
260,152,38587,1,0,0:0:0:0:
268,196,38716,2,0,P|276:252|280:304,1,90
122,345,39228,2,0,P|114:289|110:237,1,90,8|0,0:0|0:0,0:0:0:0:
148,172,39741,5,0,0:0:0:0:
236,196,39998,1,0,0:0:0:0:
312,144,40254,2,0,P|320:88|324:36,1,90,8|0,0:0|0:0,0:0:0:0:
322,54,40639,1,0,0:0:0:0:
322,54,40767,1,0,0:0:0:0:
176,80,41023,2,0,P|116:92|60:100,1,90,0|8,0:0|0:0,0:0:0:0:
12,232,41536,6,0,P|60:264|196:220,1,180
224,168,42305,1,8,0:0:0:0:
308,200,42562,1,0,0:0:0:0:
308,200,42690,1,0,0:0:0:0:
308,200,42818,2,0,P|324:156|320:100,1,90
268,40,43331,1,8,0:0:0:0:
236,264,43587,1,0,0:0:0:0:
236,264,43716,1,0,0:0:0:0:
236,264,43844,6,0,P|184:252|140:248,1,90,4|0,0:0|0:0,0:0:0:0:
52,276,44357,2,0,P|44:232|48:180,1,90,8|0,0:0|0:0,0:0:0:0:
28,140,44741,1,0,0:0:0:0:
52,96,44869,1,0,0:0:0:0:
132,152,45126,1,0,0:0:0:0:
224,116,45382,2,0,P|256:112|324:124,1,90,8|0,0:0|0:0,0:0:0:0:
364,204,45895,5,0,0:0:0:0:
444,148,46151,2,0,L|436:48,2,90,0|8|0,0:0|0:0|0:0,0:0:0:0:
448,196,46792,1,0,0:0:0:0:
452,244,46921,1,0,0:0:0:0:
360,328,47177,2,0,P|316:308|264:308,1,90,0|8,0:0|0:0,0:0:0:0:
152,332,47690,1,0,0:0:0:0:
88,228,47946,6,0,P|92:180|68:88,1,135
12,52,48459,2,0,P|56:60|120:52,1,90,8|0,0:0|0:0,0:0:0:0:
180,64,48972,1,0,0:0:0:0:
352,124,49228,1,0,0:0:0:0:
180,64,49485,1,8,0:0:0:0:
352,124,49741,1,0,0:0:0:0:
212,236,49998,6,0,P|224:280|264:328,1,90
296,324,50382,1,0,0:0:0:0:
340,312,50510,2,0,P|388:296|444:300,1,90,8|0,0:0|0:0,0:0:0:0:
472,220,51023,1,0,0:0:0:0:
456,132,51280,5,8,0:0:0:0:
324,212,51536,1,8,0:0:0:0:
236,88,51792,1,8,0:0:0:0:
184,160,52049,6,0,P|140:184|92:192,1,90,4|0,0:0|0:0,0:0:0:0:
60,212,52433,1,0,0:0:0:0:
28,180,52562,1,8,0:0:0:0:
108,16,52818,1,0,0:0:0:0:
108,16,52946,1,0,0:0:0:0:
108,16,53074,2,0,P|100:72|92:104,1,90
200,248,53587,2,0,P|189:204|183:159,1,90,8|0,0:0|0:0,0:0:0:0:
144,344,54100,6,0,P|188:356|260:352,1,90
316,320,54613,1,8,0:0:0:0:
403,303,54869,2,0,P|347:237|260:252,1,180
272,204,55510,1,0,0:0:0:0:
280,160,55639,1,8,0:0:0:0:
300,52,55895,1,0,0:0:0:0:
200,92,56151,6,0,L|104:108,1,90
272,204,56664,1,8,0:0:0:0:
380,128,56921,1,0,0:0:0:0:
380,128,57049,1,0,0:0:0:0:
380,128,57177,2,0,L|476:112,1,90
300,52,57690,1,8,0:0:0:0:
336,224,57946,1,0,0:0:0:0:
468,113,58203,5,0,0:0:0:0:
422,288,58459,2,0,P|429:243|440:200,1,90,0|8,0:0|0:0,0:0:0:0:
328,332,58972,2,0,P|304:292|172:296,1,180
172,240,59613,1,0,0:0:0:0:
164,196,59741,1,8,0:0:0:0:
148,108,59998,1,0,0:0:0:0:
232,136,60254,6,0,P|280:152|336:144,1,90,4|0,0:0|0:0,0:0:0:0:
420,92,60767,1,8,0:0:0:0:
484,188,61023,1,0,0:0:0:0:
484,188,61151,1,0,0:0:0:0:
484,188,61280,2,0,L|464:300,2,90,0|0|8,0:0|0:0|0:0,0:0:0:0:
420,92,62049,6,0,P|368:108|272:28,1,180
172,80,62818,2,0,P|160:128|152:184,1,90,8|0,0:0|0:0,0:0:0:0:
230,309,63331,2,0,P|262:269|266:185,1,135
242,153,63844,2,0,L|142:169,1,90,8|0,0:0|0:0,0:0:0:0:
60,224,64357,5,0,0:0:0:0:
104,324,64613,1,0,0:0:0:0:
104,324,64741,1,0,0:0:0:0:
104,324,64869,1,8,0:0:0:0:
208,296,65126,2,0,P|272:304|396:328,1,180
452,192,65895,1,8,0:0:0:0:
385,58,66151,1,0,0:0:0:0:
385,58,66280,1,0,0:0:0:0:
385,58,66408,2,0,P|297:76|208:88,2,180,6|2|2,0:0|0:0|0:0,0:0:0:0:
132,232,67946,5,2,0:0:0:0:
380,232,68203,1,2,0:0:0:0:
224,172,68459,6,0,P|236:124|216:68,1,90,4|0,0:0|0:0,0:0:0:0:
236,288,68972,1,8,0:0:0:0:
71,152,69228,2,0,P|36:232|72:312,1,180
132,232,69998,1,8,0:0:0:0:
180,360,70254,6,0,P|232:376|324:296,1,180
316,260,70895,1,0,0:0:0:0:
308,216,71023,1,8,0:0:0:0:
280,76,71280,1,0,0:0:0:0:
416,120,71536,1,0,0:0:0:0:
164,168,71792,1,0,0:0:0:0:
164,168,71921,1,0,0:0:0:0:
164,168,72049,1,8,0:0:0:0:
276,48,72305,1,0,0:0:0:0:
316,240,72562,6,0,P|328:292|336:344,2,90,4|0|8,0:0|0:0|0:0,0:0:0:0:
212,304,73331,2,0,P|160:320|56:240,1,180
256,168,74100,1,8,0:0:0:0:
300,304,74357,2,0,P|352:320|456:240,1,180
388,112,75126,1,8,0:0:0:0:
256,168,75382,5,0,0:0:0:0:
256,168,75510,1,8,0:0:0:0:
256,168,75639,2,0,L|184:156,1,45,8|8,0:0|0:0,0:0:0:0:
120,144,75895,1,0,0:0:0:0:
184,328,76151,1,8,0:0:0:0:
336,204,76408,1,0,0:0:0:0:
336,204,76536,1,0,0:0:0:0:
336,204,76664,6,0,P|344:148|272:80,1,135,4|0,0:0|0:0,0:0:0:0:
256,76,77177,2,0,L|160:84,1,90,8|0,0:0|0:0,0:0:0:0:
48,184,77690,1,0,0:0:0:0:
212,224,77946,1,0,0:0:0:0:
48,184,78203,1,8,0:0:0:0:
168,60,78459,1,0,0:0:0:0:
112,272,78716,5,0,0:0:0:0:
48,184,78972,1,0,0:0:0:0:
212,224,79228,2,0,L|316:216,1,90,8|0,0:0|0:0,0:0:0:0:
420,304,79741,2,0,P|372:308|320:324,1,90
331,319,80126,1,0,0:0:0:0:
331,319,80254,1,8,0:0:0:0:
356,212,80510,6,0,P|376:164|308:56,1,180
276,40,81151,1,0,0:0:0:0:
232,44,81280,1,8,0:0:0:0:
148,144,81536,1,0,0:0:0:0:
148,144,81664,1,0,0:0:0:0:
148,144,81792,2,0,L|52:136,1,90
228,264,82305,1,8,0:0:0:0:
296,140,82562,6,0,P|348:124|448:216,1,180,4|0,0:0|0:0,0:0:0:0:
424,324,83331,1,8,0:0:0:0:
356,216,83587,2,0,P|348:140|328:44,1,135,4|8,0:0|0:0,0:0:0:0:
320,40,84100,1,0,0:0:0:0:
156,208,84357,2,0,P|124:176|140:80,1,135,8|0,0:0|0:0,0:0:0:0:
192,140,84869,6,0,P|184:216|152:344,1,180,4|8,0:0|0:0,0:0:0:0:
72,324,85639,1,0,0:0:0:0:
112,244,85895,1,0,0:0:0:0:
200,236,86151,1,0,0:0:0:0:
248,312,86408,1,8,0:0:0:0:
252,160,86664,6,0,P|240:112|296:0,1,180
336,16,87305,1,0,0:0:0:0:
380,32,87433,2,0,L|476:24,1,90,8|0,0:0|0:0,0:0:0:0:
380,160,87946,2,0,L|335:156,2,45,8|0|0,0:0|0:0|0:0,0:0:0:0:
460,280,88459,2,0,L|504:276,1,45,8|0,0:0|0:0,0:0:0:0:
360,340,88716,2,0,L|315:336,1,45,8|0,0:0|0:0,0:0:0:0:
440,264,88972,6,0,P|432:220|424:156,1,90,4|0,0:0|0:0,0:0:0:0:
312,104,89485,1,8,0:0:0:0:
192,208,89741,2,0,P|264:184|356:252,1,180
260,292,90510,1,8,0:0:0:0:
100,264,90767,6,0,P|76:192|108:92,1,180
284,128,91536,1,8,0:0:0:0:
105,95,91792,1,0,0:0:0:0:
212,32,92049,1,0,0:0:0:0:
180,188,92305,1,0,0:0:0:0:
180,188,92433,1,0,0:0:0:0:
180,188,92562,1,8,0:0:0:0:
340,224,92818,1,0,0:0:0:0:
372,68,93074,6,0,P|420:76|480:96,1,90,4|0,0:0|0:0,0:0:0:0:
340,224,93587,2,0,P|296:236|252:243,1,90,8|0,0:0|0:0,0:0:0:0:
424,160,94100,1,0,0:0:0:0:
388,324,94357,1,0,0:0:0:0:
252,243,94613,1,8,0:0:0:0:
448,80,94869,6,0,P|496:116|472:232,1,180
440,244,95510,1,0,0:0:0:0:
396,240,95639,1,8,0:0:0:0:
256,88,95895,1,0,0:0:0:0:
192,308,96151,6,0,L|348:288,1,135,8|0,0:0|0:0,0:0:0:0:
400,340,96664,2,0,P|336:364|288:388,1,90,8|2,0:0|0:0,0:0:0:0:
316,373,97049,1,2,0:0:0:0:
316,373,97177,1,6,0:0:0:0:
108,196,104869,5,0,0:0:0:0:
140,280,105126,1,0,0:0:0:0:
160,120,105382,2,0,P|120:108|64:112,2,90,4|0|8,0:0|0:0|0:0,0:0:0:0:
236,172,106151,2,0,P|248:136|240:72,1,90
160,120,106664,1,0,0:0:0:0:
308,224,106921,1,8,0:0:0:0:
144,304,107177,6,0,P|209:306|344:316,1,180
316,268,107818,1,0,0:0:0:0:
308,224,107946,1,8,0:0:0:0:
228,352,108203,1,0,0:0:0:0:
104,276,108459,2,0,P|48:292|-8:304,1,90
88,152,108972,2,0,P|131:162|174:175,1,90,8|0,0:0|0:0,0:0:0:0:
268,212,109485,5,0,0:0:0:0:
300,120,109741,1,0,0:0:0:0:
208,84,109998,1,8,0:0:0:0:
174,175,110254,1,0,0:0:0:0:
174,175,110382,1,0,0:0:0:0:
174,175,110510,2,0,P|180:222|184:264,1,90
280,292,111023,2,0,P|269:338|258:379,1,90,8|0,0:0|0:0,0:0:0:0:
164,356,111536,5,0,0:0:0:0:
332,232,111792,1,0,0:0:0:0:
174,175,112049,1,8,0:0:0:0:
280,292,112305,1,0,0:0:0:0:
280,292,112433,1,0,0:0:0:0:
280,292,112562,2,0,P|324:312|412:224,1,180,0|8,0:0|0:0,0:0:0:0:
372,144,113331,1,0,0:0:0:0:
280,112,113587,6,0,P|231:118|192:128,2,90,4|0|8,0:0|0:0|0:0,0:0:0:0:
120,192,114357,1,0,0:0:0:0:
120,192,114485,1,0,0:0:0:0:
120,192,114613,2,0,P|108:148|100:96,1,90
212,224,115126,1,8,0:0:0:0:
140,288,115382,6,0,P|92:296|52:316,1,90
236,320,115895,1,0,0:0:0:0:
280,300,116023,1,0,0:0:0:0:
328,296,116151,1,8,0:0:0:0:
420,336,116408,2,0,P|440:288|404:164,1,180
328,112,117177,2,0,P|284:124|228:124,1,90,8|0,0:0|0:0,0:0:0:0:
164,188,117690,6,0,P|100:176|16:168,1,135
4,132,118203,2,0,P|12:76|16:28,1,90,8|0,0:0|0:0,0:0:0:0:
15,42,118587,1,0,0:0:0:0:
15,42,118716,1,0,0:0:0:0:
124,104,118972,1,0,0:0:0:0:
244,68,119228,1,8,0:0:0:0:
340,148,119485,1,0,0:0:0:0:
364,24,119741,1,0,0:0:0:0:
248,164,119998,5,0,0:0:0:0:
424,192,120254,1,8,0:0:0:0:
364,24,120510,1,0,0:0:0:0:
320,236,120767,5,0,0:0:0:0:
460,88,121023,1,8,0:0:0:0:
320,236,121280,1,8,0:0:0:0:
460,88,121536,1,0,0:0:0:0:
460,88,121664,1,0,0:0:0:0:
460,88,121792,6,0,P|404:108|356:116,1,90,4|0,0:0|0:0,0:0:0:0:
272,168,122305,2,0,P|213:157|167:140,1,90,8|0,0:0|0:0,0:0:0:0:
156,112,122690,1,0,0:0:0:0:
172,68,122818,1,0,0:0:0:0:
352,108,123074,1,0,0:0:0:0:
352,108,123203,1,0,0:0:0:0:
352,108,123331,2,0,P|364:144|368:204,1,90,8|0,0:0|0:0,0:0:0:0:
300,256,123844,5,0,0:0:0:0:
452,312,124100,1,0,0:0:0:0:
300,256,124357,1,8,0:0:0:0:
164,344,124613,1,0,0:0:0:0:
164,344,124741,1,0,0:0:0:0:
164,344,124869,2,0,P|152:288|144:244,1,90
224,48,125382,1,8,0:0:0:0:
220,80,125510,1,0,0:0:0:0:
216,112,125639,1,8,0:0:0:0:
212,144,125767,1,0,0:0:0:0:
208,176,125895,6,0,P|160:168|112:164,1,90
20,256,126408,1,8,0:0:0:0:
140,316,126664,2,0,P|208:324|336:352,1,180
328,304,127305,1,0,0:0:0:0:
340,260,127433,1,8,0:0:0:0:
368,148,127690,1,0,0:0:0:0:
256,184,127946,6,0,P|208:200|164:196,2,90,0|0|8,0:0|0:0|0:0,0:0:0:0:
448,232,128716,2,0,P|476:184|448:64,1,180
368,148,129485,1,8,0:0:0:0:
268,88,129741,1,0,0:0:0:0:
268,88,129869,1,0,0:0:0:0:
268,88,129998,6,0,P|216:96|160:100,1,90,4|0,0:0|0:0,0:0:0:0:
104,176,130510,1,8,0:0:0:0:
176,256,130767,2,0,P|228:248|284:244,1,90
348,176,131280,1,0,0:0:0:0:
368,284,131536,1,8,0:0:0:0:
348,176,131792,1,0,0:0:0:0:
368,284,132049,6,0,P|356:340|352:380,1,90
472,308,132562,2,0,P|466:263|456:219,1,90,8|0,0:0|0:0,0:0:0:0:
276,244,133074,2,0,P|232:256|108:276,1,135
100,280,133587,2,0,P|116:344|120:380,1,90,8|0,0:0|0:0,0:0:0:0:
296,340,134100,5,0,0:0:0:0:
284,216,134357,1,0,0:0:0:0:
184,292,134613,1,8,0:0:0:0:
396,272,134869,2,0,P|408:224|348:108,1,180
156,32,135639,1,8,0:0:0:0:
256,88,135895,1,0,0:0:0:0:
264,108,136023,1,0,0:0:0:0:
268,128,136151,5,4,0:0:0:0:
228,208,136408,1,0,0:0:0:0:
184,124,136664,1,2,0:0:0:0:
316,204,136921,1,0,0:0:0:0:
176,280,137177,1,2,0:0:0:0:
228,208,137433,1,0,0:0:0:0:
268,292,137690,6,0,L|260:360,1,45,2|0,0:0|0:0,0:0:0:0:
136,200,137946,2,0,L|68:192,1,45,2|0,0:0|0:0,0:0:0:0:
268,372,138203,6,0,P|316:364|372:348,1,90,4|0,0:0|0:0,0:0:0:0:
400,336,138587,1,0,0:0:0:0:
444,348,138716,2,0,P|455:304|462:260,1,90,8|0,0:0|0:0,0:0:0:0:
456,144,139228,1,0,0:0:0:0:
316,176,139485,1,0,0:0:0:0:
352,36,139741,1,8,0:0:0:0:
380,232,139998,6,0,P|328:260|236:196,1,180
316,176,140767,1,8,0:0:0:0:
144,268,141023,2,0,P|132:220|124:168,1,90
316,176,141536,1,0,0:0:0:0:
316,176,141664,1,0,0:0:0:0:
316,176,141792,1,8,0:0:0:0:
120,284,142049,1,0,0:0:0:0:
360,112,142305,6,0,P|392:148|388:208,1,90,4|0,0:0|0:0,0:0:0:0:
336,304,142818,1,8,0:0:0:0:
216,240,143074,2,0,P|200:180|260:64,1,180
316,176,143844,1,8,0:0:0:0:
244,336,144100,6,0,B|100:320|100:320|56:340,1,180
76,152,144869,1,8,0:0:0:0:
216,240,145126,1,0,0:0:0:0:
216,240,145254,1,8,0:0:0:0:
216,240,145382,2,0,L|224:184,1,45,8|8,0:0|0:0,0:0:0:0:
236,104,145639,1,0,0:0:0:0:
428,40,145895,1,8,0:0:0:0:
444,68,146023,1,0,0:0:0:0:
456,96,146151,1,8,0:0:0:0:
468,124,146280,1,0,0:0:0:0:
472,156,146408,6,0,P|420:148|328:144,1,135,4|0,0:0|0:0,0:0:0:0:
300,168,146921,2,0,P|308:224|312:288,1,90,8|0,0:0|0:0,0:0:0:0:
176,320,147433,1,0,0:0:0:0:
168,204,147690,1,0,0:0:0:0:
324,292,147946,1,8,0:0:0:0:
456,168,148203,6,0,P|468:112|392:24,1,180
248,80,148972,1,8,0:0:0:0:
376,120,149228,1,0,0:0:0:0:
376,120,149357,1,0,0:0:0:0:
376,120,149485,1,0,0:0:0:0:
196,168,149741,1,0,0:0:0:0:
372,216,149998,1,8,0:0:0:0:
192,276,150254,6,0,P|132:260|-8:236,1,180
124,148,151023,1,8,0:0:0:0:
282,227,151280,1,0,0:0:0:0:
282,227,151408,1,0,0:0:0:0:
282,227,151536,2,0,P|330:219|378:215,1,90
464,252,152049,1,8,0:0:0:0:
406,63,152305,6,0,P|362:103|378:223,1,180,4|0,0:0|0:0,0:0:0:0:
472,156,153074,1,8,0:0:0:0:
307,313,153331,2,0,P|291:257|279:221,1,90,4|0,0:0|0:0,0:0:0:0:
281,226,153716,1,8,0:0:0:0:
281,226,153844,1,8,0:0:0:0:
136,316,154100,2,0,L|184:304,1,45,8|0,0:0|0:0,0:0:0:0:
220,172,154357,2,0,L|172:160,1,45
52,124,154613,6,0,P|44:76|48:20,1,90,4|0,0:0|0:0,0:0:0:0:
184,72,155126,1,8,0:0:0:0:
316,12,155382,2,0,P|360:40|352:160,1,180
184,72,156151,1,8,0:0:0:0:
281,226,156408,2,0,P|321:206|457:182,1,180
376,324,157177,1,8,0:0:0:0:
216,300,157433,2,0,P|126:290|43:255,1,180
136,16,158203,1,8,0:0:0:0:
156,188,158459,1,0,0:0:0:0:
136,16,158716,5,0,0:0:0:0:
224,64,158972,2,0,P|264:76|316:72,1,90,0|8,0:0|0:0,0:0:0:0:
440,144,159485,2,0,P|372:140|276:212,1,180
200,296,160254,1,8,0:0:0:0:
324,320,160510,6,0,P|361:263|347:143,1,180
224,64,161280,1,8,0:0:0:0:
104,160,161536,2,0,L|28:172,1,45,0|8,0:0|0:0,0:0:0:0:
168,96,161792,2,0,L|244:108,1,45,8|8,0:0|0:0,0:0:0:0:
248,200,162049,1,0,0:0:0:0:
148,300,162305,1,8,0:0:0:0:
168,24,162562,1,0,0:0:0:0:
168,24,162690,1,0,0:0:0:0:
168,24,162818,6,0,P|216:36|312:52,1,135,4|0,0:0|0:0,0:0:0:0:
344,52,163331,2,0,P|328:104|320:152,1,90,8|0,0:0|0:0,0:0:0:0:
416,116,163844,1,0,0:0:0:0:
364,280,164100,1,0,0:0:0:0:
416,116,164357,1,8,0:0:0:0:
252,164,164613,6,0,P|196:184|76:104,1,180
184,76,165382,1,8,0:0:0:0:
280,272,165639,1,0,0:0:0:0:
356,196,165895,2,0,P|404:184|512:172,1,135
484,128,166408,2,0,P|468:64|460:20,1,90,8|2,0:0|0:0,0:0:0:0:
384,64,166792,1,2,0:0:0:0:
384,64,166921,6,0,P|320:52|264:48,1,90,4|0,0:0|0:0,0:0:0:0:
184,76,167433,1,8,0:0:0:0:
264,160,167690,1,0,0:0:0:0:
152,192,167946,2,0,P|107:182|63:177,1,90
236,276,168459,1,8,0:0:0:0:
272,128,168716,1,0,0:0:0:0:
384,232,168972,6,0,P|432:248|512:152,1,180,0|8,0:0|0:0,0:0:0:0:
316,148,169741,2,0,P|300:204|296:328,1,180
432,168,170510,2,0,P|424:112|408:56,1,90,8|0,0:0|0:0,0:0:0:0:
284,160,171023,6,0,P|224:148|120:132,1,135
108,156,171536,2,0,P|52:164|8:172,1,90,8|0,0:0|0:0,0:0:0:0:
19,169,171921,1,0,0:0:0:0:
19,169,172049,1,0,0:0:0:0:
144,56,172305,1,0,0:0:0:0:
184,244,172562,1,8,0:0:0:0:
48,80,172818,1,0,0:0:0:0:
212,132,173074,6,0,P|264:144|356:84,1,135
404,64,173587,2,0,P|380:124|360:204,1,135,8|8,0:0|0:0,0:0:0:0:
376,272,174100,6,0,L|328:284,1,45,8|8,0:0|0:0,0:0:0:0:
244,304,174357,1,8,0:0:0:0:
444,216,174613,1,8,0:0:0:0:
288,120,174869,1,8,0:0:0:0:
292,92,174998,1,8,0:0:0:0:
296,64,175126,1,12,0:0:0:0:
272,220,175382,5,0,0:0:0:0:
444,216,175639,2,0,P|404:184|340:188,1,90,8|0,0:0|0:0,0:0:0:0:
145,179,176151,2,0,P|101:186|68:216,1,90
136,368,176664,2,0,L|160:264,1,90,8|0,0:0|0:0,0:0:0:0:
355,280,177177,2,0,L|376:368,1,90
256,244,177690,1,8,0:0:0:0:
436,164,177946,1,0,0:0:0:0:
436,164,178074,1,0,0:0:0:0:
436,164,178203,6,0,P|424:108|412:16,1,135
372,12,178716,1,8,0:0:0:0:
272,128,178972,1,0,0:0:0:0:
132,68,179228,6,0,P|120:132|80:252,1,180,0|8,0:0|0:0,0:0:0:0:
319,301,179998,2,0,P|289:215|271:127,1,180
136,336,180767,2,0,P|180:344|240:356,1,90,8|0,0:0|0:0,0:0:0:0:
376,360,181280,6,0,P|400:316|320:220,1,180,0|8,0:0|0:0,0:0:0:0:
220,244,182049,1,0,0:0:0:0:
220,244,182177,1,0,0:0:0:0:
220,244,182305,1,0,0:0:0:0:
296,108,182562,1,8,0:0:0:0:
300,80,182690,1,8,0:0:0:0:
304,52,182818,1,8,0:0:0:0:
124,160,183074,1,0,0:0:0:0:
214,346,183331,6,0,B|246:318|246:318|278:346|278:346|314:326|314:326|394:366|454:334,1,270,4|0,0:0|0:0,0:0:0:0:
451,335,185126,1,0,0:0:0:0:
451,335,185382,1,4,0:0:0:0:
282,78,186664,5,4,1:0:0:0:
340,271,187049,1,4,1:0:0:0:
144,225,187433,1,4,1:0:0:0:
367,158,188716,5,4,1:0:0:0:
229,305,189100,1,4,1:0:0:0:
171,112,189485,1,4,1:0:0:0:
360,80,190767,6,0,B|404:88|404:88|516:60,2,135,4|4|4,1:0|1:0|1:0,0:0:0:0:
152,80,192049,1,4,1:0:0:0:
256,192,192562,5,4,1:0:0:0:
256,192,192818,1,4,1:0:0:0:
256,192,193074,2,2,L|256:152,6,22.5
252,228,193587,6,0,P|204:236|164:248,1,90,4|0,0:0|0:0,0:0:0:0:
92,328,194100,2,0,P|140:336|180:348,1,90,8|0,0:0|0:0,0:0:0:0:
356,352,194613,2,0,P|340:309|329:266,2,90,0|0|8,0:0|0:0|0:0,0:0:0:0:
432,276,195382,1,0,0:0:0:0:
348,148,195639,5,0,0:0:0:0:
244,248,195895,1,0,0:0:0:0:
492,196,196151,1,8,0:0:0:0:
296,64,196408,1,0,0:0:0:0:
296,64,196536,1,0,0:0:0:0:
296,64,196664,1,0,0:0:0:0:
332,280,196921,1,0,0:0:0:0:
176,180,197177,1,8,0:0:0:0:
176,352,197433,6,0,P|240:336|356:320,1,180
248,228,198203,1,8,0:0:0:0:
420,372,198459,2,0,P|448:328|392:196,1,180
256,136,199228,1,8,0:0:0:0:
95,212,199485,6,0,P|58:291|92:372,1,180,12|0,0:0|0:0,0:0:0:0:
284,288,200254,1,8,0:0:0:0:
332,88,200510,2,8,P|292:56|184:76,1,135,12|8,0:0|0:0,0:0:0:0:
176,88,201023,1,8,0:0:0:0:
364,260,201280,2,0,P|420:268|484:216,1,135,8|0,0:0|0:0,0:0:0:0:
404,184,201792,6,0,P|353:188|280:200,1,90,4|0,0:0|0:0,0:0:0:0:
236,236,202305,2,0,P|188:232|128:228,1,90,8|0,0:0|0:0,0:0:0:0:
52,264,202818,1,0,0:0:0:0:
128,144,203074,1,0,0:0:0:0:
188,316,203331,1,8,0:0:0:0:
320,192,203587,6,0,P|368:176|468:256,1,180
368,272,204357,1,8,0:0:0:0:
236,160,204613,2,0,L|228:108,2,45
260,304,205126,1,0,0:0:0:0:
260,304,205254,1,0,0:0:0:0:
260,304,205382,1,8,0:0:0:0:
116,244,205639,1,0,0:0:0:0:
163,48,205895,5,0,0:0:0:0:
260,304,206151,1,0,0:0:0:0:
372,112,206408,1,8,0:0:0:0:
196,200,206664,2,0,P|152:160|168:44,1,180
320,192,207433,1,8,0:0:0:0:
260,304,207690,6,0,P|208:312|84:344,1,180
196,200,208459,1,8,0:0:0:0:
364,288,208716,2,0,P|376:344|380:380,1,90
260,304,209228,1,0,0:0:0:0:
260,304,209357,1,0,0:0:0:0:
260,304,209485,1,8,0:0:0:0:
344,184,209741,1,0,0:0:0:0:
476,260,209998,6,0,P|496:208|488:156,1,90,4|0,0:0|0:0,0:0:0:0:
336,24,210510,2,0,P|316:76|324:128,1,90,8|0,0:0|0:0,0:0:0:0:
416,200,211023,1,0,0:0:0:0:
240,252,211280,1,0,0:0:0:0:
416,200,211536,1,8,0:0:0:0:
240,252,211792,6,0,P|184:240|56:224,1,180
264,156,212562,1,8,0:0:0:0:
320,304,212818,1,0,0:0:0:0:
144,356,213074,2,0,P|148:292|168:204,1,135
184,184,213587,2,0,P|176:124|164:68,1,90,8|2,0:0|0:0,0:0:0:0:
156,52,213972,1,2,0:0:0:0:
128,20,214100,5,4,0:0:0:0:
72,100,214357,1,0,0:0:0:0:
95,198,214613,2,0,P|163:186|203:182,1,90,2|2,0:0|0:0,0:0:0:0:
252,256,215126,1,0,0:0:0:0:
216,348,215382,6,0,P|148:360|108:364,1,90,2|0,0:0|0:0,0:0:0:0:
252,256,215895,2,0,P|296:261|340:270,1,90,2|0,0:0|0:0,0:0:0:0:
428,208,216408,1,2,0:0:0:0:
332,156,216664,1,2,0:0:0:0:
428,208,216921,6,0,P|440:156|364:52,1,180,2|2,0:0|0:0,0:0:0:0:
268,76,217690,1,2,0:0:0:0:
332,156,217946,1,2,0:0:0:0:
228,176,218203,5,0,0:0:0:0:
284,52,218459,1,0,0:0:0:0:
216,200,218716,1,0,0:0:0:0:
332,312,218972,2,0,P|372:304|524:288,2,180,2|0|4,0:0|0:0|0:0,0:0:0:0:
256,192,220126,12,4,224357,0:0:0:0:
