osu file format v14

[General]
AudioFilename: Tsuki no inori.mp3
AudioLeadIn: 2000
PreviewTime: 67946
Countdown: 0
SampleSet: Soft
StackLeniency: 0.7
Mode: 0
LetterboxInBreaks: 1
WidescreenStoryboard: 0

[Editor]
DistanceSpacing: 1
BeatDivisor: 4
GridSize: 4
TimelineZoom: 1

[Metadata]
Title:Tsuki no Inori
TitleUnicode:月の祈り
Artist:Suirenji Ruka starring Yamazaki Haruka
ArtistUnicode:水蓮寺ルカ starring 山崎はるか
Creator:Rizia
Version:Hard
Source:Hayate no Gotoku! Cuties
Tags:ハヤテのごとく! ending 福音 Fukuin kawaiwkyik Zero__wind
BeatmapID:267547
BeatmapSetID:99611

[Difficulty]
HPDrainRate:5
CircleSize:4
OverallDifficulty:5
ApproachRate:6
SliderMultiplier:1.6
SliderTickRate:1

[Events]
//Background and Video events
0,0,"BG.png",0,0
//Break Periods
2,97377,103819
//Storyboard Layer 0 (Background)
//Storyboard Layer 1 (Fail)
//Storyboard Layer 2 (Pass)
//Storyboard Layer 3 (Foreground)
//Storyboard Sound Samples

[TimingPoints]
-1284,512.820512820513,4,2,1,40,1,0
19228,-100,4,2,0,40,0,0
35638,-100,4,2,1,50,0,0
51023,-100,4,2,1,40,0,0
51279,-100,4,1,1,50,0,0
52048,-100,4,2,1,50,0,0
68459,-100,4,2,1,60,0,1
84741,-100,4,2,1,60,0,0
84869,-100,4,2,1,60,0,1
97177,-100,4,2,1,50,0,0
120766,-100,4,2,1,40,0,0
121023,-100,4,1,1,50,0,0
121792,-100,4,2,1,50,0,0
136664,-100,4,2,1,40,0,0
137177,-100,4,2,1,30,0,0
137946,-100,4,2,1,50,0,0
138203,-100,4,2,1,60,0,1
154485,-100,4,2,1,60,0,0
154613,-100,4,2,1,60,0,1
166921,-100,4,2,1,50,0,0
174100,-100,4,1,1,50,0,0
175382,-100,4,2,1,50,0,0
182561,-100,4,1,1,50,0,0
182946,-100,4,2,1,50,0,0
183330,-200,4,2,1,50,0,0
185125,-100,4,2,1,50,0,0
193074,-100,4,2,1,40,0,0
193330,-100,4,2,1,50,0,0
193587,-100,4,2,1,60,0,1
200894,-100,4,2,1,60,0,1
201151,-100,4,2,1,60,0,1
201664,-100,4,2,1,60,0,0
201792,-100,4,2,1,60,0,1
214100,-100,4,2,1,50,0,0
224356,-100,4,1,1,50,0,0

[Colours]
Combo1 : 0,64,128
Combo2 : 0,128,255
Combo3 : 0,255,255
Combo4 : 192,192,192

[HitObjects]
120,116,510,6,0,L|112:60,2,40,0|0|0,0:0|0:0|0:0,0:0:0:0:
196,136,1023,1,0,0:0:0:0:
272,116,1280,2,0,P|296:96|344:88,1,80,0|2,0:0|0:0,0:0:0:0:
284,236,2049,2,0,P|232:228|132:288,1,160,0|2,0:0|0:0,0:0:0:0:
4,192,3074,6,0,P|48:184|92:160,1,80,0|0,0:0|0:0,0:0:0:0:
136,116,3587,1,0,0:0:0:0:
212,136,3844,1,2,0:0:0:0:
376,116,4357,1,0,0:0:0:0:
300,136,4613,1,2,0:0:0:0:
256,204,4869,6,0,L|256:296,2,80,0|0|0,0:0|0:0|0:0,0:0:0:0:
336,208,5639,2,0,P|368:232|464:152,1,160,2|0,0:0|0:0,0:0:0:0:
440,108,6408,1,0,0:0:0:0:
440,108,6664,1,2,0:0:0:0:
284,68,7177,6,0,P|232:56|180:56,1,80,0|0,0:0|0:0,0:0:0:0:
128,72,7690,1,2,0:0:0:0:
36,200,8203,1,0,0:0:0:0:
36,200,8459,1,0,0:0:0:0:
88,264,8716,1,2,0:0:0:0:
88,264,8844,1,2,0:0:0:0:
88,264,8972,5,2,0:0:0:0:
164,240,9228,2,0,P|204:236|264:248,1,80,0|0,0:0|0:0,0:0:0:0:
292,304,9741,2,0,P|340:324|444:264,1,160,2|0,0:0|0:0,0:0:0:0:
432,204,10510,1,0,0:0:0:0:
388,136,10767,2,0,P|380:96|376:40,1,80,2|0,0:0|0:0,0:0:0:0:
296,68,11280,5,2,0:0:0:0:
216,60,11536,1,2,0:0:0:0:
140,36,11792,2,0,P|144:100|240:136,1,160,0|2,0:0|0:0,0:0:0:0:
216,224,12562,2,0,L|160:304,1,80,2|2,0:0|0:0,0:0:0:0:
116,228,13074,5,0,0:0:0:0:
60,168,13331,1,0,0:0:0:0:
116,228,13587,1,0,0:0:0:0:
124,308,13844,2,0,P|172:328|276:312,1,160,2|0,0:0|0:0,0:0:0:0:
308,240,14613,1,0,0:0:0:0:
308,240,14869,1,6,0:0:0:0:
256,192,14998,12,2,18716,0:0:0:0:
152,200,19228,6,0,P|140:160|216:68,1,160,4|0,0:0|0:0,0:0:0:0:
308,70,19998,2,0,P|372:160|360:200,1,160,0|0,0:0|0:0,0:0:0:0:
296,248,20767,1,8,0:0:0:0:
216,248,21023,2,0,L|108:248,2,80,0|0|0,0:0|0:0|0:0,0:0:0:0:
296,248,21792,1,0,0:0:0:0:
296,168,22049,2,0,P|340:132|436:196,1,160,0|0,0:0|0:0,0:0:0:0:
364,220,22818,2,0,P|368:256|328:312,1,80,0|0,0:0|0:0,0:0:0:0:
288,244,23331,6,0,P|252:240|192:244,2,80,0|0|0,0:0|0:0|0:0,0:0:0:0:
348,296,24100,2,0,P|392:308|504:268,1,160,0|0,0:0|0:0,0:0:0:0:
500,192,24869,1,8,0:0:0:0:
497,110,25126,2,0,P|392:76|348:88,1,160,0|0,0:0|0:0,0:0:0:0:
324,164,25895,1,0,0:0:0:0:
340,244,26151,2,0,P|292:264|168:236,1,160,0|0,0:0|0:0,0:0:0:0:
164,172,26921,2,0,L|64:148,1,80,0|0,0:0|0:0,0:0:0:0:
48,224,27433,5,0,0:0:0:0:
120,264,27690,1,0,0:0:0:0:
52,304,27946,1,0,0:0:0:0:
120,264,28203,2,0,P|152:284|272:256,1,160,0|0,0:0|0:0,0:0:0:0:
304,192,28972,1,8,0:0:0:0:
265,121,29228,2,0,P|152:100|120:120,1,160,0|0,0:0|0:0,0:0:0:0:
84,192,29998,5,0,0:0:0:0:
68,272,30254,2,0,L|104:348,1,80,0|0,0:0|0:0,0:0:0:0:
160,288,30767,2,0,L|196:364,2,80,0|0|0,0:0|0:0|0:0,0:0:0:0:
128,216,31536,6,0,P|132:172|244:156,1,160,0|0,0:0|0:0,0:0:0:0:
308,148,32305,2,0,P|304:192|192:208,1,160,0|0,0:0|0:0,0:0:0:0:
208,300,33074,1,8,0:0:0:0:
280,336,33331,1,0,0:0:0:0:
356,308,33587,1,0,0:0:0:0:
392,236,33844,2,0,P|388:176|408:128,1,80,0|0,0:0|0:0,0:0:0:0:
444,96,34357,1,0,0:0:0:0:
372,60,34613,6,0,L|324:68,3,40,2|2|2|2,0:0|0:0|0:0|0:0,0:0:0:0:
292,64,35126,2,0,L|252:57,3,40,2|2|2|2,0:0|0:0|0:0|0:0,0:0:0:0:
212,64,35639,6,0,P|168:68|116:64,1,80,4|0,0:0|0:0,0:0:0:0:
88,132,36151,1,8,0:0:0:0:
140,192,36408,1,0,0:0:0:0:
140,192,36536,1,0,0:0:0:0:
140,192,36664,1,0,0:0:0:0:
88,252,36921,1,0,0:0:0:0:
132,317,37177,2,8,P|168:316|212:320,1,80,8|0,0:0|0:0,0:0:0:0:
292,332,37690,1,0,0:0:0:0:
372,344,37946,6,0,B|412:344|412:344|448:316,1,80,0|8,0:0|0:0,0:0:0:0:
512,276,38459,2,0,L|512:108,1,160,0|0,0:0|0:0,0:0:0:0:
444,72,39228,1,8,0:0:0:0:
368,48,39485,1,0,0:0:0:0:
296,88,39741,6,0,P|256:92|188:80,1,80,0|0,0:0|0:0,0:0:0:0:
144,48,40254,1,8,0:0:0:0:
68,72,40510,2,0,B|44:100|44:100|64:156|24:220,1,160,0|0,0:0|0:0,0:0:0:0:
36,296,41280,1,8,0:0:0:0:
108,332,41536,2,0,P|180:308|264:332,1,160,0|0,0:0|0:0,0:0:0:0:
340,320,42305,1,8,0:0:0:0:
340,320,42562,1,0,0:0:0:0:
420,328,42818,2,2,B|424:272|384:236|336:240|336:240|316:204,1,160,0|8,0:0|0:0,0:0:0:0:
300,148,43587,1,0,0:0:0:0:
364,104,43844,6,0,P|384:80|376:16,1,80,4|0,0:0|0:0,0:0:0:0:
408,168,44357,1,8,0:0:0:0:
460,228,44613,2,0,P|444:268|496:368,1,160,0|0,0:0|0:0,0:0:0:0:
332,352,45382,1,8,0:0:0:0:
264,308,45639,2,0,P|216:292|104:328,1,160,0|0,0:0|0:0,0:0:0:0:
36,296,46408,1,8,0:0:0:0:
8,220,46664,2,0,L|48:52,1,160,0|0,0:0|0:0,0:0:0:0:
124,52,47433,2,0,L|98:155,1,80,8|0,0:0|0:0,0:0:0:0:
148,268,47946,6,0,L|188:100,1,160,0|8,0:0|0:0,0:0:0:0:
326,112,48716,2,0,L|364:268,1,160,0|0,0:0|0:0,0:0:0:0:
406,129,49485,2,0,L|388:52,1,80,8|0,0:0|0:0,0:0:0:0:
308,32,49998,1,0,0:0:0:0:
256,92,50254,5,0,0:0:0:0:
256,116,50382,1,0,0:0:0:0:
256,140,50510,1,8,0:0:0:0:
192,188,50767,1,0,0:0:0:0:
320,188,51023,2,0,P|356:180|408:192,1,80,0|8,0:0|0:0,0:0:0:0:
440,256,51536,2,0,P|404:264|352:252,1,80,8|8,0:0|0:0,0:0:0:0:
280,260,52049,5,4,0:0:0:0:
240,188,52305,2,0,P|260:136|308:104,1,80,0|8,0:0|0:0,0:0:0:0:
280,260,52818,2,0,P|208:264|160:196,1,160,0|0,0:0|0:0,0:0:0:0:
136,120,53587,2,0,L|52:148,1,80,8|0,0:0|0:0,0:0:0:0:
60,64,54100,5,0,0:0:0:0:
136,40,54357,1,0,0:0:0:0:
212,16,54613,1,8,0:0:0:0:
292,16,54869,2,0,B|324:32|352:16|352:16|448:96,1,160,0|0,0:0|0:0,0:0:0:0:
504,96,55639,2,0,L|480:184,1,80,8|0,0:0|0:0,0:0:0:0:
416,216,56151,6,0,L|428:324,2,80,0|0|8,0:0|0:0|0:0,0:0:0:0:
340,188,56921,1,0,0:0:0:0:
276,236,57177,2,0,L|288:344,2,80,0|0|8,0:0|0:0|0:0,0:0:0:0:
340,188,57946,1,0,0:0:0:0:
320,112,58203,6,0,P|312:72|320:28,1,80,0|0,0:0|0:0,0:0:0:0:
340,188,58716,2,0,P|300:196|256:188,1,80,8|0,0:0|0:0,0:0:0:0:
240,112,59228,1,0,0:0:0:0:
180,164,59485,1,0,0:0:0:0:
180,164,59613,1,0,0:0:0:0:
180,164,59741,1,8,0:0:0:0:
200,240,59998,1,0,0:0:0:0:
276,264,60254,6,0,P|324:256|360:264,1,80,4|0,0:0|0:0,0:0:0:0:
416,312,60767,1,8,0:0:0:0:
416,312,61023,2,0,P|400:264|432:152,1,160,0|0,0:0|0:0,0:0:0:0:
484,108,61792,1,8,0:0:0:0:
484,108,62049,2,0,P|436:124|324:92,1,160,0|0,0:0|0:0,0:0:0:0:
276,40,62818,2,0,P|236:52|168:52,1,80,8|0,0:0|0:0,0:0:0:0:
120,40,63331,6,0,P|72:84|68:140,2,120,0|0|0,0:0|0:0|0:0,0:0:0:0:
200,56,64357,1,0,0:0:0:0:
184,136,64613,2,0,L|140:116,2,40,0|0|8,0:0|0:0|0:0,0:0:0:0:
232,200,65126,1,0,0:0:0:0:
232,200,65382,2,0,P|256:172|260:128,1,80,0|0,0:0|0:0,0:0:0:0:
280,52,65895,1,8,0:0:0:0:
356,72,66151,1,0,0:0:0:0:
336,148,66408,5,6,0:0:0:0:
76,320,67946,5,2,0:0:0:0:
76,320,68203,1,2,0:0:0:0:
76,320,68459,2,0,L|80:224,1,80,4|0,0:0|0:0,0:0:0:0:
60,164,68972,1,8,0:0:0:0:
136,140,69228,2,0,B|156:168|156:168|188:132|240:128|288:176,1,160,0|0,0:0|0:0,0:0:0:0:
216,220,69998,1,8,0:0:0:0:
164,280,70254,2,0,B|196:308|247:305|276:272|276:272|299:301,1,160,0|0,0:0|0:0,0:0:0:0:
364,248,71023,1,8,0:0:0:0:
372,328,71280,1,0,0:0:0:0:
436,280,71536,6,0,P|440:228|424:188,1,80,0|0,0:0|0:0,0:0:0:0:
452,124,72049,1,8,0:0:0:0:
432,48,72305,1,0,0:0:0:0:
372,104,72562,6,0,P|328:104|276:88,1,80,4|0,0:0|0:0,0:0:0:0:
256,24,73074,1,8,0:0:0:0:
216,92,73331,2,0,P|204:160|224:268,1,160,0|0,0:0|0:0,0:0:0:0:
252,320,74100,1,8,0:0:0:0:
172,316,74357,2,0,P|104:304|-4:324,1,160,0|0,0:0|0:0,0:0:0:0:
12,236,75126,1,8,0:0:0:0:
12,236,75382,2,0,B|32:180|32:180|28:52,1,160,0|0,0:0|0:0,0:0:0:0:
112,76,76151,1,8,0:0:0:0:
180,32,76408,1,0,0:0:0:0:
212,52,76536,1,0,0:0:0:0:
252,52,76664,6,0,P|312:40|376:56,1,120,4|0,0:0|0:0,0:0:0:0:
408,52,77177,2,0,L|420:136,1,80,8|0,0:0|0:0,0:0:0:0:
352,176,77690,1,0,0:0:0:0:
424,212,77946,1,0,0:0:0:0:
352,176,78203,1,8,0:0:0:0:
284,132,78459,2,0,L|184:120,1,80,0|0,0:0|0:0,0:0:0:0:
128,148,78972,1,0,0:0:0:0:
192,200,79228,2,0,L|292:212,1,80,8|0,0:0|0:0,0:0:0:0:
236,280,79741,1,0,0:0:0:0:
312,280,79998,1,0,0:0:0:0:
312,280,80254,1,8,0:0:0:0:
312,280,80510,6,2,P|372:276|456:344,1,160,0|0,0:0|0:0,0:0:0:0:
488,260,81280,1,8,0:0:0:0:
488,260,81536,2,0,L|504:84,1,160,0|0,0:0|0:0,0:0:0:0:
432,64,82305,1,8,0:0:0:0:
360,28,82562,2,0,L|345:187,1,160,4|0,0:0|0:0,0:0:0:0:
360,268,83331,1,8,0:0:0:0:
280,260,83587,2,4,P|216:224|112:244,1,160,4|0,0:0|0:0,0:0:0:0:
131,311,84357,2,0,P|136:276|132:232,1,80,8|0,0:0|0:0,0:0:0:0:
104,156,84869,5,4,0:0:0:0:
100,76,85126,1,0,0:0:0:0:
32,120,85382,1,8,0:0:0:0:
104,156,85639,2,0,P|144:144|164:32,1,160,0|0,0:0|0:0,0:0:0:0:
256,28,86408,1,8,0:0:0:0:
342,40,86664,2,0,P|368:144|408:156,1,160,0|0,0:0|0:0,0:0:0:0:
488,152,87433,6,0,L|480:252,1,80,8|0,0:0|0:0,0:0:0:0:
468,312,87946,2,0,L|520:312,2,40,8|0|0,0:0|0:0|0:0,0:0:0:0:
392,336,88459,2,0,P|352:308|336:268,1,80,8|8,0:0|0:0,0:0:0:0:
412,260,88972,5,4,0:0:0:0:
352,200,89228,1,0,0:0:0:0:
338,280,89485,1,8,0:0:0:0:
276,224,89741,2,0,P|256:280|312:360,1,160,0|0,0:0|0:0,0:0:0:0:
338,280,90510,1,8,0:0:0:0:
352,200,90767,2,0,P|372:144|316:64,1,160,0|0,0:0|0:0,0:0:0:0:
296,144,91536,1,8,0:0:0:0:
352,200,91792,2,0,L|448:208,2,80,0|0|0,0:0|0:0|0:0,0:0:0:0:
276,220,92562,1,8,0:0:0:0:
276,220,92690,1,0,0:0:0:0:
276,220,92818,1,0,0:0:0:0:
200,244,93074,6,0,P|164:252|24:236,1,160,4|8,0:0|0:0,0:0:0:0:
120,60,94100,2,0,L|40:40,2,80,0|0|8,0:0|0:0|0:0,0:0:0:0:
108,140,94869,2,0,L|272:100,1,160,0|0,0:0|0:0,0:0:0:0:
316,164,95639,2,0,L|224:185,1,80,8|0,0:0|0:0,0:0:0:0:
164,212,96151,2,0,P|176:252|168:352,2,120,8|0|0,0:0|0:0|0:0,0:0:0:0:
164,212,97049,1,0,0:0:0:0:
164,212,97177,1,6,0:0:0:0:
108,88,104869,6,0,L|188:92,1,80,0|0,0:0|0:0,0:0:0:0:
204,172,105382,2,0,P|264:156|368:176,1,160,4|8,0:0|0:0,0:0:0:0:
360,252,106151,2,0,P|264:267|204:251,1,160,0|0,0:0|0:0,0:0:0:0:
136,212,106921,1,8,0:0:0:0:
104,288,107177,6,0,P|56:244|80:152,1,160,0|0,0:0|0:0,0:0:0:0:
148,128,107946,2,0,L|136:40,1,80,8|0,0:0|0:0,0:0:0:0:
228,140,108459,1,0,0:0:0:0:
304,112,108716,1,0,0:0:0:0:
228,140,108972,2,0,P|244:180|248:236,1,80,8|0,0:0|0:0,0:0:0:0:
172,320,109485,6,0,P|156:280|152:224,2,80,0|0|8,0:0|0:0|0:0,0:0:0:0:
248,292,110254,2,0,P|328:276|440:304,1,160,0|0,0:0|0:0,0:0:0:0:
480,316,111023,1,8,0:0:0:0:
484,236,111280,2,0,L|496:140,1,80,0|0,0:0|0:0,0:0:0:0:
456,88,111792,1,0,0:0:0:0:
388,44,112049,1,8,0:0:0:0:
384,124,112305,1,0,0:0:0:0:
388,44,112562,2,2,P|328:60|316:168,1,160,0|8,0:0|0:0,0:0:0:0:
384,124,113331,1,0,0:0:0:0:
364,200,113587,6,0,P|336:224|284:220,1,80,4|0,0:0|0:0,0:0:0:0:
232,176,114100,1,8,0:0:0:0:
216,100,114357,2,0,B|148:72|148:72|148:132|116:168,1,160,0|0,0:0|0:0,0:0:0:0:
92,228,115126,1,8,0:0:0:0:
64,304,115382,2,0,P|108:280|232:296,1,160,0|0,0:0|0:0,0:0:0:0:
288,324,116151,6,0,L|368:328,1,80,8|0,0:0|0:0,0:0:0:0:
484,248,116664,2,0,L|404:244,1,80,0|0,0:0|0:0,0:0:0:0:
404,164,117177,1,8,0:0:0:0:
404,244,117433,1,0,0:0:0:0:
324,244,117690,6,0,P|276:232|156:236,1,160,0|8,0:0|0:0,0:0:0:0:
100,276,118459,2,0,P|112:228|108:108,1,160,0|0,0:0|0:0,0:0:0:0:
140,44,119228,1,8,0:0:0:0:
140,44,119485,1,0,0:0:0:0:
220,48,119741,1,0,0:0:0:0:
296,72,119998,2,0,L|312:28,2,40,0|0|8,0:0|0:0|0:0,0:0:0:0:
316,148,120510,1,0,0:0:0:0:
268,212,120767,6,0,L|280:316,1,80,0|8,0:0|0:0,0:0:0:0:
188,196,121280,2,0,L|178:116,1,80,8|0,0:0|0:0,0:0:0:0:
100,124,121792,6,0,P|72:144|20:152,1,80,4|0,0:0|0:0,0:0:0:0:
40,232,122305,2,0,L|48:332,1,80,8|0,0:0|0:0,0:0:0:0:
128,312,122818,1,0,0:0:0:0:
200,276,123074,1,0,0:0:0:0:
200,276,123203,1,0,0:0:0:0:
200,276,123331,1,8,0:0:0:0:
276,304,123587,1,0,0:0:0:0:
352,324,123844,6,0,P|352:276|316:236,1,80,0|0,0:0|0:0,0:0:0:0:
243,145,124357,2,0,P|243:193|260:220,1,80,8|0,0:0|0:0,0:0:0:0:
320,168,124869,2,0,L|380:156,2,40,0|0|0,0:0|0:0|0:0,0:0:0:0:
300,92,125382,2,0,L|292:52,2,40,8|0|8,0:0|0:0|0:0,0:0:0:0:
380,76,125895,6,0,P|424:68|464:48,1,80,0|0,0:0|0:0,0:0:0:0:
368,156,126408,2,0,L|460:148,1,80,8|0,0:0|0:0,0:0:0:0:
340,236,126921,2,0,L|424:248,1,80,0|0,0:0|0:0,0:0:0:0:
292,300,127433,2,0,P|336:328|352:349,1,80,8|0,0:0|0:0,0:0:0:0:
212,300,127946,6,0,P|172:308|124:304,1,80,0|0,0:0|0:0,0:0:0:0:
76,248,128459,1,8,0:0:0:0:
76,248,128716,2,0,B|84:208|84:208|64:128|64:128|72:80,1,160,0|0,0:0|0:0,0:0:0:0:
144,120,129485,2,0,L|148:40,1,80,8|0,0:0|0:0,0:0:0:0:
228,44,129998,5,4,0:0:0:0:
304,64,130254,2,0,P|352:60|400:72,1,80,0|8,0:0|0:0,0:0:0:0:
436,124,130767,2,0,B|432:168|432:168|456:216|420:304,1,160,0|0,0:0|0:0,0:0:0:0:
348,284,131536,2,0,L|264:292,1,80,8|0,0:0|0:0,0:0:0:0:
236,216,132049,6,0,L|315:208,1,80,0|0,0:0|0:0,0:0:0:0:
328,128,132562,2,0,L|248:135,1,80,8|0,0:0|0:0,0:0:0:0:
204,68,133074,2,0,P|156:76|104:144,1,120,0|0,0:0|0:0,0:0:0:0:
108,168,133587,2,0,L|120:264,1,80,8|0,0:0|0:0,0:0:0:0:
84,320,134100,1,0,0:0:0:0:
44,252,134357,2,0,L|2:268,2,40,0|0|8,0:0|0:0|0:0,0:0:0:0:
32,172,134869,6,0,P|56:112|152:104,1,160,0|0,0:0|0:0,0:0:0:0:
220,120,135639,2,0,P|256:128|312:120,1,80,8|0,0:0|0:0,0:0:0:0:
364,80,136151,1,4,0:0:0:0:
168,76,137690,6,0,L|160:160,1,80,2|2,0:0|0:0,0:0:0:0:
108,216,138203,6,0,L|0:208,2,80,4|0|8,0:0|0:0|0:0,0:0:0:0:
188,232,138972,2,0,B|232:224|236:188|236:188|248:80,1,160,0|0,0:0|0:0,0:0:0:0:
256,20,139741,1,8,0:0:0:0:
324,60,139998,2,0,P|360:72|480:40,1,160,0|0,0:0|0:0,0:0:0:0:
480,124,140767,2,0,L|476:224,1,80,8|0,0:0|0:0,0:0:0:0:
404,236,141280,2,0,L|416:324,1,80,0|0,0:0|0:0,0:0:0:0:
340,348,141792,1,8,0:0:0:0:
340,348,142049,1,0,0:0:0:0:
340,348,142305,6,0,P|300:336|224:340,1,80,4|0,0:0|0:0,0:0:0:0:
184,344,142818,1,8,0:0:0:0:
108,364,143074,2,0,B|76:328|76:328|64:204,1,160,0|0,0:0|0:0,0:0:0:0:
144,196,143844,1,8,0:0:0:0:
144,196,144100,2,0,B|176:160|176:160|186:48,1,160,0|0,0:0|0:0,0:0:0:0:
268,56,144869,1,8,0:0:0:0:
268,56,145126,2,0,B|304:68|304:68|352:68,1,80,0|8,0:0|0:0,0:0:0:0:
420,96,145639,2,0,L|480:96,2,40,0|0|8,0:0|0:0|0:0,0:0:0:0:
356,144,146151,1,8,0:0:0:0:
428,176,146408,6,0,P|432:216|428:288,1,80,4|0,0:0|0:0,0:0:0:0:
364,300,146921,2,0,P|360:260|364:188,1,80,8|0,0:0|0:0,0:0:0:0:
356,144,147433,1,0,0:0:0:0:
300,88,147690,1,0,0:0:0:0:
220,88,147946,1,8,0:0:0:0:
172,152,148203,6,0,P|140:168|96:168,2,80,0|0|0,0:0|0:0|0:0,0:0:0:0:
252,160,148972,1,8,0:0:0:0:
296,228,149228,1,0,0:0:0:0:
224,268,149485,2,0,P|196:284|164:328,1,80,0|0,0:0|0:0,0:0:0:0:
88,308,149998,2,0,L|64:216,1,80,8|0,0:0|0:0,0:0:0:0:
80,72,150767,5,0,0:0:0:0:
148,116,151023,1,8,0:0:0:0:
224,96,151280,2,0,P|276:76|384:96,1,160,0|0,0:0|0:0,0:0:0:0:
428,152,152049,1,8,0:0:0:0:
376,212,152305,2,0,B|400:288|400:288|376:368,1,160,4|0,0:0|0:0,0:0:0:0:
296,364,153074,1,8,0:0:0:0:
296,364,153331,2,0,B|272:288|272:288|296:208,1,160,4|8,0:0|0:0,0:0:0:0:
304,132,154100,1,8,0:0:0:0:
228,148,154357,1,0,0:0:0:0:
148,144,154613,6,0,P|104:148|64:168,2,80,4|0|8,0:0|0:0|0:0,0:0:0:0:
184,216,155382,2,0,P|244:232|304:136,1,160,0|0,0:0|0:0,0:0:0:0:
284,92,156151,1,8,0:0:0:0:
364,112,156408,2,0,P|384:176|332:268,1,160,0|0,0:0|0:0,0:0:0:0:
280,304,157177,1,8,0:0:0:0:
204,288,157433,2,0,P|160:272|40:304,1,160,0|0,0:0|0:0,0:0:0:0:
16,224,158203,2,0,L|4:120,1,80,8|0,0:0|0:0,0:0:0:0:
48,76,158716,6,0,P|92:80|136:72,1,80,0|0,0:0|0:0,0:0:0:0:
204,104,159228,1,8,0:0:0:0:
204,104,159485,2,0,L|372:88,1,160,0|0,0:0|0:0,0:0:0:0:
408,156,160254,1,8,0:0:0:0:
408,156,160510,2,0,L|424:324,1,160,0|0,0:0|0:0,0:0:0:0:
344,324,161280,2,0,L|244:335,1,80,8|0,0:0|0:0,0:0:0:0:
172,260,161792,2,0,L|252:252,1,80,8|0,0:0|0:0,0:0:0:0:
323,163,162305,2,0,L|244:172,1,80,8|0,0:0|0:0,0:0:0:0:
164,180,162818,6,0,P|96:188|32:164,1,120,4|0,0:0|0:0,0:0:0:0:
8,196,163331,2,0,L|1:275,1,80,8|0,0:0|0:0,0:0:0:0:
108,112,163844,2,0,L|115:33,2,80,0|0|8,0:0|0:0|0:0,0:0:0:0:
200,64,164613,2,0,P|244:56|372:68,1,160,0|0,0:0|0:0,0:0:0:0:
384,140,165382,2,0,L|456:106,1,80,8|0,0:0|0:0,0:0:0:0:
312,172,165895,2,0,P|292:212|288:304,2,120,0|0|2,0:0|0:0|0:0,0:0:0:0:
316,132,166792,1,2,0:0:0:0:
292,100,166921,6,0,P|256:88|200:100,1,80,4|0,0:0|0:0,0:0:0:0:
164,156,167433,2,0,P|152:192|164:248,1,80,8|0,0:0|0:0,0:0:0:0:
220,284,167946,2,0,P|256:296|312:284,1,80,0|0,0:0|0:0,0:0:0:0:
348,228,168459,2,0,P|360:192|348:136,1,80,8|0,0:0|0:0,0:0:0:0:
428,120,168972,2,0,P|436:192|404:288,1,160,0|8,0:0|0:0,0:0:0:0:
340,308,169741,2,0,P|268:316|172:284,1,160,0|0,0:0|0:0,0:0:0:0:
100,284,170510,2,0,P|104:240|100:192,1,80,8|0,0:0|0:0,0:0:0:0:
68,132,171023,5,0,0:0:0:0:
8,80,171280,1,0,0:0:0:0:
84,56,171536,1,8,0:0:0:0:
216,76,172049,2,0,P|256:72|316:80,1,80,0|0,0:0|0:0,0:0:0:0:
372,48,172562,2,0,P|403:72|442:119,1,80,8|0,0:0|0:0,0:0:0:0:
420,180,173074,5,0,0:0:0:0:
336,316,173587,1,8,0:0:0:0:
176,316,174100,1,8,0:0:0:0:
92,180,174613,1,8,0:0:0:0:
176,44,175126,6,0,P|208:48|268:48,1,80,12|0,0:0|0:0,0:0:0:0:
292,120,175639,2,0,P|260:124|200:124,1,80,8|0,0:0|0:0,0:0:0:0:
132,120,176151,1,0,0:0:0:0:
76,176,176408,1,0,0:0:0:0:
100,252,176664,1,8,0:0:0:0:
256,292,177177,1,0,0:0:0:0:
312,236,177433,1,0,0:0:0:0:
288,160,177690,1,8,0:0:0:0:
148,84,178203,6,2,L|112:212,1,120,0|0,0:0|0:0,0:0:0:0:
192,292,178972,2,0,L|216:204,2,80,0|0|0,0:0|0:0|0:0,0:0:0:0:
272,272,179741,1,8,0:0:0:0:
344,308,179998,2,0,P|392:320|500:292,1,160,0|0,0:0|0:0,0:0:0:0:
480,216,180767,2,0,L|500:32,2,160,8|0|8,0:0|0:0|0:0,0:0:0:0:
320,200,182305,5,0,0:0:0:0:
252,160,182562,2,8,L|256:112,2,40,8|8|8,0:0|0:0|0:0,0:0:0:0:
172,176,183074,1,0,0:0:0:0:
128,244,183331,1,4,0:0:0:0:
256,192,183459,12,4,185382,0:0:0:0:
132,120,186664,6,4,L|272:148,1,120,4|4,1:0|1:0,0:0:0:0:
344,68,187433,1,4,1:0:0:0:
328,252,188716,6,4,L|188:280,1,120,4|4,1:0|1:0,0:0:0:0:
116,200,189485,1,4,1:0:0:0:
288,52,190767,6,4,L|304:192,1,120,4|4,1:0|1:0,0:0:0:0:
184,196,191536,5,4,1:0:0:0:
184,196,192049,1,4,1:0:0:0:
140,308,192562,2,0,L|60:300,1,80,4|4,1:0|1:0,0:0:0:0:
56,212,193074,2,2,L|28:216,6,20,2|2|2|2|2|2|2,0:0|0:0|0:0|0:0|0:0|0:0|0:0,0:0:0:0:
72,176,193587,6,0,P|76:144|64:84,1,80,4|0,0:0|0:0,0:0:0:0:
164,60,194100,2,0,L|256:48,1,80,8|0,0:0|0:0,0:0:0:0:
288,116,194613,1,0,0:0:0:0:
368,108,194869,1,0,0:0:0:0:
320,44,195126,1,8,0:0:0:0:
288,116,195382,6,0,P|288:144|304:204,2,80,0|0|0,0:0|0:0|0:0,0:0:0:0:
208,124,196151,2,0,P|168:128|124:124,1,80,8|0,0:0|0:0,0:0:0:0:
52,104,196664,1,0,0:0:0:0:
32,180,196921,2,0,P|40:216|24:276,1,80,0|8,0:0|0:0,0:0:0:0:
0,340,197433,2,0,P|40:320|176:332,1,160,0|0,0:0|0:0,0:0:0:0:
224,300,198203,1,8,0:0:0:0:
300,328,198459,2,0,P|280:280|280:173,1,160,0|0,0:0|0:0,0:0:0:0:
336,116,199228,2,0,P|359:151|344:208,1,80,8|12,0:0|0:0,0:0:0:0:
200,164,199998,5,0,0:0:0:0:
120,180,200254,2,0,P|76:192|28:188,1,80,8|12,0:0|0:0,0:0:0:0:
192,68,201023,2,0,P|152:67|113:78,2,80,8|8|0,0:0|0:0|0:0,0:0:0:0:
288,80,201792,6,0,P|320:88|372:88,1,80,4|0,0:0|0:0,0:0:0:0:
444,64,202305,1,8,0:0:0:0:
428,144,202562,2,0,P|424:204|448:320,1,160,0|0,0:0|0:0,0:0:0:0:
360,308,203331,1,8,0:0:0:0:
292,348,203587,2,0,B|148:332|148:332|108:344,1,160,0|0,0:0|0:0,0:0:0:0:
56,360,204357,1,8,0:0:0:0:
36,284,204613,2,0,P|32:240|44:184,1,80,0|0,0:0|0:0,0:0:0:0:
84,140,205126,1,0,0:0:0:0:
56,64,205382,2,0,P|108:64|144:80,1,80,8|0,0:0|0:0,0:0:0:0:
164,148,205895,6,0,P|208:156|332:132,1,160,0|8,0:0|0:0,0:0:0:0:
388,96,206664,2,0,P|406:208|398:252,1,160,0|0,0:0|0:0,0:0:0:0:
348,312,207433,1,8,0:0:0:0:
268,308,207690,2,0,B|240:320|240:320|164:304|92:316,1,160,0|0,0:0|0:0,0:0:0:0:
36,284,208459,1,8,0:0:0:0:
100,236,208716,2,0,B|156:228|204:228|244:240|244:240|264:220,1,160,0|0,0:0|0:0,0:0:0:0:
332,208,209485,1,8,0:0:0:0:
332,208,209613,1,0,0:0:0:0:
332,208,209741,1,0,0:0:0:0:
408,228,209998,6,0,P|404:172|372:132,1,80,4|0,0:0|0:0,0:0:0:0:
332,100,210510,1,8,0:0:0:0:
256,128,210767,1,0,0:0:0:0:
176,128,211023,2,0,P|128:136|64:136,2,80,0|0|8,0:0|0:0|0:0,0:0:0:0:
256,128,211792,2,0,P|304:112|428:140,1,160,0|0,0:0|0:0,0:0:0:0:
424,208,212562,2,0,L|440:296,1,80,8|0,0:0|0:0,0:0:0:0:
360,308,213074,2,0,P|312:296|216:312,1,120,0|0,0:0|0:0,0:0:0:0:
220,324,213587,1,8,0:0:0:0:
132,352,213844,1,2,0:0:0:0:
132,352,213972,1,2,0:0:0:0:
132,352,214100,6,0,P|120:308|136:188,1,160,4|2,0:0|0:0,0:0:0:0:
208,224,214869,2,0,P|220:180|204:60,1,160,2|2,0:0|0:0,0:0:0:0:
368,68,215895,1,2,0:0:0:0:
372,148,216151,1,0,0:0:0:0:
344,224,216408,2,0,P|340:260|352:320,1,80,2|2,0:0|0:0,0:0:0:0:
424,320,216921,2,0,P|384:344|264:332,1,160,2|2,0:0|0:0,0:0:0:0:
200,308,217690,1,2,0:0:0:0:
124,336,217946,1,2,0:0:0:0:
96,260,218203,6,0,P|52:260|-4:264,2,80,0|0|0,0:0|0:0|0:0,0:0:0:0:
172,232,218972,2,0,P|164:188|196:64,1,160,2|0,0:0|0:0,0:0:0:0:
256,36,219741,1,0,0:0:0:0:
332,60,219998,1,4,0:0:0:0:
256,192,220126,12,4,224357,0:0:0:0:
