osu file format v13

[General]
AudioFilename: Koi no Buckin Buckingham.mp3
AudioLeadIn: 0
PreviewTime: 177496
Countdown: 0
SampleSet: Normal
StackLeniency: 0.7
Mode: 1
LetterboxInBreaks: 0
WidescreenStoryboard: 1

[Editor]
DistanceSpacing: 1
BeatDivisor: 4
GridSize: 32
TimelineZoom: 4.699999

[Metadata]
Title:Koi no Bakkin Buckingham!
TitleUnicode:恋の罰金バッキンガム!
Artist:Sugiura Ayano (CV : Fujita Saki)
ArtistUnicode:杉浦綾乃(CV:藤田咲)
Creator:RenKun
Version:Muzukashii
Source:Yuru Yuri
Tags:azger
BeatmapID:518399
BeatmapSetID:221603

[Difficulty]
HPDrainRate:5
CircleSize:3
OverallDifficulty:4
ApproachRate:5
SliderMultiplier:1.4
SliderTickRate:1

[Events]
//Background and Video events
0,0,"bg.png",0,40
//Break Periods
//Storyboard Layer 0 (Background)
//Storyboard Layer 1 (Fail)
//Storyboard Layer 2 (Pass)
//Storyboard Layer 3 (Foreground)
//Storyboard Sound Samples
//Background Colour Transformations
3,100,163,162,255

[TimingPoints]
420,307.692307692308,4,1,0,100,1,0
61804,-100,4,1,0,100,0,1
81958,-100,4,1,0,100,0,0
133189,-100,4,1,0,100,0,1
153343,-100,4,1,0,100,0,0
187343,-100,4,1,0,100,0,1
207496,-100,4,1,0,100,0,0

[HitObjects]
256,192,420,5,4,0:0:0:0:
256,192,1343,1,0,0:0:0:0:
256,192,1650,1,2,0:0:0:0:
256,192,1958,1,0,0:0:0:0:
256,192,2266,1,2,0:0:0:0:
256,192,2573,1,2,0:0:0:0:
256,192,2881,1,0,0:0:0:0:
256,192,3804,1,2,0:0:0:0:
256,192,4112,1,0,0:0:0:0:
256,192,4727,1,0,0:0:0:0:
256,192,5035,1,2,0:0:0:0:
256,192,5343,1,4,0:0:0:0:
256,192,5804,1,6,0:0:0:0:
256,192,6266,1,4,0:0:0:0:
256,192,6727,1,6,0:0:0:0:
256,192,6881,1,0,0:0:0:0:
256,192,7035,1,0,0:0:0:0:
256,192,7189,1,6,0:0:0:0:
256,192,7496,1,0,0:0:0:0:
256,192,7650,1,0,0:0:0:0:
256,192,7804,1,6,0:0:0:0:
256,192,8112,1,2,0:0:0:0:
256,192,8420,1,0,0:0:0:0:
256,192,8727,1,2,0:0:0:0:
256,192,9035,1,0,0:0:0:0:
256,192,9189,1,0,0:0:0:0:
256,192,9496,1,0,0:0:0:0:
256,192,9650,1,2,0:0:0:0:
256,192,9804,1,0,0:0:0:0:
256,192,10573,1,4,0:0:0:0:
256,192,10881,1,0,0:0:0:0:
256,192,11035,1,0,0:0:0:0:
256,192,11189,1,2,0:0:0:0:
256,192,11343,1,0,0:0:0:0:
256,192,11650,1,0,0:0:0:0:
256,192,11804,1,2,0:0:0:0:
256,192,11958,1,0,0:0:0:0:
256,192,12112,1,0,0:0:0:0:
256,192,12420,1,2,0:0:0:0:
256,192,13035,1,2,0:0:0:0:
256,192,13343,1,2,0:0:0:0:
256,192,13496,1,0,0:0:0:0:
256,192,13650,1,0,0:0:0:0:
256,192,13804,1,2,0:0:0:0:
256,192,14112,1,0,0:0:0:0:
256,192,14266,1,2,0:0:0:0:
256,192,14420,1,2,0:0:0:0:
256,192,14573,1,0,0:0:0:0:
256,192,14881,1,2,0:0:0:0:
256,192,15496,1,4,0:0:0:0:
256,192,15804,1,2,0:0:0:0:
256,192,16112,1,0,0:0:0:0:
256,192,16266,1,2,0:0:0:0:
256,192,16573,1,0,0:0:0:0:
256,192,16727,1,2,0:0:0:0:
256,192,16881,1,2,0:0:0:0:
256,192,17035,1,0,0:0:0:0:
256,192,17343,1,2,0:0:0:0:
256,192,17958,1,6,0:0:0:0:
256,192,18266,1,0,0:0:0:0:
256,192,18420,1,2,0:0:0:0:
256,192,18573,1,0,0:0:0:0:
256,192,18727,1,2,0:0:0:0:
256,192,19035,1,0,0:0:0:0:
256,192,19189,1,0,0:0:0:0:
256,192,19343,1,2,0:0:0:0:
256,192,19496,1,0,0:0:0:0:
256,192,20112,1,6,0:0:0:0:
256,192,20420,1,0,0:0:0:0:
256,192,20727,1,0,0:0:0:0:
256,192,21035,1,2,0:0:0:0:
256,192,21343,1,0,0:0:0:0:
256,192,21496,1,0,0:0:0:0:
256,192,21650,1,2,0:0:0:0:
256,192,21958,1,0,0:0:0:0:
256,192,22266,1,2,0:0:0:0:
256,192,22573,1,4,0:0:0:0:
256,192,22881,1,0,0:0:0:0:
256,192,23189,1,2,0:0:0:0:
256,192,23343,1,2,0:0:0:0:
256,192,23496,1,0,0:0:0:0:
256,192,23804,1,2,0:0:0:0:
256,192,24112,1,2,0:0:0:0:
256,192,24420,1,0,0:0:0:0:
256,192,24727,1,2,0:0:0:0:
256,192,25035,1,4,0:0:0:0:
256,192,25343,1,0,0:0:0:0:
256,192,25650,1,2,0:0:0:0:
256,192,25958,1,0,0:0:0:0:
256,192,26266,1,2,0:0:0:0:
256,192,26573,1,2,0:0:0:0:
256,192,26881,1,0,0:0:0:0:
256,192,27189,1,2,0:0:0:0:
256,192,27496,1,0,0:0:0:0:
256,192,27650,1,2,0:0:0:0:
256,192,27804,1,0,0:0:0:0:
256,192,27958,1,2,0:0:0:0:
256,192,28266,1,2,0:0:0:0:
256,192,28420,1,0,0:0:0:0:
256,192,28573,1,2,0:0:0:0:
256,192,28881,1,2,0:0:0:0:
256,192,29035,1,0,0:0:0:0:
256,192,29189,1,2,0:0:0:0:
256,192,29343,1,0,0:0:0:0:
256,192,29420,1,0,0:0:0:0:
256,192,29496,1,0,0:0:0:0:
256,192,29650,1,2,0:0:0:0:
256,192,29958,1,4,0:0:0:0:
256,192,30266,1,2,0:0:0:0:
256,192,30573,1,0,0:0:0:0:
256,192,30727,1,0,0:0:0:0:
256,192,30881,1,2,0:0:0:0:
256,192,31189,1,0,0:0:0:0:
256,192,31496,1,2,0:0:0:0:
256,192,31650,1,2,0:0:0:0:
256,192,31804,1,0,0:0:0:0:
256,192,32112,1,2,0:0:0:0:
256,192,32420,1,0,0:0:0:0:
256,192,32727,1,2,0:0:0:0:
256,192,32881,1,0,0:0:0:0:
256,192,33035,1,0,0:0:0:0:
256,192,33343,1,2,0:0:0:0:
256,192,33650,1,0,0:0:0:0:
256,192,33804,1,0,0:0:0:0:
256,192,33958,1,2,0:0:0:0:
256,192,34112,1,2,0:0:0:0:
256,192,34266,1,0,0:0:0:0:
256,192,34573,1,2,0:0:0:0:
256,192,34881,1,0,0:0:0:0:
256,192,35189,1,2,0:0:0:0:
256,192,35343,1,2,0:0:0:0:
256,192,35496,1,0,0:0:0:0:
256,192,35650,1,0,0:0:0:0:
256,192,35804,1,2,0:0:0:0:
256,192,35958,1,0,0:0:0:0:
256,192,36266,1,0,0:0:0:0:
256,192,36420,1,2,0:0:0:0:
256,192,36573,1,2,0:0:0:0:
256,192,36727,1,0,0:0:0:0:
256,192,37035,1,2,0:0:0:0:
256,192,37189,1,2,0:0:0:0:
256,192,37343,1,0,0:0:0:0:
256,192,37804,1,0,0:0:0:0:
256,192,37958,1,2,0:0:0:0:
256,192,38266,1,2,0:0:0:0:
256,192,38573,1,0,0:0:0:0:
256,192,38727,1,2,0:0:0:0:
256,192,38804,1,2,0:0:0:0:
256,192,38881,1,2,0:0:0:0:
256,192,39035,1,2,0:0:0:0:
256,192,39189,1,0,0:0:0:0:
256,192,39343,1,0,0:0:0:0:
256,192,39496,1,2,0:0:0:0:
256,192,39650,1,2,0:0:0:0:
256,192,39804,1,0,0:0:0:0:
256,192,40112,1,2,0:0:0:0:
256,192,40266,1,0,0:0:0:0:
256,192,40420,1,0,0:0:0:0:
256,192,40727,1,2,0:0:0:0:
256,192,41035,1,0,0:0:0:0:
256,192,41189,1,0,0:0:0:0:
256,192,41343,1,2,0:0:0:0:
256,192,41496,1,0,0:0:0:0:
256,192,41650,1,2,0:0:0:0:
256,192,41958,1,2,0:0:0:0:
256,192,42266,1,0,0:0:0:0:
256,192,42573,1,2,0:0:0:0:
256,192,42727,1,2,0:0:0:0:
256,192,42881,1,0,0:0:0:0:
256,192,43189,1,2,0:0:0:0:
256,192,43496,1,0,0:0:0:0:
256,192,43650,1,0,0:0:0:0:
256,192,43804,1,2,0:0:0:0:
256,192,43958,1,2,0:0:0:0:
256,192,44112,1,0,0:0:0:0:
256,192,44420,1,2,0:0:0:0:
256,192,44727,1,0,0:0:0:0:
256,192,45035,1,2,0:0:0:0:
256,192,45189,1,2,0:0:0:0:
256,192,45343,1,0,0:0:0:0:
256,192,45650,1,2,0:0:0:0:
256,192,45804,1,0,0:0:0:0:
256,192,46112,1,0,0:0:0:0:
256,192,46266,1,2,0:0:0:0:
256,192,46573,1,2,0:0:0:0:
256,192,46881,1,0,0:0:0:0:
256,192,47035,1,0,0:0:0:0:
256,192,47189,1,2,0:0:0:0:
256,192,47650,1,2,0:0:0:0:
256,192,47804,1,0,0:0:0:0:
256,192,48112,1,2,0:0:0:0:
256,192,48420,1,0,0:0:0:0:
256,192,48573,1,0,0:0:0:0:
256,192,48727,1,2,0:0:0:0:
256,192,48881,1,2,0:0:0:0:
256,192,49035,1,0,0:0:0:0:
256,192,49189,1,0,0:0:0:0:
256,192,49343,1,2,0:0:0:0:
256,192,49650,1,0,0:0:0:0:
256,192,50112,1,0,0:0:0:0:
256,192,50266,1,0,0:0:0:0:
256,192,50573,1,2,0:0:0:0:
256,192,50881,1,0,0:0:0:0:
256,192,51343,1,0,0:0:0:0:
256,192,51496,1,0,0:0:0:0:
256,192,51804,1,2,0:0:0:0:
256,192,52112,1,0,0:0:0:0:
256,192,52573,1,0,0:0:0:0:
256,192,52727,1,0,0:0:0:0:
256,192,53035,1,2,0:0:0:0:
256,192,53343,1,0,0:0:0:0:
256,192,53804,1,0,0:0:0:0:
256,192,53958,1,0,0:0:0:0:
256,192,54266,1,2,0:0:0:0:
256,192,54343,1,2,0:0:0:0:
256,192,54420,1,2,0:0:0:0:
256,192,54573,1,4,0:0:0:0:
256,192,54881,1,4,0:0:0:0:
256,192,55189,1,4,0:0:0:0:
256,192,55496,1,4,0:0:0:0:
256,192,55804,1,6,0:0:0:0:
256,192,56112,1,4,0:0:0:0:
256,192,56420,1,6,0:0:0:0:
256,192,56727,1,6,0:0:0:0:
256,192,57035,1,0,0:0:0:0:
256,192,57189,1,0,0:0:0:0:
256,192,57496,1,2,0:0:0:0:
256,192,57650,1,2,0:0:0:0:
256,192,57958,1,0,0:0:0:0:
256,192,58112,1,0,0:0:0:0:
256,192,58573,1,2,0:0:0:0:
256,192,58881,1,0,0:0:0:0:
256,192,59189,1,2,0:0:0:0:
256,192,59496,1,2,0:0:0:0:
256,192,59650,1,2,0:0:0:0:
256,192,59958,1,0,0:0:0:0:
256,192,60112,1,0,0:0:0:0:
256,192,60420,1,2,0:0:0:0:
256,192,60573,1,2,0:0:0:0:
256,192,61804,1,4,0:0:0:0:
256,192,62112,1,0,0:0:0:0:
256,192,62189,1,0,0:0:0:0:
256,192,62266,1,0,0:0:0:0:
256,192,62420,1,2,0:0:0:0:
256,192,62573,1,0,0:0:0:0:
256,192,62727,1,2,0:0:0:0:
256,192,63035,1,6,0:0:0:0:
256,192,63343,1,2,0:0:0:0:
256,192,63420,1,2,0:0:0:0:
256,192,63496,1,2,0:0:0:0:
256,192,63650,1,2,0:0:0:0:
256,192,63804,1,0,0:0:0:0:
256,192,63958,1,0,0:0:0:0:
256,192,64112,1,2,0:0:0:0:
256,192,64420,1,0,0:0:0:0:
256,192,64727,1,2,0:0:0:0:
256,192,65035,1,0,0:0:0:0:
256,192,65343,1,2,0:0:0:0:
256,192,65650,1,4,0:0:0:0:
256,192,65804,1,6,0:0:0:0:
256,192,66112,1,4,0:0:0:0:
256,192,66420,1,6,0:0:0:0:
256,192,66727,1,6,0:0:0:0:
256,192,67035,1,2,0:0:0:0:
256,192,67189,1,2,0:0:0:0:
256,192,67343,1,0,0:0:0:0:
256,192,67496,1,0,0:0:0:0:
256,192,67650,1,2,0:0:0:0:
256,192,67958,1,4,0:0:0:0:
256,192,68266,1,0,0:0:0:0:
256,192,68420,1,0,0:0:0:0:
256,192,68573,1,2,0:0:0:0:
256,192,68727,1,0,0:0:0:0:
256,192,68881,1,2,0:0:0:0:
256,192,69035,1,2,0:0:0:0:
256,192,69343,1,0,0:0:0:0:
256,192,69650,1,2,0:0:0:0:
256,192,69958,1,0,0:0:0:0:
256,192,70266,1,2,0:0:0:0:
256,192,70573,1,4,0:0:0:0:
256,192,70881,1,4,0:0:0:0:
256,192,71189,1,6,0:0:0:0:
256,192,71496,1,4,0:0:0:0:
256,192,71804,1,4,0:0:0:0:
256,192,72266,1,0,0:0:0:0:
256,192,72420,1,2,0:0:0:0:
256,192,72727,1,0,0:0:0:0:
256,192,73035,1,0,0:0:0:0:
256,192,73343,1,0,0:0:0:0:
256,192,73496,1,0,0:0:0:0:
256,192,73650,1,2,0:0:0:0:
256,192,73958,1,2,0:0:0:0:
256,192,74266,1,0,0:0:0:0:
256,192,74420,1,0,0:0:0:0:
256,192,74727,1,0,0:0:0:0:
256,192,74881,1,2,0:0:0:0:
256,192,75035,1,0,0:0:0:0:
256,192,75496,1,0,0:0:0:0:
256,192,76112,1,2,0:0:0:0:
256,192,76420,1,2,0:0:0:0:
256,192,76727,1,4,0:0:0:0:
256,192,77189,1,6,0:0:0:0:
256,192,77650,1,4,0:0:0:0:
256,192,78112,1,2,0:0:0:0:
256,192,78266,1,0,0:0:0:0:
256,192,78420,1,0,0:0:0:0:
256,192,78574,1,2,0:0:0:0:
256,192,78727,1,0,0:0:0:0:
256,192,78881,1,2,0:0:0:0:
256,192,79035,1,0,0:0:0:0:
256,192,79189,1,6,0:0:0:0:
256,192,79496,1,2,0:0:0:0:
256,192,79804,1,2,0:0:0:0:
256,192,80112,1,2,0:0:0:0:
256,192,80420,1,0,0:0:0:0:
256,192,80573,1,0,0:0:0:0:
256,192,80881,1,0,0:0:0:0:
256,192,81035,1,2,0:0:0:0:
256,192,81189,1,0,0:0:0:0:
256,192,81958,1,6,0:0:0:0:
256,192,82266,1,0,0:0:0:0:
256,192,82420,1,2,0:0:0:0:
256,192,82727,1,0,0:0:0:0:
256,192,83035,1,0,0:0:0:0:
256,192,83189,1,0,0:0:0:0:
256,192,83343,1,2,0:0:0:0:
256,192,83496,1,0,0:0:0:0:
256,192,83804,1,2,0:0:0:0:
256,192,84420,1,6,0:0:0:0:
256,192,84727,1,0,0:0:0:0:
256,192,84881,1,0,0:0:0:0:
256,192,85035,1,2,0:0:0:0:
256,192,85189,1,0,0:0:0:0:
256,192,85496,1,2,0:0:0:0:
256,192,85650,1,2,0:0:0:0:
256,192,85804,1,0,0:0:0:0:
256,192,85958,1,0,0:0:0:0:
256,192,86266,1,2,0:0:0:0:
256,192,86881,1,4,0:0:0:0:
256,192,87189,1,2,0:0:0:0:
256,192,87496,1,0,0:0:0:0:
256,192,87650,1,2,0:0:0:0:
256,192,87958,1,2,0:0:0:0:
256,192,88112,1,0,0:0:0:0:
256,192,88266,1,0,0:0:0:0:
256,192,88420,1,2,0:0:0:0:
256,192,88727,1,2,0:0:0:0:
256,192,89343,1,6,0:0:0:0:
256,192,89650,1,2,0:0:0:0:
256,192,89804,1,0,0:0:0:0:
256,192,89958,1,2,0:0:0:0:
256,192,90112,1,0,0:0:0:0:
256,192,90420,1,0,0:0:0:0:
256,192,90573,1,0,0:0:0:0:
256,192,90727,1,2,0:0:0:0:
256,192,90881,1,0,0:0:0:0:
256,192,91496,1,4,0:0:0:0:
256,192,91804,1,2,0:0:0:0:
256,192,92112,1,0,0:0:0:0:
256,192,92420,1,0,0:0:0:0:
256,192,92727,1,2,0:0:0:0:
256,192,93035,1,2,0:0:0:0:
256,192,93343,1,0,0:0:0:0:
256,192,93650,1,2,0:0:0:0:
256,192,93958,1,4,0:0:0:0:
256,192,94266,1,2,0:0:0:0:
256,192,94573,1,2,0:0:0:0:
256,192,94881,1,0,0:0:0:0:
256,192,95189,1,0,0:0:0:0:
256,192,95496,1,2,0:0:0:0:
256,192,95804,1,0,0:0:0:0:
256,192,96112,1,2,0:0:0:0:
256,192,96420,1,6,0:0:0:0:
256,192,96727,1,2,0:0:0:0:
256,192,97035,1,0,0:0:0:0:
256,192,97343,1,2,0:0:0:0:
256,192,97650,1,0,0:0:0:0:
256,192,97958,1,0,0:0:0:0:
256,192,98266,1,2,0:0:0:0:
256,192,98573,1,2,0:0:0:0:
256,192,98881,1,0,0:0:0:0:
256,192,99189,1,6,0:0:0:0:
256,192,99496,1,0,0:0:0:0:
256,192,99804,1,6,0:0:0:0:
192,288,100111,1,0,0:0:0:0:
256,192,100112,1,0,0:0:0:0:
256,192,100266,1,2,0:0:0:0:
256,192,100420,1,0,0:0:0:0:
256,192,100573,1,2,0:0:0:0:
256,192,100727,1,0,0:0:0:0:
256,192,100804,1,0,0:0:0:0:
256,192,100881,1,0,0:0:0:0:
256,192,101035,1,2,0:0:0:0:
256,192,101343,1,4,0:0:0:0:
256,192,101650,1,2,0:0:0:0:
256,192,101804,1,0,0:0:0:0:
256,192,101958,1,0,0:0:0:0:
256,192,102266,1,2,0:0:0:0:
256,192,102420,1,0,0:0:0:0:
256,192,102727,1,0,0:0:0:0:
256,192,102881,1,2,0:0:0:0:
256,192,103189,1,2,0:0:0:0:
256,192,103496,1,2,0:0:0:0:
256,192,103804,1,0,0:0:0:0:
256,192,104112,1,0,0:0:0:0:
256,192,104266,1,0,0:0:0:0:
256,192,104420,1,2,0:0:0:0:
256,192,104727,1,2,0:0:0:0:
256,192,104881,1,0,0:0:0:0:
256,192,105189,1,0,0:0:0:0:
256,192,105343,1,2,0:0:0:0:
256,192,105496,1,0,0:0:0:0:
256,192,105650,1,0,0:0:0:0:
256,192,105958,1,2,0:0:0:0:
256,192,106112,1,2,0:0:0:0:
256,192,106266,1,0,0:0:0:0:
256,192,106420,1,0,0:0:0:0:
256,192,106573,1,2,0:0:0:0:
256,192,106881,1,0,0:0:0:0:
256,192,107035,1,0,0:0:0:0:
256,192,107189,1,2,0:0:0:0:
256,192,107343,1,0,0:0:0:0:
256,192,107650,1,0,0:0:0:0:
256,192,107804,1,2,0:0:0:0:
256,192,107958,1,0,0:0:0:0:
256,192,108112,1,2,0:0:0:0:
256,192,108420,1,0,0:0:0:0:
256,192,108727,1,2,0:0:0:0:
256,192,109035,1,2,0:0:0:0:
256,192,109189,1,2,0:0:0:0:
256,192,109343,1,0,0:0:0:0:
256,192,109650,1,2,0:0:0:0:
256,192,109958,1,0,0:0:0:0:
256,192,110112,1,2,0:0:0:0:
256,192,110189,1,2,0:0:0:0:
256,192,110266,1,2,0:0:0:0:
256,192,110420,1,2,0:0:0:0:
256,192,110573,1,0,0:0:0:0:
256,192,110727,1,0,0:0:0:0:
256,192,110881,1,2,0:0:0:0:
256,192,111189,1,4,0:0:0:0:
256,192,111496,1,0,0:0:0:0:
256,192,111650,1,0,0:0:0:0:
256,192,111804,1,2,0:0:0:0:
256,192,112112,1,0,0:0:0:0:
256,192,112266,1,2,0:0:0:0:
256,192,112573,1,2,0:0:0:0:
256,192,112727,1,0,0:0:0:0:
256,192,112881,1,0,0:0:0:0:
256,192,113035,1,2,0:0:0:0:
256,192,113343,1,0,0:0:0:0:
256,192,113650,1,2,0:0:0:0:
256,192,113958,1,0,0:0:0:0:
256,192,114112,1,0,0:0:0:0:
256,192,114266,1,0,0:0:0:0:
256,192,114573,1,2,0:0:0:0:
256,192,114727,1,0,0:0:0:0:
256,192,115035,1,0,0:0:0:0:
256,192,115189,1,2,0:0:0:0:
256,192,115343,1,2,0:0:0:0:
256,192,115496,1,0,0:0:0:0:
256,192,115804,1,2,0:0:0:0:
256,192,116112,1,0,0:0:0:0:
256,192,116420,1,2,0:0:0:0:
256,192,116573,1,2,0:0:0:0:
256,192,116727,1,0,0:0:0:0:
256,192,117035,1,2,0:0:0:0:
256,192,117189,1,0,0:0:0:0:
256,192,117496,1,0,0:0:0:0:
256,192,117650,1,2,0:0:0:0:
256,192,117958,1,2,0:0:0:0:
256,192,118266,1,0,0:0:0:0:
256,192,118573,1,2,0:0:0:0:
256,192,119035,1,2,0:0:0:0:
256,192,119189,1,0,0:0:0:0:
256,192,119496,1,2,0:0:0:0:
256,192,119804,1,0,0:0:0:0:
256,192,119958,1,2,0:0:0:0:
256,192,120035,1,2,0:0:0:0:
256,192,120112,1,2,0:0:0:0:
256,192,120266,1,2,0:0:0:0:
256,192,120420,1,0,0:0:0:0:
256,192,120573,1,2,0:0:0:0:
256,192,120727,1,0,0:0:0:0:
256,192,120881,1,0,0:0:0:0:
256,192,121035,1,0,0:0:0:0:
256,192,121496,1,0,0:0:0:0:
256,192,121650,1,0,0:0:0:0:
256,192,121958,1,2,0:0:0:0:
256,192,122266,1,0,0:0:0:0:
256,192,122573,1,0,0:0:0:0:
256,192,122727,1,2,0:0:0:0:
256,192,123189,1,2,0:0:0:0:
256,192,123343,1,2,0:0:0:0:
256,192,123497,1,0,0:0:0:0:
256,192,123958,1,0,0:0:0:0:
256,192,124112,1,0,0:0:0:0:
256,192,124420,1,2,0:0:0:0:
256,192,124573,1,0,0:0:0:0:
256,192,124881,1,0,0:0:0:0:
256,192,125189,1,0,0:0:0:0:
256,192,125343,1,0,0:0:0:0:
256,192,125650,1,2,0:0:0:0:
256,192,125958,1,4,0:0:0:0:
256,192,126266,1,4,0:0:0:0:
256,192,126573,1,6,0:0:0:0:
256,192,126881,1,4,0:0:0:0:
256,192,127189,1,6,0:0:0:0:
256,192,127496,1,6,0:0:0:0:
256,192,127804,1,4,0:0:0:0:
256,192,128112,1,4,0:0:0:0:
256,192,128420,1,0,0:0:0:0:
256,192,128573,1,0,0:0:0:0:
256,192,128881,1,2,0:0:0:0:
256,192,129035,1,2,0:0:0:0:
256,192,129343,1,0,0:0:0:0:
256,192,129496,1,0,0:0:0:0:
256,192,129958,1,2,0:0:0:0:
256,192,130266,1,0,0:0:0:0:
256,192,130573,1,2,0:0:0:0:
256,192,130881,1,2,0:0:0:0:
256,192,131035,1,2,0:0:0:0:
256,192,131343,1,0,0:0:0:0:
256,192,131496,1,0,0:0:0:0:
256,192,131804,1,2,0:0:0:0:
256,192,131958,1,2,0:0:0:0:
256,192,133189,1,6,0:0:0:0:
256,192,133496,1,0,0:0:0:0:
256,192,133573,1,0,0:0:0:0:
256,192,133650,1,0,0:0:0:0:
256,192,133804,1,2,0:0:0:0:
256,192,133958,1,0,0:0:0:0:
256,192,134112,1,2,0:0:0:0:
256,192,134266,1,2,0:0:0:0:
256,192,134420,1,0,0:0:0:0:
256,192,134727,1,2,0:0:0:0:
256,192,134881,1,0,0:0:0:0:
256,192,135035,1,0,0:0:0:0:
256,192,135189,1,2,0:0:0:0:
256,192,135343,1,2,0:0:0:0:
256,192,135420,1,2,0:0:0:0:
256,192,135496,1,2,0:0:0:0:
256,192,135650,1,2,0:0:0:0:
256,192,135804,1,0,0:0:0:0:
256,192,136112,1,2,0:0:0:0:
256,192,136266,1,2,0:0:0:0:
256,192,136420,1,0,0:0:0:0:
256,192,136727,1,2,0:0:0:0:
256,192,137035,1,4,0:0:0:0:
256,192,137189,1,6,0:0:0:0:
256,192,137496,1,4,0:0:0:0:
256,192,137804,1,6,0:0:0:0:
256,192,138112,1,4,0:0:0:0:
256,192,138266,1,2,0:0:0:0:
256,192,138343,1,2,0:0:0:0:
256,192,138420,1,2,0:0:0:0:
256,192,138573,1,2,0:0:0:0:
256,192,138727,1,0,0:0:0:0:
256,192,138881,1,0,0:0:0:0:
256,192,139035,1,2,0:0:0:0:
256,192,139343,1,0,0:0:0:0:
256,192,139650,1,0,0:0:0:0:
256,192,139727,1,0,0:0:0:0:
256,192,139804,1,0,0:0:0:0:
256,192,139958,1,0,0:0:0:0:
256,192,140112,1,2,0:0:0:0:
256,192,140266,1,0,0:0:0:0:
256,192,140420,1,2,0:0:0:0:
256,192,140727,1,0,0:0:0:0:
256,192,140881,1,0,0:0:0:0:
256,192,141035,1,2,0:0:0:0:
256,192,141343,1,0,0:0:0:0:
256,192,141496,1,0,0:0:0:0:
256,192,141650,1,2,0:0:0:0:
256,192,141804,1,2,0:0:0:0:
256,192,141958,1,4,0:0:0:0:
256,192,142266,1,6,0:0:0:0:
256,192,142573,1,4,0:0:0:0:
256,192,142881,1,6,0:0:0:0:
256,192,143189,1,4,0:0:0:0:
256,192,143496,1,0,0:0:0:0:
256,192,143650,1,0,0:0:0:0:
256,192,143804,1,2,0:0:0:0:
256,192,143958,1,0,0:0:0:0:
256,192,144420,1,0,0:0:0:0:
256,192,144727,1,0,0:0:0:0:
256,192,144881,1,0,0:0:0:0:
256,192,145035,1,2,0:0:0:0:
256,192,145496,1,2,0:0:0:0:
256,192,145650,1,0,0:0:0:0:
256,192,146112,1,0,0:0:0:0:
256,192,146266,1,2,0:0:0:0:
256,192,146420,1,0,0:0:0:0:
256,192,146727,1,2,0:0:0:0:
256,192,146881,1,0,0:0:0:0:
256,192,147189,1,2,0:0:0:0:
256,192,147343,1,2,0:0:0:0:
256,192,147496,1,0,0:0:0:0:
256,192,147650,1,0,0:0:0:0:
256,192,147804,1,2,0:0:0:0:
256,192,148112,1,4,0:0:0:0:
256,192,148573,1,6,0:0:0:0:
256,192,149035,1,4,0:0:0:0:
256,192,149496,1,6,0:0:0:0:
256,192,149650,1,0,0:0:0:0:
256,192,149804,1,0,0:0:0:0:
256,192,149958,1,6,0:0:0:0:
256,192,150266,1,6,0:0:0:0:
256,192,150573,1,4,0:0:0:0:
256,192,150727,1,2,0:0:0:0:
256,192,150881,1,0,0:0:0:0:
256,192,151035,1,2,0:0:0:0:
256,192,151189,1,2,0:0:0:0:
256,192,151266,1,2,0:0:0:0:
256,192,151343,1,2,0:0:0:0:
256,192,151496,1,0,0:0:0:0:
256,192,151650,1,2,0:0:0:0:
256,192,151804,1,0,0:0:0:0:
256,192,151958,1,0,0:0:0:0:
256,192,152266,1,0,0:0:0:0:
256,192,152420,1,2,0:0:0:0:
256,192,152573,1,0,0:0:0:0:
256,192,153343,1,4,0:0:0:0:
256,192,153650,1,0,0:0:0:0:
256,192,153804,1,0,0:0:0:0:
256,192,153958,1,2,0:0:0:0:
256,192,154266,1,0,0:0:0:0:
256,192,154573,1,2,0:0:0:0:
256,192,154727,1,0,0:0:0:0:
256,192,155035,1,0,0:0:0:0:
256,192,155189,1,2,0:0:0:0:
256,192,155343,1,2,0:0:0:0:
256,192,155496,1,0,0:0:0:0:
256,192,155804,1,0,0:0:0:0:
256,192,156112,1,2,0:0:0:0:
256,192,156266,1,0,0:0:0:0:
256,192,156420,1,2,0:0:0:0:
256,192,156573,1,0,0:0:0:0:
256,192,156881,1,2,0:0:0:0:
256,192,157189,1,0,0:0:0:0:
256,192,157650,1,2,0:0:0:0:
256,192,157804,1,2,0:0:0:0:
256,192,157958,1,0,0:0:0:0:
256,192,158266,1,2,0:0:0:0:
256,192,158573,1,0,0:0:0:0:
256,192,158727,1,0,0:0:0:0:
256,192,158881,1,2,0:0:0:0:
256,192,159035,1,0,0:0:0:0:
256,192,159343,1,0,0:0:0:0:
256,192,159496,1,2,0:0:0:0:
256,192,159804,1,0,0:0:0:0:
256,192,159958,1,0,0:0:0:0:
256,192,160112,1,2,0:0:0:0:
256,192,160266,1,2,0:0:0:0:
256,192,160420,1,0,0:0:0:0:
256,192,160727,1,2,0:0:0:0:
256,192,161035,1,0,0:0:0:0:
256,192,161189,1,2,0:0:0:0:
256,192,161343,1,0,0:0:0:0:
256,192,161496,1,4,0:0:0:0:
256,192,161727,1,4,0:0:0:0:
256,192,161958,1,4,0:0:0:0:
256,192,162189,1,4,0:0:0:0:
256,192,162420,1,4,0:0:0:0:
256,192,162650,1,4,0:0:0:0:
256,192,163189,1,4,0:0:0:0:
256,192,163496,1,0,0:0:0:0:
256,192,163650,1,0,0:0:0:0:
256,192,163804,1,2,0:0:0:0:
256,192,163958,1,0,0:0:0:0:
256,192,164420,1,2,0:0:0:0:
256,192,164573,1,0,0:0:0:0:
256,192,164881,1,0,0:0:0:0:
256,192,165035,1,2,0:0:0:0:
256,192,165189,1,2,0:0:0:0:
256,192,165343,1,0,0:0:0:0:
256,192,165650,1,0,0:0:0:0:
256,192,165958,1,2,0:0:0:0:
256,192,166266,1,0,0:0:0:0:
256,192,166420,1,0,0:0:0:0:
256,192,166727,1,0,0:0:0:0:
256,192,166881,1,2,0:0:0:0:
256,192,167035,1,0,0:0:0:0:
256,192,167343,1,0,0:0:0:0:
256,192,167496,1,2,0:0:0:0:
256,192,167650,1,2,0:0:0:0:
256,192,167804,1,0,0:0:0:0:
256,192,168112,1,2,0:0:0:0:
256,192,168266,1,2,0:0:0:0:
256,192,168727,1,0,0:0:0:0:
256,192,168881,1,2,0:0:0:0:
256,192,169343,1,0,0:0:0:0:
256,192,169496,1,0,0:0:0:0:
256,192,169958,1,2,0:0:0:0:
256,192,170112,1,0,0:0:0:0:
256,192,170573,1,0,0:0:0:0:
256,192,170727,1,2,0:0:0:0:
256,192,171189,1,0,0:0:0:0:
256,192,171343,1,2,0:0:0:0:
256,192,171496,1,4,0:0:0:0:
256,192,171804,1,4,0:0:0:0:
256,192,172112,1,6,0:0:0:0:
256,192,172881,1,4,0:0:0:0:
256,192,173343,1,4,0:0:0:0:
256,192,173804,1,6,0:0:0:0:
256,192,174266,1,6,0:0:0:0:
256,192,174727,1,6,0:0:0:0:
256,192,175035,1,2,0:0:0:0:
256,192,175189,1,0,0:0:0:0:
256,192,175266,1,0,0:0:0:0:
256,192,175343,1,0,0:0:0:0:
256,192,175496,1,2,0:0:0:0:
256,192,175650,1,0,0:0:0:0:
256,192,175804,1,0,0:0:0:0:
256,192,175958,1,2,0:0:0:0:
256,192,176112,1,0,0:0:0:0:
256,192,176266,1,6,0:0:0:0:
256,192,176573,1,6,0:0:0:0:
256,192,176881,1,6,0:0:0:0:
256,192,177035,1,4,0:0:0:0:
256,192,177496,1,4,0:0:0:0:
256,192,177958,1,0,0:0:0:0:
256,192,178266,1,2,0:0:0:0:
256,192,178727,1,4,0:0:0:0:
256,192,179035,1,0,0:0:0:0:
256,192,179189,1,2,0:0:0:0:
256,192,179496,1,0,0:0:0:0:
256,192,179804,1,2,0:0:0:0:
256,192,180112,1,4,0:0:0:0:
256,192,181035,1,2,0:0:0:0:
256,192,181343,1,4,0:0:0:0:
256,192,181958,1,4,0:0:0:0:
256,192,182420,1,4,0:0:0:0:
256,192,182727,1,2,0:0:0:0:
256,192,182881,1,2,0:0:0:0:
256,192,183189,1,0,0:0:0:0:
256,192,183343,1,2,0:0:0:0:
256,192,183650,1,4,0:0:0:0:
256,192,184112,1,2,0:0:0:0:
256,192,184420,1,0,0:0:0:0:
256,192,184727,1,2,0:0:0:0:
256,192,185343,1,6,0:0:0:0:
256,192,185958,1,6,0:0:0:0:
256,192,186266,1,6,0:0:0:0:
256,192,186573,1,6,0:0:0:0:
256,192,186881,1,4,0:0:0:0:
256,192,187189,1,4,0:0:0:0:
256,192,187343,1,6,0:0:0:0:
256,192,187650,1,2,0:0:0:0:
256,192,187804,1,2,0:0:0:0:
256,192,187958,1,0,0:0:0:0:
256,192,188112,1,0,0:0:0:0:
256,192,188266,1,2,0:0:0:0:
256,192,188573,1,4,0:0:0:0:
256,192,188881,1,0,0:0:0:0:
256,192,189035,1,2,0:0:0:0:
256,192,189189,1,2,0:0:0:0:
256,192,189343,1,0,0:0:0:0:
256,192,189420,1,0,0:0:0:0:
256,192,189496,1,0,0:0:0:0:
256,192,189650,1,2,0:0:0:0:
256,192,189958,1,0,0:0:0:0:
256,192,190112,1,2,0:0:0:0:
256,192,190266,1,0,0:0:0:0:
256,192,190420,1,2,0:0:0:0:
256,192,190573,1,0,0:0:0:0:
256,192,190881,1,2,0:0:0:0:
256,192,191035,1,2,0:0:0:0:
256,192,191189,1,4,0:0:0:0:
256,192,191343,1,4,0:0:0:0:
256,192,191650,1,6,0:0:0:0:
256,192,191958,1,4,0:0:0:0:
256,192,192266,1,4,0:0:0:0:
256,192,192573,1,0,0:0:0:0:
256,192,192727,1,2,0:0:0:0:
256,192,192881,1,0,0:0:0:0:
256,192,193035,1,0,0:0:0:0:
256,192,193189,1,2,0:0:0:0:
256,192,193496,1,6,0:0:0:0:
256,192,193804,1,2,0:0:0:0:
256,192,193881,1,2,0:0:0:0:
256,192,193958,1,2,0:0:0:0:
256,192,194112,1,0,0:0:0:0:
256,192,194266,1,2,0:0:0:0:
256,192,194420,1,0,0:0:0:0:
256,192,194573,1,2,0:0:0:0:
256,192,194881,1,0,0:0:0:0:
256,192,195035,1,2,0:0:0:0:
256,192,195189,1,0,0:0:0:0:
256,192,195342,1,2,0:0:0:0:
256,192,195496,1,0,0:0:0:0:
256,192,195804,1,2,0:0:0:0:
256,192,195958,1,0,0:0:0:0:
256,192,196112,1,6,0:0:0:0:
256,192,196420,1,4,0:0:0:0:
256,192,196727,1,6,0:0:0:0:
256,192,197035,1,6,0:0:0:0:
256,192,197343,1,4,0:0:0:0:
256,192,197804,1,0,0:0:0:0:
256,192,197958,1,2,0:0:0:0:
256,192,198112,1,0,0:0:0:0:
256,192,198420,1,0,0:0:0:0:
256,192,198573,1,0,0:0:0:0:
256,192,198881,1,0,0:0:0:0:
256,192,199035,1,2,0:0:0:0:
256,192,199189,1,0,0:0:0:0:
256,192,199343,1,0,0:0:0:0:
256,192,199496,1,2,0:0:0:0:
256,192,199804,1,0,0:0:0:0:
256,192,200266,1,2,0:0:0:0:
256,192,200420,1,0,0:0:0:0:
256,192,200727,1,2,0:0:0:0:
256,192,200881,1,0,0:0:0:0:
256,192,201035,1,0,0:0:0:0:
256,192,201189,1,2,0:0:0:0:
256,192,201266,1,2,0:0:0:0:
256,192,201343,1,2,0:0:0:0:
256,192,201496,1,2,0:0:0:0:
256,192,201650,1,0,0:0:0:0:
256,192,201804,1,0,0:0:0:0:
256,192,201958,1,2,0:0:0:0:
256,192,202112,1,0,0:0:0:0:
256,192,202266,1,6,0:0:0:0:
256,192,202727,1,6,0:0:0:0:
256,192,203189,1,4,0:0:0:0:
256,192,203650,1,6,0:0:0:0:
256,192,203804,1,0,0:0:0:0:
256,192,203958,1,0,0:0:0:0:
256,192,204112,1,6,0:0:0:0:
256,192,204419,1,0,0:0:0:0:
256,192,204573,1,0,0:0:0:0:
256,192,204727,1,6,0:0:0:0:
256,192,205035,1,2,0:0:0:0:
256,192,205343,1,0,0:0:0:0:
256,192,205650,1,2,0:0:0:0:
256,192,205958,1,0,0:0:0:0:
256,192,206112,1,0,0:0:0:0:
256,192,206419,1,0,0:0:0:0:
256,192,206573,1,2,0:0:0:0:
256,192,206727,1,0,0:0:0:0:
256,192,207496,1,6,0:0:0:0:
256,192,207804,1,0,0:0:0:0:
256,192,207958,1,2,0:0:0:0:
256,192,208265,1,0,0:0:0:0:
256,192,208573,1,0,0:0:0:0:
256,192,208727,1,0,0:0:0:0:
256,192,208881,1,2,0:0:0:0:
256,192,209034,1,0,0:0:0:0:
256,192,209342,1,2,0:0:0:0:
256,192,209958,1,4,0:0:0:0:
256,192,210266,1,2,0:0:0:0:
256,192,210419,1,0,0:0:0:0:
256,192,210573,1,0,0:0:0:0:
256,192,210727,1,2,0:0:0:0:
256,192,211035,1,0,0:0:0:0:
256,192,211189,1,2,0:0:0:0:
256,192,211343,1,2,0:0:0:0:
256,192,211496,1,0,0:0:0:0:
256,192,211804,1,2,0:0:0:0:
256,192,212420,1,4,0:0:0:0:
256,192,212728,1,2,0:0:0:0:
256,192,213035,1,0,0:0:0:0:
256,192,213189,1,2,0:0:0:0:
256,192,213497,1,2,0:0:0:0:
256,192,213651,1,0,0:0:0:0:
256,192,213805,1,0,0:0:0:0:
256,192,213959,1,2,0:0:0:0:
256,192,214266,1,2,0:0:0:0:
256,192,214881,1,6,0:0:0:0:
256,192,215189,1,0,0:0:0:0:
256,192,215343,1,2,0:0:0:0:
256,192,215496,1,0,0:0:0:0:
256,192,215650,1,2,0:0:0:0:
256,192,215958,1,0,0:0:0:0:
256,192,216112,1,0,0:0:0:0:
256,192,216266,1,2,0:0:0:0:
256,192,216420,1,4,0:0:0:0:
