osu file format v13

[General]
AudioFilename: Koi no Buckin Buckingham.mp3
AudioLeadIn: 0
PreviewTime: 177496
Countdown: 0
SampleSet: Normal
StackLeniency: 0.7
Mode: 1
LetterboxInBreaks: 0
WidescreenStoryboard: 1

[Editor]
Bookmarks: 10573,29958,61804,81958,101343,133189,153343,177496,187343,192266,197343,207496,209958,212420,214881
DistanceSpacing: 1
BeatDivisor: 2
GridSize: 32
TimelineZoom: 2.500001

[Metadata]
Title:Koi no Bakkin Buckingham!
TitleUnicode:恋の罰金バッキンガム!
Artist:Sugiura Ayano (CV : Fujita Saki)
ArtistUnicode:杉浦綾乃(CV:藤田咲)
Creator:RenKun
Version:Kantan
Source:Yuru Yuri
Tags:azger
BeatmapID:518401
BeatmapSetID:221603

[Difficulty]
HPDrainRate:5
CircleSize:3
OverallDifficulty:5
ApproachRate:5
SliderMultiplier:1.4
SliderTickRate:1

[Events]
//Background and Video events
0,0,"bg.png",0,40
//Break Periods
//Storyboard Layer 0 (Background)
//Storyboard Layer 1 (Fail)
//Storyboard Layer 2 (Pass)
//Storyboard Layer 3 (Foreground)
//Storyboard Sound Samples
//Background Colour Transformations
3,100,163,162,255

[TimingPoints]
420,307.692307692308,4,1,0,100,1,0
61804,-100,4,1,0,100,0,1
81958,-100,4,1,0,100,0,0
133189,-100,4,1,0,100,0,1
153343,-100,4,1,0,100,0,0
187343,-100,4,1,0,100,0,1
207496,-100,4,1,0,100,0,0

[HitObjects]
256,192,420,5,4,0:0:0:0:
256,192,1650,1,0,0:0:0:0:
256,192,2266,1,2,0:0:0:0:
256,192,2881,1,0,0:0:0:0:
256,192,4112,1,0,0:0:0:0:
256,192,4727,1,0,0:0:0:0:
256,192,5343,1,2,0:0:0:0:
256,192,5804,1,2,0:0:0:0:
256,192,6266,1,0,0:0:0:0:
256,192,6727,1,0,0:0:0:0:
256,192,7189,1,0,0:0:0:0:
256,192,7804,1,2,0:0:0:0:
256,192,9035,1,4,0:0:0:0:
256,192,9650,1,6,0:0:0:0:
256,192,10573,1,4,0:0:0:0:
256,192,11343,1,0,0:0:0:0:
256,192,11650,1,0,0:0:0:0:
256,192,12112,1,0,0:0:0:0:
256,192,12420,1,2,0:0:0:0:
256,192,13035,1,6,0:0:0:0:
256,192,13804,1,2,0:0:0:0:
256,192,14112,1,2,0:0:0:0:
256,192,14573,1,2,0:0:0:0:
256,192,14881,1,0,0:0:0:0:
256,192,15496,1,4,0:0:0:0:
256,192,16266,1,0,0:0:0:0:
256,192,16573,1,0,0:0:0:0:
256,192,17035,1,0,0:0:0:0:
256,192,17343,1,2,0:0:0:0:
256,192,17958,1,6,0:0:0:0:
256,192,18727,1,2,0:0:0:0:
256,192,19035,1,0,0:0:0:0:
256,192,19496,1,0,0:0:0:0:
256,192,20112,1,6,0:0:0:0:
256,192,20727,1,0,0:0:0:0:
256,192,21343,1,0,0:0:0:0:
256,192,21958,1,0,0:0:0:0:
256,192,22573,1,4,0:0:0:0:
256,192,23189,1,0,0:0:0:0:
256,192,23804,1,0,0:0:0:0:
256,192,24420,1,0,0:0:0:0:
256,192,25035,1,6,0:0:0:0:
256,192,25650,1,0,0:0:0:0:
256,192,26266,1,0,0:0:0:0:
256,192,26881,1,0,0:0:0:0:
256,192,27496,1,4,0:0:0:0:
256,192,28112,1,6,0:0:0:0:
256,192,28727,1,4,0:0:0:0:
256,192,29343,1,6,0:0:0:0:
256,192,29958,1,4,0:0:0:0:
256,192,30573,1,0,0:0:0:0:
256,192,31189,1,0,0:0:0:0:
256,192,31496,1,2,0:0:0:0:
256,192,31804,1,0,0:0:0:0:
256,192,32420,1,0,0:0:0:0:
256,192,32727,1,2,0:0:0:0:
256,192,33343,1,2,0:0:0:0:
256,192,33650,1,0,0:0:0:0:
256,192,33958,1,2,0:0:0:0:
256,192,34573,1,0,0:0:0:0:
256,192,34881,1,0,0:0:0:0:
256,192,35496,1,0,0:0:0:0:
256,192,35804,1,2,0:0:0:0:
256,192,36420,1,2,0:0:0:0:
256,192,36727,1,0,0:0:0:0:
256,192,37035,1,2,0:0:0:0:
256,192,37343,1,0,0:0:0:0:
256,192,37958,1,0,0:0:0:0:
256,192,38266,1,2,0:0:0:0:
256,192,38881,1,2,0:0:0:0:
256,192,39189,1,0,0:0:0:0:
256,192,39496,1,2,0:0:0:0:
256,192,39804,1,0,0:0:0:0:
256,192,40420,1,0,0:0:0:0:
256,192,41035,1,0,0:0:0:0:
256,192,41343,1,0,0:0:0:0:
256,192,41650,1,2,0:0:0:0:
256,192,42266,1,0,0:0:0:0:
256,192,42881,1,0,0:0:0:0:
256,192,43496,1,0,0:0:0:0:
256,192,43804,1,2,0:0:0:0:
256,192,44112,1,0,0:0:0:0:
256,192,44727,1,0,0:0:0:0:
256,192,45343,1,0,0:0:0:0:
256,192,45958,1,0,0:0:0:0:
256,192,46266,1,0,0:0:0:0:
256,192,46573,1,2,0:0:0:0:
256,192,47189,1,0,0:0:0:0:
256,192,47804,1,0,0:0:0:0:
256,192,48112,1,2,0:0:0:0:
256,192,48727,1,0,0:0:0:0:
256,192,49035,1,0,0:0:0:0:
256,192,49342,1,2,0:0:0:0:
256,192,49650,1,0,0:0:0:0:
256,192,50266,1,0,0:0:0:0:
256,192,50573,1,2,0:0:0:0:
256,192,51496,1,0,0:0:0:0:
256,192,52727,1,0,0:0:0:0:
256,192,53035,1,2,0:0:0:0:
256,192,53958,1,0,0:0:0:0:
256,192,54573,1,0,0:0:0:0:
256,192,55804,1,2,0:0:0:0:
256,192,56420,1,0,0:0:0:0:
256,192,57035,1,4,0:0:0:0:
256,192,57496,1,6,0:0:0:0:
256,192,57958,1,4,0:0:0:0:
256,192,59496,1,6,0:0:0:0:
256,192,59958,1,4,0:0:0:0:
256,192,60420,1,6,0:0:0:0:
256,192,61804,1,4,0:0:0:0:
256,192,62266,1,0,0:0:0:0:
256,192,62573,1,0,0:0:0:0:
256,192,63035,1,2,0:0:0:0:
256,192,63496,1,2,0:0:0:0:
256,192,63804,1,0,0:0:0:0:
256,192,64420,1,0,0:0:0:0:
256,192,64728,1,2,0:0:0:0:
256,192,65035,1,0,0:0:0:0:
256,192,65650,1,6,0:0:0:0:
256,192,66727,1,4,0:0:0:0:
256,192,67189,1,0,0:0:0:0:
256,192,67496,1,0,0:0:0:0:
256,192,67804,1,2,0:0:0:0:
256,192,68420,1,2,0:0:0:0:
256,192,68727,1,0,0:0:0:0:
256,192,69035,1,2,0:0:0:0:
256,192,69958,1,0,0:0:0:0:
256,192,70573,1,4,0:0:0:0:
256,192,71189,1,6,0:0:0:0:
256,192,71804,1,4,0:0:0:0:
256,192,73035,1,0,0:0:0:0:
256,192,73650,1,2,0:0:0:0:
256,192,74266,1,0,0:0:0:0:
256,192,75496,1,0,0:0:0:0:
256,192,75804,1,0,0:0:0:0:
256,192,76112,1,2,0:0:0:0:
256,192,76420,1,0,0:0:0:0:
256,192,76727,1,6,0:0:0:0:
256,192,77189,1,6,0:0:0:0:
256,192,77650,1,4,0:0:0:0:
256,192,78112,1,0,0:0:0:0:
256,192,78573,1,0,0:0:0:0:
256,192,78881,1,0,0:0:0:0:
256,192,79189,1,2,0:0:0:0:
256,192,80420,1,4,0:0:0:0:
256,192,81035,1,6,0:0:0:0:
