osu file format v13

[General]
AudioFilename: Koi no Buckin Buckingham.mp3
AudioLeadIn: 0
PreviewTime: 177496
Countdown: 0
SampleSet: Normal
StackLeniency: 0.7
Mode: 1
LetterboxInBreaks: 0
WidescreenStoryboard: 0

[Editor]
Bookmarks: 10573,29958,61804,81958,101343,133189,153343,177496,187343,192266,197343,207496,209958,212420,214881
DistanceSpacing: 1
BeatDivisor: 4
GridSize: 32
TimelineZoom: 4.499999

[Metadata]
Title:Koi no Bakkin Buckingham!
TitleUnicode:恋の罰金バッキンガム!
Artist:Sugiura Ayano (CV : Fujita Saki)
ArtistUnicode:杉浦綾乃(CV:藤田咲)
Creator:RenKun
Version:Collab Inner Oni
Source:Yuru Yuri
Tags:azger
BeatmapID:518397
BeatmapSetID:221603

[Difficulty]
HPDrainRate:6
CircleSize:4
OverallDifficulty:6
ApproachRate:5
SliderMultiplier:1.4
SliderTickRate:1

[Events]
//Background and Video events
0,0,"bg.png",0,40
//Break Periods
//Storyboard Layer 0 (Background)
//Storyboard Layer 1 (Fail)
//Storyboard Layer 2 (Pass)
//Storyboard Layer 3 (Foreground)
//Storyboard Sound Samples
//Background Colour Transformations
3,100,163,162,255

[TimingPoints]
420,307.692307692308,4,1,0,100,1,0
61804,-100,4,1,0,100,0,1
81958,-100,4,1,0,100,0,0
133189,-100,4,1,0,100,0,1
153343,-100,4,1,0,100,0,0
187343,-100,4,1,0,100,0,1
207496,-100,4,1,0,100,0,0

[HitObjects]
256,192,420,5,4,0:0:0:0:
256,192,1343,1,0,0:0:0:0:
256,192,1650,1,2,0:0:0:0:
256,192,1958,1,0,0:0:0:0:
256,192,2266,1,2,0:0:0:0:
256,192,2573,1,2,0:0:0:0:
256,192,2881,1,0,0:0:0:0:
256,192,3804,1,2,0:0:0:0:
256,192,4112,1,0,0:0:0:0:
256,192,4727,1,2,0:0:0:0:
256,192,4804,1,2,0:0:0:0:
256,192,4881,1,0,0:0:0:0:
256,192,4958,1,0,0:0:0:0:
256,192,5035,1,2,0:0:0:0:
256,192,5189,1,2,0:0:0:0:
256,192,5343,1,4,0:0:0:0:
256,192,5804,1,6,0:0:0:0:
256,192,6266,1,4,0:0:0:0:
256,192,6727,1,6,0:0:0:0:
256,192,6881,1,0,0:0:0:0:
256,192,6958,1,0,0:0:0:0:
256,192,7035,1,0,0:0:0:0:
256,192,7189,1,2,0:0:0:0:
256,192,7343,1,0,0:0:0:0:
256,192,7496,1,2,0:0:0:0:
256,192,7650,1,0,0:0:0:0:
256,192,7804,1,6,0:0:0:0:
256,192,7958,1,0,0:0:0:0:
256,192,8112,1,0,0:0:0:0:
256,192,8266,1,0,0:0:0:0:
256,192,8420,1,2,0:0:0:0:
256,192,8496,1,2,0:0:0:0:
256,192,8573,1,0,0:0:0:0:
256,192,8650,1,0,0:0:0:0:
256,192,8727,1,2,0:0:0:0:
256,192,8804,1,2,0:0:0:0:
256,192,8881,1,2,0:0:0:0:
256,192,8958,1,2,0:0:0:0:
256,192,9035,1,0,0:0:0:0:
256,192,9189,1,0,0:0:0:0:
256,192,9496,1,0,0:0:0:0:
256,192,9650,1,2,0:0:0:0:
256,192,9804,1,0,0:0:0:0:
256,192,10573,5,2,0:0:0:0:
256,192,10727,1,0,0:0:0:0:
256,192,10804,1,0,0:0:0:0:
256,192,10881,1,2,0:0:0:0:
256,192,11035,1,0,0:0:0:0:
256,192,11189,1,0,0:0:0:0:
256,192,11343,1,2,0:0:0:0:
256,192,11496,1,0,0:0:0:0:
256,192,11573,1,0,0:0:0:0:
256,192,11650,1,2,0:0:0:0:
256,192,11804,1,0,0:0:0:0:
256,192,11881,1,0,0:0:0:0:
256,192,11958,1,0,0:0:0:0:
256,192,12035,1,0,0:0:0:0:
256,192,12112,1,2,0:0:0:0:
256,192,12266,1,0,0:0:0:0:
256,192,12420,1,2,0:0:0:0:
256,192,12573,1,2,0:0:0:0:
256,192,13035,1,2,0:0:0:0:
256,192,13189,1,0,0:0:0:0:
256,192,13343,1,2,0:0:0:0:
256,192,13496,1,0,0:0:0:0:
256,192,13573,1,0,0:0:0:0:
256,192,13650,1,0,0:0:0:0:
256,192,13804,1,2,0:0:0:0:
256,192,13958,1,0,0:0:0:0:
256,192,14112,1,0,0:0:0:0:
256,192,14266,1,2,0:0:0:0:
256,192,14420,1,2,0:0:0:0:
256,192,14496,1,2,0:0:0:0:
256,192,14573,1,0,0:0:0:0:
256,192,14650,1,0,0:0:0:0:
256,192,14727,1,0,0:0:0:0:
256,192,14804,1,0,0:0:0:0:
256,192,14881,1,2,0:0:0:0:
256,192,15035,1,2,0:0:0:0:
256,192,15496,1,2,0:0:0:0:
256,192,15650,1,0,0:0:0:0:
256,192,15804,1,2,0:0:0:0:
256,192,15958,1,2,0:0:0:0:
256,192,16112,1,0,0:0:0:0:
256,192,16189,1,0,0:0:0:0:
256,192,16266,1,2,0:0:0:0:
256,192,16420,1,0,0:0:0:0:
256,192,16573,1,2,0:0:0:0:
256,192,16650,1,2,0:0:0:0:
256,192,16727,1,0,0:0:0:0:
256,192,16881,1,0,0:0:0:0:
256,192,17035,1,2,0:0:0:0:
256,192,17189,1,0,0:0:0:0:
256,192,17266,1,0,0:0:0:0:
256,192,17343,1,2,0:0:0:0:
256,192,17496,1,2,0:0:0:0:
256,192,17958,1,2,0:0:0:0:
256,192,18035,1,0,0:0:0:0:
256,192,18112,1,0,0:0:0:0:
256,192,18189,1,0,0:0:0:0:
256,192,18266,1,2,0:0:0:0:
256,192,18420,1,2,0:0:0:0:
256,192,18496,1,2,0:0:0:0:
256,192,18573,1,0,0:0:0:0:
256,192,18727,1,2,0:0:0:0:
256,192,19035,1,0,0:0:0:0:
256,192,19189,1,2,0:0:0:0:
256,192,19343,1,2,0:0:0:0:
256,192,19496,1,0,0:0:0:0:
256,192,20112,1,4,0:0:0:0:
256,192,20420,1,2,0:0:0:0:
256,192,20727,1,0,0:0:0:0:
256,192,20881,1,0,0:0:0:0:
256,192,21035,1,2,0:0:0:0:
256,192,21343,1,0,0:0:0:0:
256,192,21650,1,2,0:0:0:0:
256,192,21804,1,2,0:0:0:0:
256,192,21958,1,0,0:0:0:0:
256,192,22112,1,0,0:0:0:0:
256,192,22266,1,2,0:0:0:0:
256,192,22573,1,4,0:0:0:0:
256,192,22881,1,2,0:0:0:0:
256,192,23189,1,0,0:0:0:0:
256,192,23343,1,0,0:0:0:0:
256,192,23496,1,2,0:0:0:0:
256,192,23650,1,2,0:0:0:0:
256,192,23804,1,0,0:0:0:0:
256,192,24112,1,2,0:0:0:0:
256,192,24266,1,2,0:0:0:0:
256,192,24420,1,0,0:0:0:0:
256,192,24573,1,0,0:0:0:0:
256,192,24727,1,2,0:0:0:0:
256,192,24881,1,2,0:0:0:0:
256,192,25035,1,4,0:0:0:0:
256,192,25343,1,2,0:0:0:0:
256,192,25650,1,0,0:0:0:0:
256,192,25804,1,0,0:0:0:0:
256,192,25958,1,2,0:0:0:0:
256,192,26266,1,0,0:0:0:0:
256,192,26573,1,2,0:0:0:0:
256,192,26727,1,0,0:0:0:0:
256,192,26881,1,0,0:0:0:0:
256,192,27035,1,0,0:0:0:0:
256,192,27189,1,2,0:0:0:0:
256,192,27343,1,2,0:0:0:0:
256,192,27420,1,2,0:0:0:0:
256,192,27496,1,0,0:0:0:0:
256,192,27650,1,0,0:0:0:0:
256,192,27727,1,0,0:0:0:0:
256,192,27804,1,2,0:0:0:0:
256,192,27958,1,2,0:0:0:0:
256,192,28035,1,2,0:0:0:0:
256,192,28112,1,0,0:0:0:0:
256,192,28266,1,0,0:0:0:0:
256,192,28343,1,0,0:0:0:0:
256,192,28420,1,2,0:0:0:0:
256,192,28496,1,0,0:0:0:0:
256,192,28573,1,2,0:0:0:0:
256,192,28650,1,2,0:0:0:0:
256,192,28727,1,0,0:0:0:0:
256,192,28881,1,0,0:0:0:0:
256,192,28958,1,0,0:0:0:0:
256,192,29035,1,2,0:0:0:0:
256,192,29112,1,2,0:0:0:0:
256,192,29189,1,0,0:0:0:0:
256,192,29266,1,0,0:0:0:0:
256,192,29343,1,2,0:0:0:0:
256,192,29420,1,2,0:0:0:0:
256,192,29496,1,0,0:0:0:0:
256,192,29573,1,0,0:0:0:0:
256,192,29650,1,2,0:0:0:0:
256,192,29958,5,4,0:0:0:0:
256,192,30112,1,0,0:0:0:0:
256,192,30189,1,0,0:0:0:0:
256,192,30266,1,2,0:0:0:0:
256,192,30420,1,0,0:0:0:0:
256,192,30573,1,2,0:0:0:0:
256,192,30650,1,2,0:0:0:0:
256,192,30727,1,0,0:0:0:0:
256,192,30804,1,0,0:0:0:0:
256,192,30881,1,2,0:0:0:0:
256,192,31035,1,0,0:0:0:0:
256,192,31189,1,2,0:0:0:0:
256,192,31266,1,2,0:0:0:0:
256,192,31343,1,0,0:0:0:0:
256,192,31496,1,2,0:0:0:0:
256,192,31650,1,0,0:0:0:0:
256,192,31727,1,0,0:0:0:0:
256,192,31804,1,2,0:0:0:0:
256,192,31881,1,0,0:0:0:0:
256,192,31958,1,0,0:0:0:0:
256,192,32112,1,2,0:0:0:0:
256,192,32420,1,0,0:0:0:0:
256,192,32496,1,0,0:0:0:0:
256,192,32573,1,0,0:0:0:0:
256,192,32727,1,2,0:0:0:0:
256,192,32881,1,2,0:0:0:0:
256,192,32958,1,2,0:0:0:0:
256,192,33035,1,0,0:0:0:0:
256,192,33189,1,2,0:0:0:0:
256,192,33343,1,0,0:0:0:0:
256,192,33496,1,2,0:0:0:0:
256,192,33573,1,0,0:0:0:0:
256,192,33650,1,0,0:0:0:0:
256,192,33727,1,2,0:0:0:0:
256,192,33804,1,0,0:0:0:0:
256,192,33958,1,2,0:0:0:0:
256,192,34112,1,0,0:0:0:0:
256,192,34266,1,2,0:0:0:0:
256,192,34343,1,2,0:0:0:0:
256,192,34420,1,0,0:0:0:0:
256,192,34496,1,0,0:0:0:0:
256,192,34573,1,2,0:0:0:0:
256,192,34650,1,2,0:0:0:0:
256,192,34727,1,2,0:0:0:0:
256,192,34804,1,0,0:0:0:0:
256,192,34881,1,2,0:0:0:0:
256,192,35035,1,0,0:0:0:0:
256,192,35189,1,2,0:0:0:0:
256,192,35266,1,2,0:0:0:0:
256,192,35343,1,0,0:0:0:0:
256,192,35496,1,0,0:0:0:0:
256,192,35650,1,0,0:0:0:0:
256,192,35727,1,0,0:0:0:0:
256,192,35804,1,2,0:0:0:0:
256,192,35958,1,0,0:0:0:0:
256,192,36035,1,0,0:0:0:0:
256,192,36112,1,0,0:0:0:0:
256,192,36266,1,0,0:0:0:0:
256,192,36420,1,2,0:0:0:0:
256,192,36573,1,2,0:0:0:0:
256,192,36650,1,2,0:0:0:0:
256,192,36727,1,0,0:0:0:0:
256,192,36881,1,0,0:0:0:0:
256,192,36958,1,0,0:0:0:0:
256,192,37035,1,2,0:0:0:0:
256,192,37112,1,0,0:0:0:0:
256,192,37189,1,2,0:0:0:0:
256,192,37266,1,2,0:0:0:0:
256,192,37343,1,0,0:0:0:0:
256,192,37496,1,0,0:0:0:0:
256,192,37650,1,2,0:0:0:0:
256,192,37804,1,0,0:0:0:0:
256,192,37881,1,0,0:0:0:0:
256,192,37958,1,0,0:0:0:0:
256,192,38112,1,0,0:0:0:0:
256,192,38266,1,2,0:0:0:0:
256,192,38573,1,0,0:0:0:0:
256,192,38727,1,2,0:0:0:0:
256,192,38804,1,2,0:0:0:0:
256,192,38881,1,0,0:0:0:0:
256,192,39035,1,2,0:0:0:0:
256,192,39112,1,2,0:0:0:0:
256,192,39189,1,0,0:0:0:0:
256,192,39343,1,0,0:0:0:0:
256,192,39496,1,2,0:0:0:0:
256,192,39573,1,2,0:0:0:0:
256,192,39650,1,2,0:0:0:0:
256,192,39727,1,2,0:0:0:0:
256,192,39804,1,0,0:0:0:0:
256,192,40035,1,0,0:0:0:0:
256,192,40112,1,2,0:0:0:0:
256,192,40266,1,2,0:0:0:0:
256,192,40420,1,0,0:0:0:0:
256,192,40496,1,0,0:0:0:0:
256,192,40573,1,0,0:0:0:0:
256,192,40727,1,2,0:0:0:0:
256,192,40881,1,0,0:0:0:0:
256,192,40958,1,2,0:0:0:0:
256,192,41035,1,0,0:0:0:0:
256,192,41189,1,2,0:0:0:0:
256,192,41266,1,2,0:0:0:0:
256,192,41343,1,2,0:0:0:0:
256,192,41496,1,0,0:0:0:0:
256,192,41650,1,2,0:0:0:0:
256,192,41804,1,0,0:0:0:0:
256,192,41958,1,2,0:0:0:0:
256,192,42112,1,2,0:0:0:0:
256,192,42266,1,0,0:0:0:0:
256,192,42496,1,0,0:0:0:0:
256,192,42573,1,2,0:0:0:0:
256,192,42727,1,0,0:0:0:0:
256,192,42804,1,2,0:0:0:0:
256,192,42881,1,0,0:0:0:0:
256,192,43035,1,0,0:0:0:0:
256,192,43189,1,2,0:0:0:0:
256,192,43343,1,0,0:0:0:0:
256,192,43420,1,0,0:0:0:0:
256,192,43496,1,2,0:0:0:0:
256,192,43650,1,0,0:0:0:0:
256,192,43804,1,2,0:0:0:0:
256,192,43958,1,2,0:0:0:0:
256,192,44112,1,0,0:0:0:0:
256,192,44189,1,2,0:0:0:0:
256,192,44266,1,0,0:0:0:0:
256,192,44343,1,0,0:0:0:0:
256,192,44420,1,2,0:0:0:0:
256,192,44496,1,0,0:0:0:0:
256,192,44573,1,2,0:0:0:0:
256,192,44650,1,2,0:0:0:0:
256,192,44727,1,0,0:0:0:0:
256,192,44958,1,0,0:0:0:0:
256,192,45035,1,2,0:0:0:0:
256,192,45189,1,0,0:0:0:0:
256,192,45343,1,0,0:0:0:0:
256,192,45420,1,2,0:0:0:0:
256,192,45496,1,0,0:0:0:0:
256,192,45650,1,2,0:0:0:0:
256,192,45804,1,0,0:0:0:0:
256,192,45881,1,0,0:0:0:0:
256,192,45958,1,2,0:0:0:0:
256,192,46112,1,0,0:0:0:0:
256,192,46266,1,2,0:0:0:0:
256,192,46343,1,2,0:0:0:0:
256,192,46420,1,0,0:0:0:0:
256,192,46573,1,0,0:0:0:0:
256,192,46727,1,0,0:0:0:0:
256,192,46804,1,0,0:0:0:0:
256,192,46881,1,2,0:0:0:0:
256,192,46958,1,2,0:0:0:0:
256,192,47035,1,0,0:0:0:0:
256,192,47189,1,2,0:0:0:0:
256,192,47266,1,2,0:0:0:0:
256,192,47343,1,0,0:0:0:0:
256,192,47496,1,0,0:0:0:0:
256,192,47650,1,2,0:0:0:0:
256,192,47727,1,2,0:0:0:0:
256,192,47804,1,0,0:0:0:0:
256,192,47881,1,0,0:0:0:0:
256,192,47958,1,2,0:0:0:0:
256,192,48112,1,2,0:0:0:0:
256,192,48266,1,0,0:0:0:0:
256,192,48420,1,0,0:0:0:0:
256,192,48573,1,2,0:0:0:0:
256,192,48650,1,2,0:0:0:0:
256,192,48727,1,0,0:0:0:0:
256,192,48804,1,0,0:0:0:0:
256,192,48881,1,2,0:0:0:0:
256,192,48958,1,2,0:0:0:0:
256,192,49035,1,0,0:0:0:0:
256,192,49189,1,0,0:0:0:0:
256,192,49343,1,2,0:0:0:0:
256,192,49496,1,2,0:0:0:0:
256,192,49650,1,0,0:0:0:0:
256,192,50112,1,0,0:0:0:0:
256,192,50266,1,0,0:0:0:0:
256,192,50573,1,2,0:0:0:0:
256,192,50881,1,0,0:0:0:0:
256,192,51343,1,0,0:0:0:0:
256,192,51496,1,0,0:0:0:0:
256,192,51804,1,2,0:0:0:0:
256,192,52112,1,0,0:0:0:0:
256,192,52573,1,0,0:0:0:0:
256,192,52726,1,0,0:0:0:0:
256,192,53035,1,2,0:0:0:0:
256,192,53189,1,0,0:0:0:0:
256,192,53343,1,0,0:0:0:0:
256,192,53650,1,2,0:0:0:0:
256,192,53804,1,0,0:0:0:0:
256,192,53958,1,2,0:0:0:0:
256,192,54035,1,2,0:0:0:0:
256,192,54112,1,0,0:0:0:0:
256,192,54189,1,0,0:0:0:0:
256,192,54266,1,2,0:0:0:0:
256,192,54343,1,2,0:0:0:0:
256,192,54420,1,2,0:0:0:0:
256,192,54573,1,4,0:0:0:0:
256,192,54881,1,4,0:0:0:0:
256,192,55189,1,4,0:0:0:0:
256,192,55496,1,4,0:0:0:0:
256,192,55804,1,6,0:0:0:0:
256,192,56112,1,4,0:0:0:0:
256,192,56420,1,6,0:0:0:0:
256,192,56727,1,6,0:0:0:0:
256,192,57035,1,4,0:0:0:0:
256,192,57189,1,4,0:0:0:0:
256,192,57496,1,6,0:0:0:0:
256,192,57650,1,6,0:0:0:0:
256,192,57958,1,4,0:0:0:0:
256,192,58112,1,4,0:0:0:0:
256,192,58420,1,0,0:0:0:0:
256,192,58573,1,2,0:0:0:0:
256,192,58881,1,0,0:0:0:0:
256,192,59189,1,2,0:0:0:0:
256,192,59496,1,6,0:0:0:0:
256,192,59650,1,6,0:0:0:0:
256,192,59958,1,4,0:0:0:0:
256,192,60112,1,4,0:0:0:0:
256,192,60420,1,6,0:0:0:0:
256,192,60573,1,6,0:0:0:0:
256,192,61804,1,4,0:0:0:0:
256,192,62112,1,0,0:0:0:0:
256,192,62189,1,0,0:0:0:0:
256,192,62266,1,2,0:0:0:0:
256,192,62420,1,0,0:0:0:0:
256,192,62573,1,0,0:0:0:0:
256,192,62727,1,2,0:0:0:0:
256,192,62804,1,0,0:0:0:0:
256,192,62881,1,0,0:0:0:0:
256,192,62958,1,0,0:0:0:0:
256,192,63035,1,2,0:0:0:0:
256,192,63343,1,0,0:0:0:0:
256,192,63496,1,0,0:0:0:0:
256,192,63650,1,2,0:0:0:0:
256,192,63727,1,2,0:0:0:0:
256,192,63804,1,0,0:0:0:0:
256,192,63881,1,0,0:0:0:0:
256,192,63958,1,0,0:0:0:0:
256,192,64035,1,0,0:0:0:0:
256,192,64112,1,2,0:0:0:0:
256,192,64266,1,2,0:0:0:0:
256,192,64420,1,0,0:0:0:0:
256,192,64573,1,0,0:0:0:0:
256,192,64727,1,2,0:0:0:0:
256,192,64881,1,2,0:0:0:0:
256,192,64958,1,2,0:0:0:0:
256,192,65035,1,0,0:0:0:0:
256,192,65189,1,0,0:0:0:0:
256,192,65343,1,2,0:0:0:0:
256,192,65496,1,2,0:0:0:0:
256,192,65650,1,4,0:0:0:0:
256,192,65804,1,4,0:0:0:0:
256,192,66112,1,6,0:0:0:0:
256,192,66420,1,6,0:0:0:0:
256,192,66727,1,4,0:0:0:0:
256,192,67035,1,0,0:0:0:0:
256,192,67189,1,2,0:0:0:0:
256,192,67343,1,2,0:0:0:0:
256,192,67420,1,2,0:0:0:0:
256,192,67496,1,0,0:0:0:0:
256,192,67573,1,0,0:0:0:0:
256,192,67650,1,0,0:0:0:0:
256,192,67804,1,0,0:0:0:0:
256,192,67958,1,2,0:0:0:0:
256,192,68266,1,0,0:0:0:0:
256,192,68343,1,0,0:0:0:0:
256,192,68420,1,2,0:0:0:0:
256,192,68573,1,2,0:0:0:0:
256,192,68727,1,0,0:0:0:0:
256,192,68804,1,0,0:0:0:0:
256,192,68881,1,0,0:0:0:0:
256,192,68958,1,0,0:0:0:0:
256,192,69035,1,2,0:0:0:0:
256,192,69189,1,0,0:0:0:0:
256,192,69266,1,0,0:0:0:0:
256,192,69343,1,0,0:0:0:0:
256,192,69496,1,0,0:0:0:0:
256,192,69650,1,2,0:0:0:0:
256,192,69804,1,0,0:0:0:0:
256,192,69881,1,0,0:0:0:0:
256,192,69958,1,0,0:0:0:0:
256,192,70035,1,2,0:0:0:0:
256,192,70112,1,0,0:0:0:0:
256,192,70189,1,0,0:0:0:0:
256,192,70266,1,2,0:0:0:0:
256,192,70420,1,0,0:0:0:0:
256,192,70573,1,6,0:0:0:0:
256,192,70881,1,6,0:0:0:0:
256,192,71189,1,6,0:0:0:0:
256,192,71496,1,6,0:0:0:0:
256,192,71804,1,4,0:0:0:0:
256,192,71958,1,0,0:0:0:0:
256,192,72112,1,0,0:0:0:0:
256,192,72266,1,0,0:0:0:0:
256,192,72420,1,2,0:0:0:0:
256,192,72573,1,0,0:0:0:0:
256,192,72881,1,0,0:0:0:0:
256,192,73035,1,0,0:0:0:0:
256,192,73189,1,2,0:0:0:0:
256,192,73266,1,2,0:0:0:0:
256,192,73343,1,0,0:0:0:0:
256,192,73496,1,0,0:0:0:0:
256,192,73650,1,2,0:0:0:0:
256,192,73804,1,0,0:0:0:0:
256,192,74112,1,0,0:0:0:0:
256,192,74266,1,0,0:0:0:0:
256,192,74420,1,2,0:0:0:0:
256,192,74573,1,0,0:0:0:0:
256,192,74727,1,0,0:0:0:0:
256,192,74881,1,2,0:0:0:0:
256,192,75035,1,0,0:0:0:0:
256,192,75343,1,0,0:0:0:0:
256,192,75496,1,0,0:0:0:0:
256,192,75650,1,2,0:0:0:0:
256,192,75727,1,2,0:0:0:0:
256,192,75804,1,2,0:0:0:0:
256,192,75958,1,2,0:0:0:0:
256,192,76112,1,0,0:0:0:0:
256,192,76189,1,0,0:0:0:0:
256,192,76266,1,0,0:0:0:0:
256,192,76343,1,0,0:0:0:0:
256,192,76420,1,2,0:0:0:0:
256,192,76573,1,0,0:0:0:0:
256,192,76727,1,6,0:0:0:0:
256,192,77189,1,6,0:0:0:0:
256,192,77650,1,4,0:0:0:0:
256,192,78112,1,2,0:0:0:0:
256,192,78189,1,2,0:0:0:0:
256,192,78266,1,0,0:0:0:0:
256,192,78420,1,0,0:0:0:0:
256,192,78573,1,2,0:0:0:0:
256,192,78727,1,2,0:0:0:0:
256,192,78881,1,0,0:0:0:0:
256,192,79035,1,0,0:0:0:0:
256,192,79112,1,0,0:0:0:0:
256,192,79189,1,2,0:0:0:0:
256,192,79343,1,0,0:0:0:0:
256,192,79496,1,2,0:0:0:0:
256,192,79650,1,0,0:0:0:0:
256,192,79727,1,0,0:0:0:0:
256,192,79804,1,2,0:0:0:0:
256,192,79881,1,0,0:0:0:0:
256,192,79958,1,0,0:0:0:0:
256,192,80035,1,0,0:0:0:0:
256,192,80112,1,2,0:0:0:0:
256,192,80189,1,2,0:0:0:0:
256,192,80266,1,0,0:0:0:0:
256,192,80343,1,0,0:0:0:0:
256,192,80420,1,2,0:0:0:0:
256,192,80573,1,2,0:0:0:0:
256,192,80881,1,0,0:0:0:0:
256,192,80958,1,0,0:0:0:0:
256,192,81035,1,2,0:0:0:0:
256,192,81189,1,0,0:0:0:0:
256,192,81958,5,4,0:0:0:0:
256,192,82266,1,2,0:0:0:0:
256,192,82420,1,0,0:0:0:0:
256,192,82496,1,0,0:0:0:0:
256,192,82573,1,0,0:0:0:0:
256,192,82727,1,2,0:0:0:0:
256,192,82881,1,0,0:0:0:0:
256,192,82958,1,0,0:0:0:0:
256,192,83035,1,2,0:0:0:0:
256,192,83112,1,2,0:0:0:0:
256,192,83189,1,0,0:0:0:0:
256,192,83343,1,0,0:0:0:0:
256,192,83420,1,0,0:0:0:0:
256,192,83496,1,2,0:0:0:0:
256,192,83650,1,0,0:0:0:0:
256,192,83804,1,2,0:0:0:0:
256,192,84420,1,6,0:0:0:0:
256,192,84727,1,2,0:0:0:0:
256,192,84804,1,0,0:0:0:0:
256,192,84881,1,0,0:0:0:0:
256,192,84958,1,2,0:0:0:0:
256,192,85035,1,0,0:0:0:0:
256,192,85189,1,2,0:0:0:0:
256,192,85343,1,0,0:0:0:0:
256,192,85420,1,0,0:0:0:0:
256,192,85496,1,2,0:0:0:0:
256,192,85573,1,2,0:0:0:0:
256,192,85650,1,0,0:0:0:0:
256,192,85804,1,2,0:0:0:0:
256,192,85958,1,0,0:0:0:0:
256,192,86035,1,0,0:0:0:0:
256,192,86112,1,0,0:0:0:0:
256,192,86266,1,2,0:0:0:0:
256,192,86881,1,4,0:0:0:0:
256,192,87189,1,2,0:0:0:0:
256,192,87266,1,0,0:0:0:0:
256,192,87343,1,2,0:0:0:0:
256,192,87420,1,2,0:0:0:0:
256,192,87496,1,0,0:0:0:0:
256,192,87650,1,2,0:0:0:0:
256,192,87804,1,0,0:0:0:0:
256,192,87881,1,0,0:0:0:0:
256,192,87958,1,0,0:0:0:0:
256,192,88112,1,2,0:0:0:0:
256,192,88266,1,0,0:0:0:0:
256,192,88343,1,0,0:0:0:0:
256,192,88420,1,2,0:0:0:0:
256,192,88573,1,0,0:0:0:0:
256,192,88727,1,2,0:0:0:0:
256,192,89343,1,6,0:0:0:0:
256,192,89496,1,2,0:0:0:0:
256,192,89573,1,2,0:0:0:0:
256,192,89650,1,0,0:0:0:0:
256,192,89727,1,0,0:0:0:0:
256,192,89804,1,2,0:0:0:0:
256,192,89881,1,0,0:0:0:0:
256,192,89958,1,2,0:0:0:0:
256,192,90035,1,2,0:0:0:0:
256,192,90112,1,0,0:0:0:0:
256,192,90420,1,4,0:0:0:0:
256,192,90573,1,0,0:0:0:0:
256,192,90727,1,2,0:0:0:0:
256,192,90881,1,4,0:0:0:0:
256,192,91496,1,6,0:0:0:0:
256,192,91804,1,0,0:0:0:0:
256,192,91958,1,2,0:0:0:0:
256,192,92112,1,0,0:0:0:0:
256,192,92266,1,2,0:0:0:0:
256,192,92420,1,0,0:0:0:0:
256,192,92727,1,2,0:0:0:0:
256,192,92881,1,2,0:0:0:0:
256,192,93035,1,0,0:0:0:0:
256,192,93189,1,0,0:0:0:0:
256,192,93343,1,2,0:0:0:0:
256,192,93496,1,0,0:0:0:0:
256,192,93650,1,2,0:0:0:0:
256,192,93958,1,4,0:0:0:0:
256,192,94266,1,2,0:0:0:0:
256,192,94420,1,0,0:0:0:0:
256,192,94573,1,2,0:0:0:0:
256,192,94727,1,2,0:0:0:0:
256,192,94881,1,0,0:0:0:0:
256,192,95189,1,2,0:0:0:0:
256,192,95343,1,0,0:0:0:0:
256,192,95496,1,2,0:0:0:0:
256,192,95804,1,0,0:0:0:0:
256,192,95958,1,0,0:0:0:0:
256,192,96112,1,2,0:0:0:0:
256,192,96266,1,2,0:0:0:0:
256,192,96420,1,4,0:0:0:0:
256,192,96727,1,0,0:0:0:0:
256,192,96881,1,2,0:0:0:0:
256,192,97035,1,0,0:0:0:0:
256,192,97343,1,0,0:0:0:0:
256,192,97496,1,2,0:0:0:0:
256,192,97650,1,0,0:0:0:0:
256,192,97804,1,0,0:0:0:0:
256,192,97958,1,2,0:0:0:0:
256,192,98112,1,2,0:0:0:0:
256,192,98266,1,0,0:0:0:0:
256,192,98420,1,0,0:0:0:0:
256,192,98573,1,2,0:0:0:0:
256,192,98881,1,0,0:0:0:0:
256,192,99189,1,6,0:0:0:0:
256,192,99496,1,0,0:0:0:0:
256,192,99804,1,6,0:0:0:0:
256,192,100112,1,0,0:0:0:0:
256,192,100266,1,2,0:0:0:0:
256,192,100420,1,0,0:0:0:0:
256,192,100573,1,2,0:0:0:0:
256,192,100727,1,0,0:0:0:0:
256,192,100804,1,0,0:0:0:0:
256,192,100881,1,2,0:0:0:0:
256,192,100958,1,2,0:0:0:0:
256,192,101035,1,2,0:0:0:0:
256,192,101343,5,0,0:0:0:0:
256,192,101496,1,0,0:0:0:0:
256,192,101573,1,0,0:0:0:0:
256,192,101650,1,2,0:0:0:0:
256,192,101804,1,0,0:0:0:0:
256,192,101958,1,0,0:0:0:0:
256,192,102035,1,0,0:0:0:0:
256,192,102112,1,0,0:0:0:0:
256,192,102266,1,2,0:0:0:0:
256,192,102420,1,0,0:0:0:0:
256,192,102727,1,0,0:0:0:0:
256,192,102881,1,2,0:0:0:0:
256,192,103035,1,0,0:0:0:0:
256,192,103112,1,0,0:0:0:0:
256,192,103189,1,0,0:0:0:0:
256,192,103343,1,0,0:0:0:0:
256,192,103496,1,2,0:0:0:0:
256,192,103650,1,0,0:0:0:0:
256,192,103727,1,0,0:0:0:0:
256,192,103804,1,0,0:0:0:0:
256,192,103958,1,0,0:0:0:0:
256,192,104035,1,0,0:0:0:0:
256,192,104112,1,2,0:0:0:0:
256,192,104266,1,2,0:0:0:0:
256,192,104420,1,0,0:0:0:0:
256,192,104573,1,0,0:0:0:0:
256,192,104727,1,2,0:0:0:0:
256,192,104881,1,0,0:0:0:0:
256,192,104958,1,0,0:0:0:0:
256,192,105035,1,0,0:0:0:0:
256,192,105189,1,0,0:0:0:0:
256,192,105343,1,2,0:0:0:0:
256,192,105496,1,2,0:0:0:0:
256,192,105650,1,0,0:0:0:0:
256,192,105727,1,0,0:0:0:0:
256,192,105804,1,2,0:0:0:0:
256,192,105881,1,2,0:0:0:0:
256,192,105958,1,0,0:0:0:0:
256,192,106112,1,2,0:0:0:0:
256,192,106189,1,2,0:0:0:0:
256,192,106266,1,0,0:0:0:0:
256,192,106420,1,0,0:0:0:0:
256,192,106496,1,0,0:0:0:0:
256,192,106573,1,2,0:0:0:0:
256,192,106727,1,0,0:0:0:0:
256,192,106881,1,0,0:0:0:0:
256,192,106958,1,0,0:0:0:0:
256,192,107035,1,0,0:0:0:0:
256,192,107189,1,2,0:0:0:0:
256,192,107343,1,0,0:0:0:0:
256,192,107650,1,0,0:0:0:0:
256,192,107804,1,2,0:0:0:0:
256,192,107958,1,0,0:0:0:0:
256,192,108035,1,0,0:0:0:0:
256,192,108112,1,0,0:0:0:0:
256,192,108189,1,2,0:0:0:0:
256,192,108266,1,0,0:0:0:0:
256,192,108420,1,2,0:0:0:0:
256,192,108573,1,0,0:0:0:0:
256,192,108650,1,0,0:0:0:0:
256,192,108727,1,0,0:0:0:0:
256,192,108881,1,0,0:0:0:0:
256,192,109035,1,2,0:0:0:0:
256,192,109189,1,0,0:0:0:0:
256,192,109266,1,0,0:0:0:0:
256,192,109420,1,2,0:0:0:0:
256,192,109496,1,0,0:0:0:0:
256,192,109650,1,2,0:0:0:0:
256,192,109804,1,0,0:0:0:0:
256,192,109881,1,0,0:0:0:0:
256,192,109958,1,0,0:0:0:0:
256,192,110112,1,2,0:0:0:0:
256,192,110189,1,2,0:0:0:0:
256,192,110266,1,0,0:0:0:0:
256,192,110420,1,2,0:0:0:0:
256,192,110496,1,2,0:0:0:0:
256,192,110573,1,0,0:0:0:0:
256,192,110727,1,2,0:0:0:0:
256,192,110804,1,2,0:0:0:0:
256,192,110881,1,0,0:0:0:0:
256,192,110958,1,2,0:0:0:0:
256,192,111035,1,2,0:0:0:0:
256,192,111112,1,2,0:0:0:0:
256,192,111189,1,0,0:0:0:0:
256,192,111343,1,0,0:0:0:0:
256,192,111496,1,2,0:0:0:0:
256,192,111650,1,0,0:0:0:0:
256,192,111727,1,0,0:0:0:0:
256,192,111804,1,0,0:0:0:0:
256,192,111958,1,0,0:0:0:0:
256,192,112112,1,2,0:0:0:0:
256,192,112266,1,0,0:0:0:0:
256,192,112420,1,0,0:0:0:0:
256,192,112573,1,0,0:0:0:0:
256,192,112727,1,2,0:0:0:0:
256,192,112881,1,0,0:0:0:0:
256,192,112958,1,2,0:0:0:0:
256,192,113035,1,0,0:0:0:0:
256,192,113112,1,2,0:0:0:0:
256,192,113189,1,0,0:0:0:0:
256,192,113343,1,2,0:0:0:0:
256,192,113496,1,0,0:0:0:0:
256,192,113573,1,0,0:0:0:0:
256,192,113650,1,0,0:0:0:0:
256,192,113804,1,0,0:0:0:0:
256,192,113958,1,2,0:0:0:0:
256,192,114112,1,0,0:0:0:0:
256,192,114189,1,0,0:0:0:0:
256,192,114266,1,0,0:0:0:0:
256,192,114343,1,0,0:0:0:0:
256,192,114420,1,0,0:0:0:0:
256,192,114573,1,2,0:0:0:0:
256,192,114727,1,0,0:0:0:0:
256,192,114804,1,0,0:0:0:0:
256,192,114881,1,0,0:0:0:0:
256,192,115035,1,0,0:0:0:0:
256,192,115189,1,2,0:0:0:0:
256,192,115343,1,2,0:0:0:0:
256,192,115496,1,0,0:0:0:0:
256,192,115650,1,2,0:0:0:0:
256,192,115727,1,2,0:0:0:0:
256,192,115804,1,0,0:0:0:0:
256,192,115958,1,2,0:0:0:0:
256,192,116035,1,2,0:0:0:0:
256,192,116112,1,0,0:0:0:0:
256,192,116266,1,0,0:0:0:0:
256,192,116420,1,2,0:0:0:0:
256,192,116573,1,0,0:0:0:0:
256,192,116650,1,0,0:0:0:0:
256,192,116727,1,0,0:0:0:0:
256,192,116881,1,0,0:0:0:0:
256,192,116958,1,0,0:0:0:0:
256,192,117035,1,2,0:0:0:0:
256,192,117189,1,0,0:0:0:0:
256,192,117496,1,0,0:0:0:0:
256,192,117650,1,2,0:0:0:0:
256,192,117804,1,0,0:0:0:0:
256,192,117881,1,0,0:0:0:0:
256,192,117958,1,0,0:0:0:0:
256,192,118035,1,2,0:0:0:0:
256,192,118112,1,0,0:0:0:0:
256,192,118266,1,2,0:0:0:0:
256,192,118420,1,2,0:0:0:0:
256,192,118496,1,2,0:0:0:0:
256,192,118573,1,0,0:0:0:0:
256,192,118727,1,0,0:0:0:0:
256,192,118804,1,0,0:0:0:0:
256,192,118881,1,2,0:0:0:0:
256,192,119035,1,0,0:0:0:0:
256,192,119189,1,0,0:0:0:0:
256,192,119343,1,0,0:0:0:0:
256,192,119420,1,0,0:0:0:0:
256,192,119496,1,2,0:0:0:0:
256,192,119650,1,2,0:0:0:0:
256,192,119804,1,0,0:0:0:0:
256,192,119958,1,2,0:0:0:0:
256,192,120035,1,2,0:0:0:0:
256,192,120112,1,0,0:0:0:0:
256,192,120266,1,2,0:0:0:0:
256,192,120343,1,2,0:0:0:0:
256,192,120420,1,0,0:0:0:0:
256,192,120496,1,2,0:0:0:0:
256,192,120573,1,0,0:0:0:0:
256,192,120727,1,2,0:0:0:0:
256,192,120804,1,2,0:0:0:0:
256,192,120881,1,0,0:0:0:0:
256,192,120958,1,0,0:0:0:0:
256,192,121035,1,0,0:0:0:0:
256,192,121496,1,0,0:0:0:0:
256,192,121650,1,0,0:0:0:0:
256,192,121958,1,2,0:0:0:0:
256,192,122266,1,0,0:0:0:0:
256,192,122727,1,0,0:0:0:0:
256,192,122881,1,0,0:0:0:0:
256,192,123189,1,2,0:0:0:0:
256,192,123496,1,0,0:0:0:0:
256,192,123958,1,2,0:0:0:0:
256,192,124112,1,0,0:0:0:0:
256,192,124420,1,2,0:0:0:0:
256,192,124573,1,2,0:0:0:0:
256,192,124727,1,0,0:0:0:0:
256,192,125189,1,0,0:0:0:0:
256,192,125343,1,0,0:0:0:0:
256,192,125650,1,2,0:0:0:0:
256,192,125727,1,0,0:0:0:0:
256,192,125804,1,0,0:0:0:0:
256,192,125881,1,0,0:0:0:0:
256,192,125958,1,2,0:0:0:0:
256,192,126266,1,2,0:0:0:0:
256,192,126573,1,2,0:0:0:0:
256,192,126881,1,2,0:0:0:0:
256,192,127189,1,2,0:0:0:0:
256,192,127496,1,2,0:0:0:0:
256,192,127804,1,0,0:0:0:0:
256,192,128112,1,0,0:0:0:0:
256,192,128266,1,0,0:0:0:0:
256,192,128343,1,0,0:0:0:0:
256,192,128420,1,2,0:0:0:0:
256,192,128573,1,2,0:0:0:0:
256,192,128727,1,0,0:0:0:0:
256,192,128881,1,2,0:0:0:0:
256,192,129035,1,2,0:0:0:0:
256,192,129189,1,0,0:0:0:0:
256,192,129343,1,2,0:0:0:0:
256,192,129496,1,2,0:0:0:0:
256,192,129804,1,0,0:0:0:0:
256,192,129958,1,2,0:0:0:0:
256,192,130112,1,0,0:0:0:0:
256,192,130189,1,0,0:0:0:0:
256,192,130266,1,0,0:0:0:0:
256,192,130420,1,0,0:0:0:0:
256,192,130573,1,2,0:0:0:0:
256,192,130727,1,0,0:0:0:0:
256,192,130804,1,0,0:0:0:0:
256,192,130881,1,2,0:0:0:0:
256,192,131035,1,2,0:0:0:0:
256,192,131189,1,0,0:0:0:0:
256,192,131343,1,2,0:0:0:0:
256,192,131496,1,2,0:0:0:0:
256,192,131650,1,0,0:0:0:0:
256,192,131804,1,2,0:0:0:0:
256,192,131958,1,6,0:0:0:0:
256,192,132420,1,2,0:0:0:0:
256,192,132573,1,0,0:0:0:0:
256,192,132650,1,0,0:0:0:0:
256,192,132727,1,2,0:0:0:0:
256,192,132881,1,2,0:0:0:0:
224,192,133189,5,6,0:0:0:0:
224,192,133343,1,0,0:0:0:0:
224,192,133420,1,0,0:0:0:0:
224,192,133496,1,0,0:0:0:0:
224,192,133650,1,2,0:0:0:0:
224,192,133804,1,0,0:0:0:0:
224,192,133881,1,0,0:0:0:0:
224,192,133958,1,2,0:0:0:0:
224,192,134035,1,2,0:0:0:0:
224,192,134112,1,0,0:0:0:0:
224,192,134266,1,2,0:0:0:0:
224,192,134420,1,4,0:0:0:0:
224,192,134573,1,0,0:0:0:0:
224,192,134650,1,0,0:0:0:0:
224,192,134727,1,0,0:0:0:0:
224,192,134804,1,2,0:0:0:0:
224,192,134881,1,0,0:0:0:0:
224,192,135035,1,2,0:0:0:0:
224,192,135112,1,2,0:0:0:0:
224,192,135189,1,0,0:0:0:0:
224,192,135343,1,0,0:0:0:0:
224,192,135496,1,2,0:0:0:0:
224,192,135650,1,2,0:0:0:0:
224,192,135804,1,0,0:0:0:0:
224,192,135958,1,0,0:0:0:0:
224,192,136035,1,0,0:0:0:0:
224,192,136112,1,0,0:0:0:0:
224,192,136266,1,2,0:0:0:0:
224,192,136343,1,2,0:0:0:0:
224,192,136420,1,0,0:0:0:0:
224,192,136573,1,0,0:0:0:0:
224,192,136650,1,0,0:0:0:0:
224,192,136727,1,2,0:0:0:0:
224,192,136881,1,2,0:0:0:0:
224,192,137035,1,4,0:0:0:0:
224,192,137189,1,6,0:0:0:0:
224,192,137496,1,4,0:0:0:0:
224,192,137804,1,6,0:0:0:0:
224,192,138112,1,4,0:0:0:0:
224,192,138266,1,0,0:0:0:0:
224,192,138343,1,0,0:0:0:0:
224,192,138420,1,0,0:0:0:0:
224,192,138496,1,2,0:0:0:0:
224,192,138573,1,0,0:0:0:0:
224,192,138727,1,2,0:0:0:0:
224,192,138881,1,0,0:0:0:0:
224,192,138958,1,0,0:0:0:0:
224,192,139035,1,0,0:0:0:0:
224,192,139189,1,0,0:0:0:0:
224,192,139343,1,6,0:0:0:0:
224,192,139650,1,0,0:0:0:0:
224,192,139727,1,0,0:0:0:0:
224,192,139804,1,2,0:0:0:0:
224,192,139958,1,0,0:0:0:0:
224,192,140035,1,0,0:0:0:0:
224,192,140112,1,0,0:0:0:0:
224,192,140266,1,0,0:0:0:0:
224,192,140420,1,2,0:0:0:0:
224,192,140573,1,2,0:0:0:0:
224,192,140727,1,0,0:0:0:0:
224,192,140804,1,2,0:0:0:0:
224,192,140881,1,0,0:0:0:0:
224,192,141035,1,0,0:0:0:0:
224,192,141112,1,0,0:0:0:0:
224,192,141189,1,2,0:0:0:0:
224,192,141343,1,2,0:0:0:0:
224,192,141420,1,2,0:0:0:0:
224,192,141496,1,0,0:0:0:0:
224,192,141573,1,0,0:0:0:0:
224,192,141650,1,2,0:0:0:0:
224,192,141804,1,2,0:0:0:0:
224,192,141958,1,6,0:0:0:0:
224,192,142266,1,4,0:0:0:0:
224,192,142573,1,4,0:0:0:0:
224,192,142881,1,6,0:0:0:0:
224,192,143189,1,4,0:0:0:0:
224,192,143650,1,0,0:0:0:0:
224,192,143804,1,2,0:0:0:0:
224,192,143958,1,0,0:0:0:0:
224,192,144112,1,0,0:0:0:0:
224,192,144420,1,0,0:0:0:0:
224,192,144727,1,0,0:0:0:0:
224,192,144881,1,0,0:0:0:0:
224,192,145035,1,2,0:0:0:0:
224,192,145189,1,0,0:0:0:0:
224,192,145496,1,0,0:0:0:0:
224,192,145650,1,0,0:0:0:0:
224,192,145958,1,0,0:0:0:0:
224,192,146112,1,2,0:0:0:0:
224,192,146266,1,0,0:0:0:0:
224,192,146573,1,2,0:0:0:0:
224,192,146881,1,0,0:0:0:0:
224,192,147035,1,0,0:0:0:0:
224,192,147112,1,0,0:0:0:0:
224,192,147189,1,2,0:0:0:0:
224,192,147343,1,0,0:0:0:0:
224,192,147496,1,2,0:0:0:0:
224,192,147650,1,2,0:0:0:0:
224,192,147804,1,2,0:0:0:0:
224,192,147958,1,2,0:0:0:0:
224,192,148112,1,4,0:0:0:0:
224,192,148573,1,6,0:0:0:0:
224,192,149035,1,4,0:0:0:0:
224,192,149496,1,6,0:0:0:0:
224,192,149650,1,0,0:0:0:0:
224,192,149727,1,0,0:0:0:0:
224,192,149804,1,0,0:0:0:0:
224,192,149958,1,6,0:0:0:0:
224,192,150266,1,6,0:0:0:0:
224,192,150573,1,4,0:0:0:0:
224,192,150727,1,2,0:0:0:0:
224,192,150881,1,0,0:0:0:0:
224,192,151035,1,2,0:0:0:0:
224,192,151189,1,2,0:0:0:0:
224,192,151266,1,2,0:0:0:0:
224,192,151343,1,0,0:0:0:0:
224,192,151420,1,0,0:0:0:0:
224,192,151496,1,2,0:0:0:0:
224,192,151573,1,2,0:0:0:0:
224,192,151650,1,0,0:0:0:0:
224,192,151804,1,0,0:0:0:0:
224,192,151958,1,0,0:0:0:0:
224,192,152266,1,0,0:0:0:0:
224,192,152420,1,2,0:0:0:0:
224,192,152573,1,0,0:0:0:0:
256,192,153343,1,0,0:0:0:0:
256,192,153496,1,0,0:0:0:0:
256,192,153650,1,2,0:0:0:0:
256,192,153804,1,0,0:0:0:0:
256,192,153881,1,0,0:0:0:0:
256,192,153958,1,0,0:0:0:0:
256,192,154112,1,2,0:0:0:0:
256,192,154420,1,0,0:0:0:0:
256,192,154573,1,2,0:0:0:0:
256,192,154727,1,0,0:0:0:0:
256,192,154804,1,0,0:0:0:0:
256,192,154881,1,0,0:0:0:0:
256,192,154958,1,2,0:0:0:0:
256,192,155035,1,0,0:0:0:0:
256,192,155189,1,2,0:0:0:0:
256,192,155266,1,2,0:0:0:0:
256,192,155343,1,0,0:0:0:0:
256,192,155420,1,0,0:0:0:0:
256,192,155496,1,2,0:0:0:0:
256,192,155650,1,0,0:0:0:0:
256,192,155727,1,0,0:0:0:0:
256,192,155804,1,2,0:0:0:0:
256,192,155958,1,0,0:0:0:0:
256,192,156035,1,0,0:0:0:0:
256,192,156112,1,2,0:0:0:0:
256,192,156189,1,2,0:0:0:0:
256,192,156266,1,0,0:0:0:0:
256,192,156420,1,2,0:0:0:0:
256,192,156573,1,0,0:0:0:0:
256,192,156650,1,0,0:0:0:0:
256,192,156727,1,0,0:0:0:0:
256,192,156881,1,2,0:0:0:0:
256,192,157035,1,2,0:0:0:0:
256,192,157189,1,0,0:0:0:0:
256,192,157496,1,0,0:0:0:0:
256,192,157650,1,2,0:0:0:0:
256,192,157727,1,2,0:0:0:0:
256,192,157804,1,2,0:0:0:0:
256,192,157881,1,2,0:0:0:0:
256,192,157958,1,0,0:0:0:0:
256,192,158112,1,0,0:0:0:0:
256,192,158266,1,2,0:0:0:0:
256,192,158420,1,0,0:0:0:0:
256,192,158496,1,0,0:0:0:0:
256,192,158573,1,2,0:0:0:0:
256,192,158676,1,2,0:0:0:0:
256,192,158778,1,0,0:0:0:0:
256,192,158881,1,2,0:0:0:0:
256,192,158984,1,2,0:0:0:0:
256,192,159086,1,0,0:0:0:0:
256,192,159189,1,2,0:0:0:0:
256,192,159266,1,0,0:0:0:0:
256,192,159343,1,0,0:0:0:0:
256,192,159420,1,0,0:0:0:0:
256,192,159496,1,2,0:0:0:0:
256,192,159573,1,2,0:0:0:0:
256,192,159650,1,0,0:0:0:0:
256,192,159804,1,0,0:0:0:0:
256,192,159958,1,2,0:0:0:0:
256,192,160035,1,2,0:0:0:0:
256,192,160112,1,0,0:0:0:0:
256,192,160266,1,2,0:0:0:0:
256,192,160343,1,0,0:0:0:0:
256,192,160420,1,0,0:0:0:0:
256,192,160573,1,0,0:0:0:0:
256,192,160727,1,2,0:0:0:0:
256,192,160881,1,0,0:0:0:0:
256,192,161035,1,0,0:0:0:0:
256,192,161189,1,2,0:0:0:0:
256,192,161266,1,0,0:0:0:0:
256,192,161343,1,2,0:0:0:0:
256,192,161496,1,6,0:0:0:0:
256,192,161727,1,6,0:0:0:0:
256,192,161958,1,6,0:0:0:0:
256,192,162189,1,4,0:0:0:0:
256,192,162420,1,4,0:0:0:0:
256,192,162650,1,4,0:0:0:0:
256,192,163189,1,6,0:0:0:0:
256,192,163343,1,2,0:0:0:0:
256,192,163496,1,0,0:0:0:0:
256,192,163573,1,0,0:0:0:0:
256,192,163650,1,0,0:0:0:0:
256,192,163727,1,0,0:0:0:0:
256,192,163804,1,2,0:0:0:0:
256,192,163958,1,0,0:0:0:0:
256,192,164035,1,0,0:0:0:0:
256,192,164112,1,0,0:0:0:0:
256,192,164266,1,0,0:0:0:0:
256,192,164420,1,2,0:0:0:0:
256,192,164573,1,2,0:0:0:0:
256,192,164727,1,0,0:0:0:0:
256,192,164881,1,0,0:0:0:0:
256,192,165035,1,2,0:0:0:0:
256,192,165189,1,2,0:0:0:0:
256,192,165266,1,2,0:0:0:0:
256,192,165343,1,0,0:0:0:0:
256,192,165496,1,0,0:0:0:0:
256,192,165573,1,0,0:0:0:0:
256,192,165650,1,2,0:0:0:0:
256,192,165804,1,0,0:0:0:0:
256,192,165881,1,0,0:0:0:0:
256,192,165958,1,0,0:0:0:0:
256,192,166035,1,0,0:0:0:0:
256,192,166112,1,0,0:0:0:0:
256,192,166266,1,2,0:0:0:0:
256,192,166420,1,0,0:0:0:0:
256,192,166496,1,2,0:0:0:0:
256,192,166573,1,0,0:0:0:0:
256,192,166650,1,0,0:0:0:0:
256,192,166727,1,0,0:0:0:0:
256,192,166881,1,2,0:0:0:0:
256,192,167035,1,2,0:0:0:0:
256,192,167112,1,2,0:0:0:0:
256,192,167189,1,0,0:0:0:0:
256,192,167266,1,2,0:0:0:0:
256,192,167343,1,0,0:0:0:0:
256,192,167420,1,0,0:0:0:0:
256,192,167496,1,2,0:0:0:0:
256,192,167650,1,2,0:0:0:0:
256,192,167727,1,2,0:0:0:0:
256,192,167804,1,0,0:0:0:0:
256,192,167958,1,0,0:0:0:0:
256,192,168112,1,2,0:0:0:0:
256,192,168189,1,2,0:0:0:0:
256,192,168266,1,2,0:0:0:0:
256,192,168420,1,0,0:0:0:0:
256,192,168496,1,0,0:0:0:0:
256,192,168573,1,0,0:0:0:0:
256,192,168727,1,2,0:0:0:0:
256,192,168804,1,2,0:0:0:0:
256,192,168881,1,2,0:0:0:0:
256,192,169035,1,0,0:0:0:0:
256,192,169112,1,0,0:0:0:0:
256,192,169189,1,0,0:0:0:0:
256,192,169266,1,0,0:0:0:0:
256,192,169343,1,2,0:0:0:0:
256,192,169420,1,2,0:0:0:0:
256,192,169496,1,2,0:0:0:0:
256,192,169650,1,0,0:0:0:0:
256,192,169727,1,0,0:0:0:0:
256,192,169804,1,0,0:0:0:0:
256,192,169881,1,0,0:0:0:0:
256,192,169958,1,2,0:0:0:0:
256,192,170035,1,2,0:0:0:0:
256,192,170112,1,2,0:0:0:0:
256,192,170266,1,0,0:0:0:0:
256,192,170343,1,0,0:0:0:0:
256,192,170420,1,0,0:0:0:0:
256,192,170496,1,0,0:0:0:0:
256,192,170573,1,2,0:0:0:0:
256,192,170650,1,2,0:0:0:0:
256,192,170727,1,2,0:0:0:0:
256,192,170804,1,2,0:0:0:0:
256,192,170881,1,0,0:0:0:0:
256,192,170958,1,0,0:0:0:0:
256,192,171035,1,0,0:0:0:0:
256,192,171112,1,0,0:0:0:0:
256,192,171189,1,2,0:0:0:0:
256,192,171266,1,2,0:0:0:0:
256,192,171343,1,2,0:0:0:0:
256,192,171496,1,4,0:0:0:0:
256,192,171804,1,6,0:0:0:0:
256,192,172112,1,4,0:0:0:0:
256,192,172266,1,0,0:0:0:0:
256,192,172343,1,0,0:0:0:0:
256,192,172420,1,2,0:0:0:0:
256,192,172573,1,2,0:0:0:0:
256,192,172727,1,0,0:0:0:0:
256,192,172881,1,2,0:0:0:0:
256,192,172958,1,2,0:0:0:0:
256,192,173035,1,2,0:0:0:0:
256,192,173189,1,0,0:0:0:0:
256,192,173343,1,2,0:0:0:0:
256,192,173420,1,2,0:0:0:0:
256,192,173496,1,2,0:0:0:0:
256,192,173650,1,0,0:0:0:0:
256,192,173804,1,2,0:0:0:0:
256,192,173881,1,2,0:0:0:0:
256,192,173958,1,2,0:0:0:0:
256,192,174112,1,0,0:0:0:0:
256,192,174266,1,2,0:0:0:0:
256,192,174343,1,2,0:0:0:0:
256,192,174420,1,2,0:0:0:0:
256,192,174496,1,2,0:0:0:0:
256,192,174573,1,0,0:0:0:0:
256,192,174727,1,2,0:0:0:0:
256,192,174804,1,2,0:0:0:0:
256,192,174881,1,2,0:0:0:0:
256,192,174958,1,0,0:0:0:0:
256,192,175035,1,2,0:0:0:0:
256,192,175112,1,2,0:0:0:0:
256,192,175189,1,0,0:0:0:0:
256,192,175343,1,0,0:0:0:0:
256,192,175420,1,0,0:0:0:0:
256,192,175496,1,2,0:0:0:0:
256,192,175573,1,2,0:0:0:0:
256,192,175650,1,0,0:0:0:0:
256,192,175727,1,0,0:0:0:0:
256,192,175804,1,2,0:0:0:0:
256,192,175881,1,0,0:0:0:0:
256,192,175958,1,0,0:0:0:0:
256,192,176035,1,0,0:0:0:0:
256,192,176112,1,2,0:0:0:0:
256,192,176266,1,6,0:0:0:0:
256,192,176573,1,6,0:0:0:0:
256,192,176881,1,6,0:0:0:0:
256,192,177035,1,6,0:0:0:0:
256,192,177496,5,4,0:0:0:0:
256,192,177804,1,0,0:0:0:0:
256,192,177958,1,0,0:0:0:0:
256,192,178112,1,2,0:0:0:0:
256,192,178266,1,0,0:0:0:0:
256,192,178420,1,2,0:0:0:0:
256,192,178727,1,6,0:0:0:0:
256,192,179035,1,2,0:0:0:0:
256,192,179189,1,0,0:0:0:0:
256,192,179343,1,0,0:0:0:0:
256,192,179496,1,2,0:0:0:0:
256,192,179650,1,0,0:0:0:0:
256,192,179804,1,2,0:0:0:0:
256,192,180112,1,4,0:0:0:0:
256,192,181035,1,2,0:0:0:0:
256,192,181343,1,4,0:0:0:0:
256,192,181496,1,2,0:0:0:0:
256,192,181804,1,0,0:0:0:0:
256,192,181958,1,6,0:0:0:0:
256,192,182112,1,0,0:0:0:0:
256,192,182420,1,6,0:0:0:0:
256,192,182727,1,2,0:0:0:0:
256,192,182881,1,2,0:0:0:0:
256,192,183035,1,0,0:0:0:0:
256,192,183189,1,0,0:0:0:0:
256,192,183343,1,2,0:0:0:0:
256,192,183650,1,4,0:0:0:0:
256,192,183958,1,0,0:0:0:0:
256,192,184112,1,0,0:0:0:0:
256,192,184266,1,2,0:0:0:0:
256,192,184420,1,0,0:0:0:0:
256,192,184573,1,2,0:0:0:0:
256,192,184727,1,2,0:0:0:0:
256,192,185035,1,0,0:0:0:0:
256,192,185343,1,6,0:0:0:0:
256,192,185650,1,0,0:0:0:0:
256,192,185958,1,6,0:0:0:0:
256,192,186266,1,6,0:0:0:0:
256,192,186573,1,4,0:0:0:0:
256,192,186881,1,4,0:0:0:0:
256,192,187189,1,6,0:0:0:0:
256,192,187343,1,4,0:0:0:0:
256,192,187650,1,0,0:0:0:0:
256,192,187727,1,0,0:0:0:0:
256,192,187804,1,2,0:0:0:0:
256,192,187958,1,2,0:0:0:0:
256,192,188112,1,0,0:0:0:0:
256,192,188189,1,0,0:0:0:0:
256,192,188266,1,0,0:0:0:0:
256,192,188343,1,0,0:0:0:0:
256,192,188420,1,2,0:0:0:0:
256,192,188573,1,0,0:0:0:0:
256,192,188881,1,0,0:0:0:0:
256,192,188958,1,0,0:0:0:0:
256,192,189035,1,2,0:0:0:0:
256,192,189189,1,0,0:0:0:0:
256,192,189266,1,0,0:0:0:0:
256,192,189343,1,0,0:0:0:0:
256,192,189420,1,2,0:0:0:0:
256,192,189496,1,0,0:0:0:0:
256,192,189573,1,0,0:0:0:0:
256,192,189650,1,2,0:0:0:0:
256,192,189804,1,2,0:0:0:0:
256,192,189958,1,0,0:0:0:0:
256,192,190035,1,0,0:0:0:0:
256,192,190112,1,2,0:0:0:0:
256,192,190189,1,2,0:0:0:0:
256,192,190266,1,0,0:0:0:0:
256,192,190420,1,2,0:0:0:0:
256,192,190496,1,2,0:0:0:0:
256,192,190573,1,0,0:0:0:0:
256,192,190650,1,0,0:0:0:0:
256,192,190727,1,2,0:0:0:0:
256,192,190804,1,2,0:0:0:0:
256,192,190881,1,0,0:0:0:0:
256,192,191035,1,2,0:0:0:0:
256,192,191189,1,0,0:0:0:0:
256,192,191343,1,0,0:0:0:0:
256,192,191650,1,2,0:0:0:0:
256,192,191958,1,0,0:0:0:0:
256,192,192266,5,6,0:0:0:0:
256,192,192573,1,0,0:0:0:0:
256,192,192650,1,0,0:0:0:0:
256,192,192727,1,2,0:0:0:0:
256,192,192881,1,0,0:0:0:0:
256,192,193035,1,2,0:0:0:0:
256,192,193112,1,2,0:0:0:0:
256,192,193189,1,0,0:0:0:0:
256,192,193343,1,2,0:0:0:0:
256,192,193496,1,4,0:0:0:0:
256,192,193727,1,0,0:0:0:0:
256,192,193804,1,2,0:0:0:0:
256,192,193958,1,2,0:0:0:0:
256,192,194112,1,0,0:0:0:0:
256,192,194189,1,0,0:0:0:0:
256,192,194266,1,2,0:0:0:0:
256,192,194420,1,0,0:0:0:0:
256,192,194573,1,2,0:0:0:0:
256,192,194727,1,2,0:0:0:0:
256,192,194881,1,2,0:0:0:0:
256,192,194958,1,2,0:0:0:0:
256,192,195035,1,0,0:0:0:0:
256,192,195112,1,0,0:0:0:0:
256,192,195189,1,2,0:0:0:0:
256,192,195343,1,2,0:0:0:0:
256,192,195420,1,2,0:0:0:0:
256,192,195496,1,0,0:0:0:0:
256,192,195573,1,0,0:0:0:0:
256,192,195650,1,2,0:0:0:0:
256,192,195727,1,0,0:0:0:0:
256,192,195804,1,2,0:0:0:0:
256,192,195881,1,2,0:0:0:0:
256,192,195958,1,2,0:0:0:0:
256,192,196112,1,4,0:0:0:0:
256,192,196420,1,4,0:0:0:0:
256,192,196727,1,6,0:0:0:0:
256,192,197035,1,4,0:0:0:0:
256,192,197343,1,4,0:0:0:0:
256,192,197650,1,0,0:0:0:0:
256,192,197804,1,0,0:0:0:0:
256,192,197958,1,2,0:0:0:0:
256,192,198112,1,0,0:0:0:0:
256,192,198420,1,0,0:0:0:0:
256,192,198573,1,0,0:0:0:0:
256,192,198727,1,2,0:0:0:0:
256,192,198804,1,2,0:0:0:0:
256,192,198881,1,0,0:0:0:0:
256,192,199035,1,0,0:0:0:0:
256,192,199189,1,2,0:0:0:0:
256,192,199343,1,0,0:0:0:0:
256,192,199650,1,0,0:0:0:0:
256,192,199804,1,0,0:0:0:0:
256,192,200112,1,0,0:0:0:0:
256,192,200266,1,0,0:0:0:0:
256,192,200420,1,2,0:0:0:0:
256,192,200573,1,0,0:0:0:0:
256,192,200881,1,2,0:0:0:0:
256,192,201035,1,0,0:0:0:0:
256,192,201189,1,2,0:0:0:0:
256,192,201266,1,2,0:0:0:0:
256,192,201343,1,2,0:0:0:0:
256,192,201496,1,2,0:0:0:0:
256,192,201573,1,2,0:0:0:0:
256,192,201650,1,0,0:0:0:0:
256,192,201804,1,0,0:0:0:0:
256,192,201958,1,2,0:0:0:0:
256,192,202112,1,0,0:0:0:0:
256,192,202266,1,6,0:0:0:0:
256,192,202727,1,6,0:0:0:0:
256,192,203189,1,4,0:0:0:0:
256,192,203650,1,2,0:0:0:0:
256,192,203804,1,0,0:0:0:0:
256,192,203881,1,0,0:0:0:0:
256,192,203958,1,0,0:0:0:0:
256,192,204035,1,0,0:0:0:0:
256,192,204112,1,2,0:0:0:0:
256,192,204266,1,0,0:0:0:0:
256,192,204343,1,0,0:0:0:0:
256,192,204420,1,2,0:0:0:0:
256,192,204496,1,0,0:0:0:0:
256,192,204573,1,0,0:0:0:0:
256,192,204650,1,0,0:0:0:0:
256,192,204727,1,2,0:0:0:0:
256,192,204881,1,0,0:0:0:0:
256,192,204958,1,0,0:0:0:0:
256,192,205035,1,2,0:0:0:0:
256,192,205189,1,0,0:0:0:0:
256,192,205266,1,0,0:0:0:0:
256,192,205343,1,2,0:0:0:0:
256,192,205420,1,0,0:0:0:0:
256,192,205496,1,0,0:0:0:0:
256,192,205573,1,0,0:0:0:0:
256,192,205650,1,2,0:0:0:0:
256,192,205727,1,0,0:0:0:0:
256,192,205804,1,2,0:0:0:0:
256,192,205881,1,0,0:0:0:0:
256,192,205958,1,2,0:0:0:0:
256,192,206112,1,2,0:0:0:0:
256,192,206420,1,0,0:0:0:0:
256,192,206496,1,0,0:0:0:0:
256,192,206573,1,2,0:0:0:0:
256,192,206727,1,2,0:0:0:0:
256,192,207496,5,4,0:0:0:0:
256,192,207804,1,0,0:0:0:0:
256,192,207881,1,0,0:0:0:0:
256,192,207958,1,0,0:0:0:0:
256,192,208035,1,2,0:0:0:0:
256,192,208112,1,0,0:0:0:0:
256,192,208266,1,6,0:0:0:0:
256,192,208420,1,0,0:0:0:0:
256,192,208496,1,0,0:0:0:0:
256,192,208573,1,2,0:0:0:0:
256,192,208727,1,0,0:0:0:0:
256,192,208881,1,2,0:0:0:0:
256,192,208958,1,0,0:0:0:0:
256,192,209035,1,2,0:0:0:0:
256,192,209112,1,2,0:0:0:0:
256,192,209189,1,0,0:0:0:0:
256,192,209343,1,2,0:0:0:0:
256,192,209958,1,6,0:0:0:0:
256,192,210112,1,0,0:0:0:0:
256,192,210266,1,2,0:0:0:0:
256,192,210420,1,0,0:0:0:0:
256,192,210496,1,0,0:0:0:0:
256,192,210573,1,2,0:0:0:0:
256,192,210650,1,0,0:0:0:0:
256,192,210727,1,2,0:0:0:0:
256,192,210881,1,0,0:0:0:0:
256,192,211035,1,2,0:0:0:0:
256,192,211112,1,0,0:0:0:0:
256,192,211189,1,2,0:0:0:0:
256,192,211266,1,2,0:0:0:0:
256,192,211343,1,0,0:0:0:0:
256,192,211496,1,2,0:0:0:0:
256,192,211573,1,2,0:0:0:0:
256,192,211650,1,0,0:0:0:0:
256,192,211804,1,2,0:0:0:0:
256,192,212420,1,4,0:0:0:0:
256,192,212727,1,2,0:0:0:0:
256,192,212804,1,0,0:0:0:0:
256,192,212881,1,0,0:0:0:0:
256,192,213035,1,2,0:0:0:0:
256,192,213189,1,4,0:0:0:0:
256,192,213343,1,0,0:0:0:0:
256,192,213420,1,0,0:0:0:0:
256,192,213496,1,2,0:0:0:0:
256,192,213573,1,0,0:0:0:0:
256,192,213650,1,2,0:0:0:0:
256,192,213804,1,0,0:0:0:0:
256,192,213881,1,0,0:0:0:0:
256,192,213958,1,2,0:0:0:0:
256,192,214035,1,2,0:0:0:0:
256,192,214112,1,0,0:0:0:0:
256,192,214266,1,2,0:0:0:0:
256,192,214881,1,4,0:0:0:0:
256,192,215035,1,0,0:0:0:0:
256,192,215189,1,2,0:0:0:0:
256,192,215343,1,2,0:0:0:0:
256,192,215420,1,2,0:0:0:0:
256,192,215496,1,0,0:0:0:0:
256,192,215650,1,2,0:0:0:0:
256,192,215958,1,4,0:0:0:0:
256,192,216112,1,4,0:0:0:0:
256,192,216266,1,6,0:0:0:0:
256,192,216420,1,4,0:0:0:0:
