osu file format v12

[General]
AudioFilename: SugawaraSayuri-koi no mahou.mp3
AudioLeadIn: 0
PreviewTime: 83451
Countdown: 0
SampleSet: Soft
StackLeniency: 0.7
Mode: 0
LetterboxInBreaks: 1
StoryFireInFront: 0
EpilepsyWarning: 1

[Editor]
Bookmarks: 248957
DistanceSpacing: 1.3
BeatDivisor: 4
GridSize: 4

[Metadata]
Title:Koi no Mahou
TitleUnicode:恋の魔法
Artist:SugawaraSayuri
ArtistUnicode:菅原紗由理
Creator:Sweet Vanilla
Version:Ts8zStyle
Source:open the gate
Tags:yusoman ts8zs raririn
BeatmapID:263814
BeatmapSetID:89497

[Difficulty]
HPDrainRate:7
CircleSize:4
OverallDifficulty:7
ApproachRate:8
SliderMultiplier:2.79999990463257
SliderTickRate:1

[Events]
//Background and Video events
0,0,"background.jpg",0,0
//Break Periods
2,132649,135346
//Storyboard Layer 0 (Background)
//Storyboard Layer 1 (Fail)
//Storyboard Layer 2 (Pass)
//Storyboard Layer 3 (Foreground)
//Storyboard Sound Samples
//Background Colour Transformations
3,100,163,162,255

[TimingPoints]
19416,674.157303370787,4,2,1,30,1,0
84135,-100,4,2,1,30,0,1
104022,-100,4,2,1,30,0,0
105708,-100,4,2,1,30,0,1
127281,-100,4,2,1,30,0,0
178517,-100,4,2,1,30,0,1
200090,-100,4,2,1,30,0,0
224359,-100,4,2,1,30,0,1
244247,-100,4,2,1,30,0,0
245932,-100,4,2,1,30,0,1
270202,-100,4,2,1,30,0,0
291775,-100,4,2,1,20,0,0

[Colours]
Combo1 : 247,123,0
Combo2 : 93,93,93
Combo3 : 136,136,136
Combo4 : 212,212,212
Combo5 : 255,165,74
Combo6 : 255,100,26

[HitObjects]
80,100,21438,5,2,0:0:0:0:
112,84,21775,1,0,0:0:0:0:
144,68,22112,2,0,P|168:116|124:184,1,139.999995231629,2|0,0:0|0:0,0:0:0:0:
96,120,22618,1,0,0:0:0:0:
32,92,22786,2,0,L|32:168|32:236,1,139.999995231629
156,296,23460,6,0,P|112:244|124:164,1,139.999995231629,0|2,0:0|0:0,0:0:0:0:
384,168,23966,2,0,P|312:212|176:216,1,209.999992847443
316,116,24809,6,0,P|408:88|448:112,1,139.999995231629,2|0,0:0|0:0,0:0:0:0:
256,76,25314,2,0,P|328:24|456:28,1,209.999992847443
256,260,25989,2,0,P|184:312|56:308,1,209.999992847443,2|2,0:0|0:0,0:0:0:0:
128,168,26831,54,0,P|144:100|220:52,2,139.999995231629,0|0|2,0:0|0:0|0:0,0:0:0:0:
280,180,27842,1,0,0:0:0:0:
204,180,28011,2,0,P|284:252|356:184,1,209.999992847443
304,40,28854,1,0,0:0:0:0:
168,116,29191,1,2,0:0:0:0:
236,80,29359,2,0,P|168:40|92:124,1,209.999992847443
249,199,30202,6,0,P|192:204|148:268,1,139.999995231629,2|0,0:0|0:0,0:0:0:0:
224,272,30708,1,0,0:0:0:0:
280,128,30876,2,0,P|348:156|408:116,1,139.999995231629
416,216,31382,1,2,0:0:0:0:
340,80,31887,1,2,0:0:0:0:
32,96,32562,5,0,0:0:0:0:
56,104,32730,1,0,0:0:0:0:
80,116,32899,2,0,P|164:100|228:128,1,139.999995231629,2|0,0:0|0:0,0:0:0:0:
292,96,33404,2,0,L|376:80,1,69.9999976158143
244,192,33910,54,0,P|120:232|88:224,1,139.999995231629
328,148,34584,2,0,P|452:108|484:116,1,139.999995231629,2|0,0:0|0:0,0:0:0:0:
372,236,35258,1,0,0:0:0:0:
344,248,35427,1,0,0:0:0:0:
312,256,35595,2,0,P|292:172|256:104,1,139.999995231629,2|0,0:0|0:0,0:0:0:0:
204,144,36101,2,0,P|280:120|352:60,1,139.999995231629
388,48,36607,5,0,0:0:0:0:
428,104,36775,1,2,0:0:0:0:
428,176,36944,2,0,P|336:152|284:168,1,139.999995231629,0|2,0:0|0:0,0:0:0:0:
244,112,37449,2,0,P|300:176|284:312,1,209.999992847443,0|0,0:0|0:0,0:0:0:0:
360,324,38123,5,0,0:0:0:0:
356,252,38292,2,0,P|268:252|216:232,1,139.999995231629,2|0,0:0|0:0,0:0:0:0:
152,196,38798,1,0,0:0:0:0:
204,140,38966,2,0,P|228:208|192:260,1,139.999995231629
152,196,39472,2,0,P|128:128|248:80,1,209.999992847443,2|2,0:0|0:0,0:0:0:0:
204,140,40146,2,0,P|156:76|156:48,1,69.9999976158143
152,196,40651,2,0,P|104:144|84:76,1,139.999995231629,0|2,0:0|0:0,0:0:0:0:
256,192,41326,12,0,43011,0:0:0:0:
160,128,43685,5,4,0:0:0:0:
132,224,44022,2,0,P|208:204|240:212,1,69.9999976158143
330,285,44359,2,0,P|268:296|192:288,1,139.999995231629
392,128,45033,70,0,P|356:144|325:147,1,69.9999976158143
244,156,45371,1,2,0:0:0:0:
288,84,45539,1,0,0:0:0:0:
364,52,45708,2,0,P|440:60|476:112,1,139.999995231629
324,184,46382,54,0,P|288:179|188:203,1,139.999995231629,2|0,0:0|0:0,0:0:0:0:
392,291,47056,2,0,P|320:255|244:255,1,139.999995231629
252,336,47562,2,0,P|296:328|324:308,1,69.9999976158143,2|0,0:0|0:0,0:0:0:0:
252,336,48067,1,2,0:0:0:0:
396,132,48404,6,0,P|304:148|228:136,1,139.999995231629
416,204,49078,2,0,P|456:112|500:88,1,139.999995231629,2|0,0:0|0:0,0:0:0:0:
416,48,49584,1,0,0:0:0:0:
396,132,49753,2,0,P|304:148|228:136,1,139.999995231629
116,252,50427,70,0,P|208:236|284:248,1,139.999995231629,0|2,0:0|0:0,0:0:0:0:
96,336,50932,2,0,B|20:296|40:228|40:228|80:204|84:156,1,209.999992847443
4,156,51775,1,2,0:0:0:0:
168,112,52112,2,0,P|260:148|344:128,1,139.999995231629
392,192,52786,1,0,0:0:0:0:
364,200,52955,1,2,0:0:0:0:
332,212,53123,2,0,P|224:220|140:188,2,139.999995231629,0|2|0,0:0|0:0|0:0,0:0:0:0:
276,52,54135,5,0,0:0:0:0:
192,64,54303,1,0,0:0:0:0:
252,124,54472,2,0,P|344:104|388:112,1,139.999995231629,2|0,0:0|0:0,0:0:0:0:
388,24,54977,1,0,0:0:0:0:
299,62,55146,2,0,P|328:108|300:184,1,139.999995231629
252,124,55651,2,0,P|240:228|332:248,1,209.999992847443,0|2,0:0|0:0,0:0:0:0:
220,313,56494,2,0,P|188:316|152:304,1,69.9999976158143
324,152,56831,2,0,P|320:163|304:87,1,69.9999976158143
196,240,57168,2,0,P|208:164|268:120,2,139.999995231629,2|0|0,0:0|0:0|0:0,0:0:0:0:
36,148,58180,6,0,P|104:108|120:84,1,69.9999976158143,0|2,0:0|0:0,0:0:0:0:
186,126,58517,2,0,P|224:116|252:125,1,69.9999976158143,0|0,0:0|0:0,0:0:0:0:
172,48,58854,2,0,P|144:58|116:86,2,69.9999976158143,2|0|0,0:0|0:0|0:0,0:0:0:0:
396,132,59528,53,0,0:0:0:0:
396,132,59696,2,0,L|348:224,1,69.9999976158143,0|2,0:0|0:0,0:0:0:0:
290,238,60202,2,0,P|312:260|348:276,2,69.9999976158143
156,264,60876,2,0,L|240:284,1,69.9999976158143,0|2,0:0|0:0,0:0:0:0:
224,280,61213,2,0,P|280:328|344:352,1,139.999995231629,0|2,0:0|0:0,0:0:0:0:
224,280,61887,2,0,B|260:220|260:220|252:184|288:124|356:144,1,209.999992847443
332,212,62562,37,0,0:0:0:0:
152,196,62899,37,0,0:0:0:0:
88,164,63067,1,0,0:0:0:0:
152,112,63236,2,0,P|228:144|244:200,1,139.999995231629
348,60,63910,2,0,P|436:56|460:8,1,139.999995231629
508,88,64416,1,0,0:0:0:0:
440,136,64584,2,0,P|356:140|300:112,1,139.999995231629
444,212,65258,6,0,P|336:224|280:212,1,139.999995231629
224,208,65764,1,0,0:0:0:0:
152,168,65932,1,0,0:0:0:0:
224,124,66101,1,0,0:0:0:0:
292,172,66269,2,0,P|292:248|228:288,1,139.999995231629
412,276,66944,1,0,0:0:0:0:
376,112,67281,6,0,P|460:88|568:100,1,139.999995231629
356,188,67955,2,0,P|296:120|308:68,1,139.999995231629
376,112,68460,1,0,0:0:0:0:
452,112,68629,2,0,P|428:168|356:188,1,139.999995231629
376,112,69135,1,0,0:0:0:0:
352,40,69303,2,0,P|420:52|452:120,1,139.999995231629
376,112,69977,53,0,0:0:0:0:
436,200,70314,1,0,0:0:0:0:
348,328,70651,2,0,P|312:348|214:346,1,139.999995231629
412,276,71326,1,0,0:0:0:0:
412,276,71663,2,0,P|384:264|360:232,1,69.9999976158143
436,200,72000,2,0,P|356:244|268:256,1,139.999995231629
76,184,72674,2,0,P|156:140|202:129,1,139.999995231629
56,48,73348,5,6,0:0:0:0:
204,128,73685,6,0,P|252:148|288:140,1,69.9999976158143,0|2,0:0|0:0,0:0:0:0:
348,120,74022,2,0,P|332:196|268:228,1,139.999995231629
268,148,74528,2,0,P|264:108|280:68,1,69.9999976158143
192,184,75033,1,2,0:0:0:0:
230,244,75202,2,0,P|144:236|144:132,1,209.999992847443
64,124,76045,2,0,P|52:208|72:264,1,139.999995231629,2|0,0:0|0:0,0:0:0:0:
128,164,76550,2,0,P|128:208|152:244,1,69.9999976158143
304,272,77056,54,0,P|240:236|200:184,1,139.999995231629
248,264,77730,2,0,P|213:268|121:224,2,139.999995231629,2|0|0,0:0|0:0|0:0,0:0:0:0:
256,192,78741,12,0,81101,0:0:0:0:
96,128,81438,6,0,P|240:92|300:93,1,209.999992847443,2|2,0:0|0:0,0:0:0:0:
452,308,82449,1,2,0:0:0:0:
436,284,82618,1,2,0:0:0:0:
416,256,82786,2,0,P|324:272|276:268,2,139.999995231629,2|2|12,0:0|0:0|0:0,0:0:0:0:
296,152,83798,1,0,0:0:0:0:
276,156,83966,1,0,0:0:0:0:
256,160,84135,22,0,P|172:152|124:184,1,139.999995231629,4|0,0:0|0:0,0:0:0:0:
72,120,84640,1,0,0:0:0:0:
204,232,84809,2,0,P|244:304|224:372,1,139.999995231629,8|0,0:0|0:0,0:0:0:0:
152,312,85314,2,0,P|112:328|76:328,1,69.9999976158143,0|0,0:0|0:0,0:0:0:0:
360,312,85820,2,0,P|400:328|436:328,2,69.9999976158143,0|0|8,0:0|0:0|0:0,0:0:0:0:
416,248,86326,5,0,0:0:0:0:
352,104,86494,1,0,0:0:0:0:
260,228,86663,1,0,0:0:0:0:
409,162,86831,2,0,P|352:184|284:152,1,139.999995231629,0|0,0:0|0:0,0:0:0:0:
336,260,87337,1,0,0:0:0:0:
260,228,87505,2,0,P|204:164|216:112,1,139.999995231629,8|0,0:0|0:0,0:0:0:0:
132,128,88011,2,0,L|56:128,1,69.9999976158143,0|0,0:0|0:0,0:0:0:0:
132,128,88517,1,0,0:0:0:0:
232,236,88854,6,0,P|164:260|96:264,2,139.999995231629,8|0|0,0:0|0:0|0:0,0:0:0:0:
184,160,89696,2,0,P|184:120|204:72,1,69.9999976158143,0|0,0:0|0:0,0:0:0:0:
272,44,90033,2,0,P|280:88|264:132,1,69.9999976158143,0|8,0:0|0:0,0:0:0:0:
192,92,90371,54,0,L|120:72,1,69.9999976158143,0|0,0:0|0:0,0:0:0:0:
352,136,90708,1,0,0:0:0:0:
192,268,90876,2,0,P|166:243|154:211,1,69.9999976158143,0|0,0:0|0:0,0:0:0:0:
144,128,91213,1,0,0:0:0:0:
232,200,91382,1,0,0:0:0:0:
268,136,91550,2,0,P|296:196|364:220,1,139.999995231629,8|0,0:0|0:0,0:0:0:0:
264,48,92056,5,0,0:0:0:0:
296,132,92224,2,0,P|224:128|180:80,1,139.999995231629,0|0,0:0|0:0,0:0:0:0:
240,216,92730,1,0,0:0:0:0:
156,252,92899,2,0,P|108:148|116:88,1,139.999995231629,8|0,0:0|0:0,0:0:0:0:
84,304,93404,1,0,0:0:0:0:
8,252,93573,2,0,P|2:194|18:114,2,139.999995231629,0|0|8,0:0|0:0|0:0,0:0:0:0:
200,100,94584,5,0,0:0:0:0:
292,112,94753,1,0,0:0:0:0:
360,172,94921,2,0,P|306:149|226:157,1,139.999995231629,4|0,0:0|0:0,0:0:0:0:
144,196,95427,1,0,0:0:0:0:
216,252,95595,2,0,P|269:274|349:266,1,139.999995231629,8|0,0:0|0:0,0:0:0:0:
292,184,96101,1,0,0:0:0:0:
182,68,96269,54,0,P|116:76|58:120,1,139.999995231629,0|0,0:0|0:0,0:0:0:0:
156,184,96944,2,0,L|96:232,2,69.9999976158143,8|0|0,0:0|0:0|0:0,0:0:0:0:
372,148,97618,2,0,P|412:52|439:37,1,139.999995231629,0|0,0:0|0:0,0:0:0:0:
72,37,98292,2,0,P|100:52|140:148,1,139.999995231629,8|0,0:0|0:0,0:0:0:0:
208,52,98798,1,0,0:0:0:0:
232,172,98966,2,0,P|172:236|120:244,1,139.999995231629,0|0,0:0|0:0,0:0:0:0:
56,184,99472,1,0,0:0:0:0:
140,148,99640,1,8,0:0:0:0:
232,172,99809,1,0,0:0:0:0:
304,120,99977,6,0,P|316:184|280:256,1,139.999995231629,0|0,0:0|0:0,0:0:0:0:
232,172,100483,1,0,0:0:0:0:
224,88,100651,2,0,P|280:36|344:40,1,139.999995231629,0|8,0:0|0:0,0:0:0:0:
304,120,101157,1,0,0:0:0:0:
232,172,101326,2,0,L|152:140,1,69.9999976158143,0|0,0:0|0:0,0:0:0:0:
312,96,101663,2,0,L|232:64,1,69.9999976158143,0|0,0:0|0:0,0:0:0:0:
312,96,102000,2,0,P|340:192|320:244,1,139.999995231629,0|8,0:0|0:0,0:0:0:0:
244,256,102505,5,0,0:0:0:0:
140,180,102674,1,0,0:0:0:0:
232,172,102842,1,0,0:0:0:0:
152,272,103011,2,0,P|112:200|52:180,1,139.999995231629,0|0,0:0|0:0,0:0:0:0:
56,272,103517,1,0,0:0:0:0:
140,180,103685,2,0,P|176:108|228:84,1,139.999995231629,8|0,0:0|0:0,0:0:0:0:
232,172,104191,1,0,0:0:0:0:
338,94,104359,54,0,P|412:92|465:128,1,139.999995231629,0|0,0:0|0:0,0:0:0:0:
304,284,105033,2,0,P|348:200|385:179,1,139.999995231629,8|0,0:0|0:0,0:0:0:0:
341,373,105708,6,0,P|320:376|216:328,1,139.999995231629,4|0,0:0|0:0,0:0:0:0:
164,244,106213,1,0,0:0:0:0:
255,205,106382,2,0,P|255:281|216:328,1,139.999995231629,8|0,0:0|0:0,0:0:0:0:
220,112,106887,1,0,0:0:0:0:
256,204,107056,2,0,P|182:196|138:152,1,139.999995231629,0|0,0:0|0:0,0:0:0:0:
64,36,107562,1,0,0:0:0:0:
144,52,107730,2,0,P|100:112|64:124,1,69.9999976158143,8|0,0:0|0:0,0:0:0:0:
201,135,108067,6,0,P|236:124|269:126,1,69.9999976158143,0|0,0:0|0:0,0:0:0:0:
376,192,108404,2,0,P|348:212|247:202,1,139.999995231629,0|0,0:0|0:0,0:0:0:0:
308,124,108910,1,0,0:0:0:0:
404,104,109078,2,0,P|456:152|462:217,1,139.999995231629,8|0,0:0|0:0,0:0:0:0:
376,192,109584,1,0,0:0:0:0:
308,124,109753,2,0,P|320:64|380:16,1,139.999995231629,0|0,0:0|0:0,0:0:0:0:
188,64,110427,54,0,P|100:92|56:68,1,139.999995231629,8|0,0:0|0:0,0:0:0:0:
236,172,111101,2,0,P|304:152|384:172,1,139.999995231629,0|0,0:0|0:0,0:0:0:0:
308,240,111607,1,0,0:0:0:0:
212,268,111775,2,0,P|176:276|140:276,1,69.9999976158143,8|0,0:0|0:0,0:0:0:0:
148,196,112112,2,0,P|112:192|80:180,1,69.9999976158143,0|0,0:0|0:0,0:0:0:0:
236,172,112449,6,0,P|292:212|312:300,1,139.999995231629,0|0,0:0|0:0,0:0:0:0:
212,268,112955,1,0,0:0:0:0:
148,196,113123,2,0,P|152:152|164:130,1,69.9999976158143,8|0,0:0|0:0,0:0:0:0:
68,144,113460,2,0,P|104:76|124:56,1,69.9999976158143,0|0,0:0|0:0,0:0:0:0:
260,260,113798,6,0,P|188:248|148:196,1,139.999995231629,0|0,0:0|0:0,0:0:0:0:
236,172,114303,1,0,0:0:0:0:
328,152,114472,2,0,P|312:224|259:260,1,139.999995231629,8|0,0:0|0:0,0:0:0:0:
236,172,114977,1,0,0:0:0:0:
224,80,115146,2,0,P|280:88|328:152,1,139.999995231629,0|0,0:0|0:0,0:0:0:0:
144,84,115820,53,8,0:0:0:0:
64,96,116157,2,0,B|100:160|100:160|132:232,1,139.999995231629,0|4,0:0|0:0,0:0:0:0:
144,84,116831,1,0,0:0:0:0:
200,272,117168,2,0,B|200:236|200:236|204:200,1,69.9999976158143,8|0,0:0|0:0,0:0:0:0:
280,236,117505,2,0,B|288:197|288:197|304:168,1,69.9999976158143,0|0,0:0|0:0,0:0:0:0:
364,228,117842,2,0,B|384:200|384:200|424:176,2,69.9999976158143,0|0|0,0:0|0:0|0:0,0:0:0:0:
264,212,118348,5,0,0:0:0:0:
160,152,118517,2,0,P|248:104|324:116,1,139.999995231629,8|0,0:0|0:0,0:0:0:0:
264,212,119022,1,0,0:0:0:0:
352,196,119191,2,0,P|388:116|385:65,1,139.999995231629,0|0,0:0|0:0,0:0:0:0:
256,104,119696,1,0,0:0:0:0:
244,260,119865,2,0,P|200:188|158:151,1,139.999995231629,8|0,0:0|0:0,0:0:0:0:
104,232,120371,1,0,0:0:0:0:
244,260,120539,2,0,P|324:284|424:284,1,139.999995231629,0|0,0:0|0:0,0:0:0:0:
268,124,121213,2,0,P|188:100|88:100,1,139.999995231629,8|0,0:0|0:0,0:0:0:0:
324,204,121887,6,0,P|348:124|348:24,1,139.999995231629,0|0,0:0|0:0,0:0:0:0:
188,180,122562,2,0,P|164:260|164:360,1,139.999995231629,8|0,0:0|0:0,0:0:0:0:
256,192,123067,1,0,0:0:0:0:
280,144,123236,2,0,P|224:80|176:80,1,69.9999976158143,0|0,0:0|0:0,0:0:0:0:
276,240,123573,2,0,P|368:264|384:260,1,69.9999976158143,0|0,0:0|0:0,0:0:0:0:
204,188,123910,2,0,P|164:184|132:200,1,69.9999976158143,8|0,0:0|0:0,0:0:0:0:
304,216,124247,2,0,P|352:168|356:148,1,69.9999976158143,0|0,0:0|0:0,0:0:0:0:
320,288,124584,2,0,P|384:252|424:192,1,139.999995231629,0|0,0:0|0:0,0:0:0:0:
84,320,125258,2,0,P|128:327|220:307,1,139.999995231629,8|0,0:0|0:0,0:0:0:0:
256,192,125764,53,0,0:0:0:0:
144,128,125932,1,0,0:0:0:0:
256,72,126101,1,0,0:0:0:0:
256,72,126269,1,0,0:0:0:0:
219,295,126607,2,0,P|280:300|344:260,1,139.999995231629,8|0,0:0|0:0,0:0:0:0:
344,260,127112,2,0,L|436:228,1,69.9999976158143,0|4,0:0|0:0,0:0:0:0:
256,192,127618,12,0,129977,0:0:0:0:
256,192,137393,37,8,0:0:0:0:
424,184,138067,5,4,0:0:0:0:
260,80,138404,2,0,P|220:144|156:160,1,139.999995231629,0|8,0:0|0:0,0:0:0:0:
192,324,139078,2,0,L|204:224,1,69.9999976158143,0|0,0:0|0:0,0:0:0:0:
124,264,139416,2,0,L|136:196,1,69.9999976158143,0|0,0:0|0:0,0:0:0:0:
248,176,139753,2,0,P|288:232|272:312,2,139.999995231629,0|8|0,0:0|0:0|0:0,0:0:0:0:
276,100,140595,1,0,0:0:0:0:
168,100,140764,6,0,P|228:192|284:208,1,139.999995231629,0|0,0:0|0:0,0:0:0:0:
276,100,141269,1,0,0:0:0:0:
92,112,141438,2,0,P|124:196|176:252,1,139.999995231629,8|0,0:0|0:0,0:0:0:0:
276,100,141944,1,0,0:0:0:0:
220,36,142112,1,0,0:0:0:0:
140,40,142281,2,0,L|56:44,1,69.9999976158143,0|0,0:0|0:0,0:0:0:0:
352,88,142786,54,0,P|388:168|420:212,1,139.999995231629,8|0,0:0|0:0,0:0:0:0:
272,116,143460,2,0,P|288:40|356:8,1,139.999995231629,0|0,0:0|0:0,0:0:0:0:
220,4,143966,2,0,P|203:10|151:14,1,69.9999976158143,0|8,0:0|0:0,0:0:0:0:
300,32,144472,2,0,P|380:8|404:20,1,69.9999976158143,0|0,0:0|0:0,0:0:0:0:
184,100,144809,2,0,B|96:132|112:124,1,69.9999976158143,0|0,0:0|0:0,0:0:0:0:
360,80,145146,2,0,P|404:84|440:104,2,69.9999976158143,0|0|8,0:0|0:0|0:0,0:0:0:0:
240,220,145820,5,0,0:0:0:0:
268,200,145989,1,0,0:0:0:0:
272,236,146157,2,0,P|216:172|212:108,1,139.999995231629,0|0,0:0|0:0,0:0:0:0:
216,84,146663,1,0,0:0:0:0:
244,104,146831,2,0,P|152:112|84:92,1,139.999995231629,8|0,0:0|0:0,0:0:0:0:
76,84,147337,1,0,0:0:0:0:
104,64,147505,2,0,P|84:184|60:212,1,139.999995231629,0|0,0:0|0:0,0:0:0:0:
164,214,148180,2,0,P|136:260|60:296,1,139.999995231629,8|0,0:0|0:0,0:0:0:0:
176,324,148685,5,0,0:0:0:0:
147,127,148854,2,0,P|212:136|256:192,1,139.999995231629,0|0,0:0|0:0,0:0:0:0:
304,112,149359,2,0,L|376:112,1,69.9999976158143,0|8,0:0|0:0,0:0:0:0:
164,216,149865,2,0,L|92:216,1,69.9999976158143,0|0,0:0|0:0,0:0:0:0:
164,216,150202,1,0,0:0:0:0:
128,56,150539,2,0,P|236:72|300:112,1,139.999995231629,0|8,0:0|0:0,0:0:0:0:
368,56,151045,2,0,L|452:40,2,69.9999976158143,0|0|0,0:0|0:0|0:0,0:0:0:0:
264,84,151550,2,0,P|316:140|376:152,1,139.999995231629,0|0,0:0|0:0,0:0:0:0:
456,116,152056,1,0,0:0:0:0:
460,200,152224,54,0,P|408:240|316:232,1,139.999995231629
376,152,152730,1,0,0:0:0:0:
320,84,152899,2,0,P|208:132|144:128,1,139.999995231629,0|0,0:0|0:0,0:0:0:0:
276,168,153404,1,0,0:0:0:0:
216,240,153573,2,0,P|152:240|96:192,1,139.999995231629,8|0,0:0|0:0,0:0:0:0:
88,104,154078,5,0,0:0:0:0:
88,104,154247,2,0,P|160:136|236:124,1,139.999995231629,0|0,0:0|0:0,0:0:0:0:
300,92,154753,1,0,0:0:0:0:
300,92,154921,2,0,P|360:184|388:200,1,139.999995231629,8|0,0:0|0:0,0:0:0:0:
460,248,155427,1,0,0:0:0:0:
460,248,155595,2,0,P|384:292|348:332,1,139.999995231629,0|0,0:0|0:0,0:0:0:0:
460,136,156269,2,0,P|384:92|349:53,1,139.999995231629,8|0,0:0|0:0,0:0:0:0:
468,192,156944,6,0,B|400:196|400:196|328:184,1,139.999995231629,0|0,0:0|0:0,0:0:0:0:
248,184,157449,1,0,0:0:0:0:
148,276,157618,2,0,P|216:312|280:312,1,139.999995231629,8|0,0:0|0:0,0:0:0:0:
248,184,158123,1,0,0:0:0:0:
304,304,158292,2,0,P|372:232|376:184,1,139.999995231629,0|0,0:0|0:0,0:0:0:0:
248,184,158798,1,0,0:0:0:0:
160,212,158966,2,0,P|80:180|36:132,1,139.999995231629,8|0,0:0|0:0,0:0:0:0:
72,228,159472,2,0,L|92:300,1,69.9999976158143,0|0,0:0|0:0,0:0:0:0:
232,324,159977,54,0,L|308:320,1,69.9999976158143,0|0,0:0|0:0,0:0:0:0:
268,236,160314,2,0,L|344:232,1,69.9999976158143,8|0,0:0|0:0,0:0:0:0:
308,148,160651,1,0,0:0:0:0:
400,144,160820,2,0,L|476:140,2,69.9999976158143,0|0|0,0:0|0:0|0:0,0:0:0:0:
424,56,161326,2,0,P|344:100|284:108,2,139.999995231629,0|8|0,0:0|0:0|0:0,0:0:0:0:
388,236,162337,1,0,0:0:0:0:
208,240,162674,2,0,P|188:264|152:356,1,69.9999976158143,0|0,0:0|0:0,0:0:0:0:
124,228,163011,2,0,P|112:188|84:140,1,69.9999976158143,8|0,0:0|0:0,0:0:0:0:
184,152,163348,2,0,P|212:164|268:164,2,69.9999976158143,0|0|0,0:0|0:0|0:0,0:0:0:0:
84,304,164022,6,0,P|168:264|232:220,1,139.999995231629,0|8,0:0|0:0,0:0:0:0:
240,324,164528,1,0,0:0:0:0:
312,268,164696,2,0,P|340:232|352:192,1,69.9999976158143,0|0,0:0|0:0,0:0:0:0:
364,120,165033,5,0,0:0:0:0:
192,268,165371,1,0,0:0:0:0:
168,48,165708,1,8,0:0:0:0:
20,156,166045,2,0,P|56:168|96:164,1,69.9999976158143,0|0,0:0|0:0,0:0:0:0:
172,136,166382,2,0,P|256:164|284:160,1,69.9999976158143,0|0,0:0|0:0,0:0:0:0:
316,116,166719,2,0,P|408:184|456:176,1,139.999995231629,0|8,0:0|0:0,0:0:0:0:
252,240,167393,2,0,P|196:208|188:176,1,69.9999976158143,0|0,0:0|0:0,0:0:0:0:
272,156,167730,54,0,P|352:200|372:244,1,139.999995231629,4|0,0:0|0:0,0:0:0:0:
440,180,168236,1,0,0:0:0:0:
360,136,168404,2,0,P|332:220|280:248,1,139.999995231629,8|0,0:0|0:0,0:0:0:0:
372,284,168910,1,0,0:0:0:0:
412,204,169078,2,0,P|340:216|280:172,1,139.999995231629,0|0,0:0|0:0,0:0:0:0:
264,272,169584,1,0,0:0:0:0:
356,276,169753,2,0,P|328:204|352:144,1,139.999995231629,8|0,0:0|0:0,0:0:0:0:
292,99,170258,2,0,P|272:128|260:160,1,69.9999976158143,0|0,0:0|0:0,0:0:0:0:
108,92,170764,2,0,L|184:96,2,69.9999976158143,0|0|8,0:0|0:0|0:0,0:0:0:0:
32,207,171438,6,0,P|40:236|64:268,1,69.9999976158143,0|0,0:0|0:0,0:0:0:0:
124,196,171775,2,0,P|120:156|131:129,1,69.9999976158143,0|0,0:0|0:0,0:0:0:0:
216,164,172112,2,0,P|228:132|255:110,1,69.9999976158143,0|0,0:0|0:0,0:0:0:0:
308,184,172449,2,0,P|336:156|363:143,1,69.9999976158143,8|0,0:0|0:0,0:0:0:0:
384,232,172786,2,0,B|424:224|452:244|452:244|484:240|484:240|512:276,2,139.999995231629,0|0|0,0:0|0:0|0:0,0:0:0:0:
404,312,173798,1,8,0:0:0:0:
232,296,174135,2,0,P|200:280|172:248,1,69.9999976158143,0|0,0:0|0:0,0:0:0:0:
252,208,174472,2,0,P|260:168|260:112,2,69.9999976158143,0|0|0,0:0|0:0|0:0,0:0:0:0:
96,300,175146,2,0,P|140:348|208:380,1,139.999995231629,8|0,0:0|0:0,0:0:0:0:
232,296,175651,5,0,0:0:0:0:
320,272,175820,2,0,P|400:212|412:160,1,139.999995231629,0|0,0:0|0:0,0:0:0:0:
320,180,176326,1,0,0:0:0:0:
248,104,176494,2,0,P|180:60|112:72,1,139.999995231629,8|0,0:0|0:0,0:0:0:0:
160,164,177000,1,0,0:0:0:0:
224,264,177168,2,0,P|276:320|344:356,1,139.999995231629,0|0,0:0|0:0,0:0:0:0:
420,160,177842,53,12,0:0:0:0:
336,152,178180,2,0,B|336:112|336:112|348:80,1,69.9999976158143,0|0,0:0|0:0,0:0:0:0:
252,180,178517,37,4,0:0:0:0:
60,68,178854,2,0,P|100:60|144:60,1,69.9999976158143,0|0,0:0|0:0,0:0:0:0:
60,68,179191,2,0,P|96:84|124:112,1,69.9999976158143,8|0,0:0|0:0,0:0:0:0:
120,192,179528,6,0,P|152:208|185:215,1,69.9999976158143,0|0,0:0|0:0,0:0:0:0:
120,192,179865,2,0,P|153:184|185:168,1,69.9999976158143,0|0,0:0|0:0,0:0:0:0:
280,96,180202,1,0,0:0:0:0:
280,96,180371,2,0,L|380:84,1,69.9999976158143,0|8,0:0|0:0,0:0:0:0:
404,184,180708,6,0,P|422:213|456:232,2,69.9999976158143,0|0|0,0:0|0:0|0:0,0:0:0:0:
476,160,181213,2,0,L|349:219,1,139.999995231629,0|0,0:0|0:0,0:0:0:0:
244,260,181719,1,0,0:0:0:0:
244,260,181887,2,0,L|392:344,1,139.999995231629,8|0,0:0|0:0,0:0:0:0:
348,220,182393,2,0,L|444:204,1,69.9999976158143,0|0,0:0|0:0,0:0:0:0:
176,248,182730,2,0,L|244:260,1,69.9999976158143,0|0,0:0|0:0,0:0:0:0:
48,188,183236,54,0,B|108:176|152:176|152:176|192:164,1,139.999995231629,8|0,0:0|0:0,0:0:0:0:
248,104,183910,2,0,P|216:84|184:80,1,69.9999976158143,0|0,0:0|0:0,0:0:0:0:
380,72,184247,1,0,0:0:0:0:
380,72,184416,2,0,L|448:56,1,69.9999976158143,0|8,0:0|0:0,0:0:0:0:
336,220,184753,2,0,L|369:158,1,69.9999976158143,0|0,0:0|0:0,0:0:0:0:
272,280,185090,2,0,P|304:300|336:304,1,69.9999976158143,0|0,0:0|0:0,0:0:0:0:
132,312,185427,1,0,0:0:0:0:
132,312,185595,2,0,L|64:328,1,69.9999976158143,0|0,0:0|0:0,0:0:0:0:
176,164,185932,2,0,L|142:225,1,69.9999976158143,8|0,0:0|0:0,0:0:0:0:
176,164,186269,6,0,L|273:158,1,69.9999976158143,0|0,0:0|0:0,0:0:0:0:
320,84,186607,2,0,P|388:148|452:144,1,139.999995231629,0|0,0:0|0:0,0:0:0:0:
412,60,187112,1,0,0:0:0:0:
384,232,187281,1,8,0:0:0:0:
284,184,187449,1,0,0:0:0:0:
316,312,187618,2,0,P|228:308|192:288,1,69.9999976158143,0|0,0:0|0:0,0:0:0:0:
336,232,187955,2,0,P|334:262|386:354,1,139.999995231629,0|0,0:0|0:0,0:0:0:0:
456,256,188460,1,0,0:0:0:0:
336,232,188629,2,0,P|332:308|288:364,1,139.999995231629,8|0,0:0|0:0,0:0:0:0:
228,268,189303,5,4,0:0:0:0:
148,244,189640,2,0,L|80:272,1,69.9999976158143,0|0,0:0|0:0,0:0:0:0:
224,152,189977,2,0,P|224:224|252:296,1,139.999995231629,8|0,0:0|0:0,0:0:0:0:
296,124,190483,1,0,0:0:0:0:
120,160,190651,2,0,P|144:236|144:296,1,139.999995231629,0|0,0:0|0:0,0:0:0:0:
240,52,191326,2,0,P|176:72|104:76,1,139.999995231629,8|0,0:0|0:0,0:0:0:0:
224,152,191831,1,0,0:0:0:0:
336,112,192000,54,0,P|400:164|424:214,1,139.999995231629,0|0,0:0|0:0,0:0:0:0:
308,216,192505,2,0,P|248:272|240:276,1,69.9999976158143,0|8,0:0|0:0,0:0:0:0:
224,152,192842,2,0,P|196:172|152:180,1,69.9999976158143,0|0,0:0|0:0,0:0:0:0:
176,60,193180,2,0,P|132:76|80:72,1,69.9999976158143,0|0,0:0|0:0,0:0:0:0:
232,116,193685,2,0,P|180:144|96:156,1,139.999995231629,0|8,0:0|0:0,0:0:0:0:
324,72,194359,6,0,P|432:88|460:152,1,139.999995231629,0|0,0:0|0:0,0:0:0:0:
308,180,195033,2,0,L|412:120,1,69.9999976158143,0|0,0:0|0:0,0:0:0:0:
224,224,195371,2,0,P|284:276|348:316,1,139.999995231629,8|0,0:0|0:0,0:0:0:0:
448,268,195876,5,0,0:0:0:0:
196,296,196045,2,0,P|76:220|44:212,1,139.999995231629,0|0,0:0|0:0,0:0:0:0:
132,336,196550,2,0,B|104:312|104:312|76:296,1,69.9999976158143,0|8,0:0|0:0,0:0:0:0:
308,320,196887,2,0,B|280:288|280:288|264:260,1,69.9999976158143,0|0,0:0|0:0,0:0:0:0:
354,164,197393,2,0,B|396:216|396:216|448:268,1,139.999995231629,0|0,0:0|0:0,0:0:0:0:
304,56,197899,2,0,L|392:80,1,69.9999976158143,0|8,0:0|0:0,0:0:0:0:
112,144,198404,54,0,L|204:136,1,69.9999976158143,0|0,0:0|0:0,0:0:0:0:
92,216,198741,2,0,L|272:200,1,139.999995231629,0|0,0:0|0:0,0:0:0:0:
352,192,199247,2,0,L|444:184,1,69.9999976158143,0|8,0:0|0:0,0:0:0:0:
332,264,199753,2,0,B|456:252|456:252|488:236,1,139.999995231629,0|4,0:0|0:0,0:0:0:0:
256,192,200427,5,0,0:0:0:0:
192,108,200764,2,0,P|132:176|52:200,1,139.999995231629,8|0,0:0|0:0,0:0:0:0:
196,240,201269,1,0,0:0:0:0:
256,192,201438,6,0,P|348:260|404:300,2,139.999995231629,0|0|8,0:0|0:0|0:0,0:0:0:0:
436,180,202449,1,0,0:0:0:0:
284,80,202786,54,0,L|356:56,1,69.9999976158143,0|0,0:0|0:0,0:0:0:0:
356,148,203123,2,0,L|464:180,1,69.9999976158143,0|0,0:0|0:0,0:0:0:0:
384,252,203460,2,0,L|444:292,1,69.9999976158143,8|0,0:0|0:0,0:0:0:0:
384,360,203798,2,0,P|336:348|312:328,1,69.9999976158143
384,360,204135,5,0,0:0:0:0:
204,332,204472,1,0,0:0:0:0:
136,164,204809,1,8,0:0:0:0:
260,32,205146,2,0,P|272:112|256:176,1,139.999995231629,0|0,0:0|0:0,0:0:0:0:
104,264,205820,6,0,P|188:244|232:252,1,69.9999976158143,0|0,0:0|0:0,0:0:0:0:
260,236,206157,1,8,0:0:0:0:
208,324,206494,1,0,0:0:0:0:
300,324,206663,2,0,P|348:312|396:288,1,69.9999976158143,0|0,0:0|0:0,0:0:0:0:
208,324,207168,54,0,P|256:276|296:216,1,139.999995231629,0|8,0:0|0:0,0:0:0:0:
116,196,207842,6,0,P|212:228|252:220,1,139.999995231629,0|0,0:0|0:0,0:0:0:0:
200,128,208348,1,0,0:0:0:0:
180,40,208517,2,0,P|96:68|16:64,1,139.999995231629,0|8,0:0|0:0,0:0:0:0:
284,72,209191,2,0,B|348:44|400:84|444:48,3,139.999995231629,0|0|0|8,0:0|0:0|0:0|0:0,0:0:0:0:
336,144,210539,2,0,P|384:148|420:144,1,69.9999976158143,0|0,0:0|0:0,0:0:0:0:
256,172,210876,5,4,0:0:0:0:
164,176,211045,1,0,0:0:0:0:
104,244,211213,1,0,0:0:0:0:
132,332,211382,1,0,0:0:0:0:
188,264,211550,2,0,L|352:264,1,139.999995231629,8|0,0:0|0:0,0:0:0:0:
256,172,212056,53,0,0:0:0:0:
376,144,212224,1,0,0:0:0:0:
296,184,212393,1,0,0:0:0:0:
388,184,212562,6,0,P|464:132|476:76,1,139.999995231629,0|8,0:0|0:0,0:0:0:0:
316,144,213067,1,0,0:0:0:0:
216,103,213236,2,0,P|276:96|344:56,1,139.999995231629,0|0,0:0|0:0,0:0:0:0:
120,132,213741,1,0,0:0:0:0:
168,208,213910,2,0,P|224:216|236:213,1,69.9999976158143,0|0,0:0|0:0,0:0:0:0:
296,308,214247,2,0,P|328:280|338:255,1,69.9999976158143,8|0,0:0|0:0,0:0:0:0:
452,280,214584,2,0,P|456:236|446:212,1,69.9999976158143,0|0,0:0|0:0,0:0:0:0:
310,187,214921,2,0,P|288:204|268:240,2,69.9999976158143,0|0|0,0:0|0:0|0:0,0:0:0:0:
252,132,215427,1,0,0:0:0:0:
308,64,215595,6,0,P|436:132|488:128,2,139.999995231629,8|0|0,0:0|0:0|0:0,0:0:0:0:
232,156,216438,1,0,0:0:0:0:
124,72,216607,2,0,P|76:160|44:200,1,139.999995231629,0|8,0:0|0:0,0:0:0:0:
232,156,217281,2,0,L|232:236,1,69.9999976158143,0|0,0:0|0:0,0:0:0:0:
232,316,217618,2,0,P|308:216|344:192,1,139.999995231629,0|0,0:0|0:0,0:0:0:0:
220,188,218123,1,0,0:0:0:0:
140,232,218292,2,0,B|132:212|132:212|100:196|72:176|36:136,1,139.999995231629,8|0,0:0|0:0,0:0:0:0:
256,192,218966,12,4,221663,0:0:0:0:
200,272,222337,38,0,P|284:284|332:260,1,139.999995231629,8|0,0:0|0:0,0:0:0:0:
356,172,222842,2,0,L|300:112,1,69.9999976158143,0|0,0:0|0:0,0:0:0:0:
336,40,223348,2,0,L|448:156,1,139.999995231629,0|8,0:0|0:0,0:0:0:0:
304,268,224022,1,4,0:0:0:0:
304,268,224191,1,0,0:0:0:0:
256,180,224359,6,0,P|320:180|380:128,1,139.999995231629,4|0,0:0|0:0,0:0:0:0:
292,96,224865,1,0,0:0:0:0:
292,96,225033,2,0,P|264:164|172:188,1,139.999995231629,8|0,0:0|0:0,0:0:0:0:
200,104,225539,1,0,0:0:0:0:
200,104,225708,2,0,P|140:72|72:88,1,139.999995231629,0|0,0:0|0:0,0:0:0:0:
132,156,226213,2,0,L|180:208,1,69.9999976158143,0|8,0:0|0:0,0:0:0:0:
244,272,226550,5,0,0:0:0:0:
352,176,226719,1,0,0:0:0:0:
328,268,226887,2,0,L|400:268,1,69.9999976158143,0|0,0:0|0:0,0:0:0:0:
328,268,227224,1,0,0:0:0:0:
268,176,227393,2,0,L|196:176,1,69.9999976158143,0|0,0:0|0:0,0:0:0:0:
268,176,227730,1,8,0:0:0:0:
360,80,228067,2,0,L|428:64,2,69.9999976158143,0|0|0,0:0|0:0|0:0,0:0:0:0:
324,112,228741,2,0,L|472:76,1,139.999995231629,0|8,0:0|0:0,0:0:0:0:
288,140,229416,5,0,0:0:0:0:
108,176,229753,2,0,P|172:128|192:60,1,139.999995231629,0|0,0:0|0:0,0:0:0:0:
100,84,230258,2,0,L|40:40,1,69.9999976158143,0|8,0:0|0:0,0:0:0:0:
188,64,230595,1,0,0:0:0:0:
188,64,230764,2,0,L|284:40,1,69.9999976158143,0|0,0:0|0:0,0:0:0:0:
100,84,231101,2,0,L|160:144,1,69.9999976158143,0|0,0:0|0:0,0:0:0:0:
212,208,231438,2,0,L|124:232,2,69.9999976158143,0|0|8,0:0|0:0|0:0,0:0:0:0:
204,136,232112,54,0,P|276:172|276:240,1,139.999995231629,0|0,0:0|0:0,0:0:0:0:
476,252,232786,2,0,L|428:160,1,69.9999976158143,0|0,0:0|0:0,0:0:0:0:
476,252,233123,1,8,0:0:0:0:
212,208,233460,2,0,P|228:244|264:264,2,69.9999976158143,0|0|0,0:0|0:0|0:0,0:0:0:0:
140,232,234135,2,0,P|180:296|232:332,1,139.999995231629,0|8,0:0|0:0,0:0:0:0:
284,128,234809,6,0,P|352:96|416:104,1,139.999995231629,0|4,0:0|0:0,0:0:0:0:
368,188,235314,1,0,0:0:0:0:
228,85,235483,2,0,L|284:128,1,69.9999976158143,0|0,0:0|0:0,0:0:0:0:
120,277,235820,2,0,P|120:216|176:168,1,139.999995231629,8|0,0:0|0:0,0:0:0:0:
256,156,236326,1,0,0:0:0:0:
324,240,236494,2,0,P|256:260|188:244,1,139.999995231629,0|0,0:0|0:0,0:0:0:0:
336,168,237168,2,0,P|392:216|384:292,1,139.999995231629,8|0,0:0|0:0,0:0:0:0:
176,216,237842,6,0,P|120:168|120:106,1,139.999995231629,0|0,0:0|0:0,0:0:0:0:
280,272,238517,2,0,P|232:328|170:327,1,139.999995231629,8|0,0:0|0:0,0:0:0:0:
256,192,239022,1,0,0:0:0:0:
232,112,239191,2,0,P|280:56|341:56,1,139.999995231629,0|0,0:0|0:0,0:0:0:0:
316,137,239696,2,0,L|348:200,1,69.9999976158143,0|8,0:0|0:0,0:0:0:0:
448,112,240202,2,0,P|376:144|304:132,1,139.999995231629,0|0,0:0|0:0,0:0:0:0:
112,208,240876,2,0,L|232:180,1,69.9999976158143,0|0,0:0|0:0,0:0:0:0:
276,208,241213,2,0,P|368:228|432:212,1,139.999995231629,8|0,0:0|0:0,0:0:0:0:
244,128,241719,53,0,0:0:0:0:
164,92,241887,2,0,L|96:104,1,69.9999976158143,0|0,0:0|0:0,0:0:0:0:
368,58,242224,2,0,L|300:72,1,69.9999976158143,0|0,0:0|0:0,0:0:0:0:
323,167,242562,2,0,L|392:156,1,69.9999976158143,8|0,0:0|0:0,0:0:0:0:
119,201,242899,2,0,L|188:188,1,69.9999976158143,0|0,0:0|0:0,0:0:0:0:
172,92,243236,2,0,P|68:80|16:128,1,139.999995231629,0|0,0:0|0:0,0:0:0:0:
286,24,243741,2,0,L|216:24,1,69.9999976158143,0|8,0:0|0:0,0:0:0:0:
424,88,244247,1,0,0:0:0:0:
256,184,244584,5,0,0:0:0:0:
60,192,244921,2,0,L|176:124,1,69.9999976158143,0|0,0:0|0:0,0:0:0:0:
180,224,245258,2,0,P|252:264|312:248,1,139.999995231629,8|0,0:0|0:0,0:0:0:0:
128,288,245932,5,4,0:0:0:0:
16,220,246269,2,0,P|48:228|84:220,1,69.9999976158143
164,180,246607,1,8,0:0:0:0:
256,160,246775,2,0,P|296:160|348:180,1,69.9999976158143
420,180,247112,1,0,0:0:0:0:
384,264,247281,2,0,P|368:296|344:320,1,69.9999976158143
212,236,247618,2,0,P|256:244|304:236,1,69.9999976158143
132,292,247955,1,8,0:0:0:0:
256,160,248123,54,0,P|296:160|328:176,2,69.9999976158143
136,76,248629,2,0,L|188:28,1,69.9999976158143
264,80,248966,2,0,L|316:32,1,69.9999976158143
388,68,249303,2,0,P|484:80|508:152,1,139.999995231629,8|0,0:0|0:0,0:0:0:0:
431,139,249809,2,0,L|416:208,1,69.9999976158143,0|0,0:0|0:0,0:0:0:0:
416,208,250314,2,0,L|384:344,1,139.999995231629,0|8,0:0|0:0,0:0:0:0:
208,192,250989,6,0,P|228:260|208:340,1,139.999995231629,0|0,0:0|0:0,0:0:0:0:
140,264,251494,1,0,0:0:0:0:
112,168,251663,2,0,P|104:132|104:96,1,69.9999976158143,0|0,0:0|0:0,0:0:0:0:
188,52,252000,1,8,0:0:0:0:
288,48,252168,2,0,P|304:96|304:136,2,69.9999976158143
232,176,252674,2,0,P|312:212|328:208,1,69.9999976158143
368,136,253011,2,0,P|400:164|444:176,1,69.9999976158143
480,84,253348,1,8,0:0:0:0:
396,44,253517,6,0,B|308:48,1,69.9999976158143,0|0,0:0|0:0,0:0:0:0:
296,148,253854,2,0,L|220:184,1,69.9999976158143
128,244,254359,2,0,P|156:264|216:264,1,69.9999976158143
373,223,254696,2,0,P|396:196|408:164,1,69.9999976158143,8|0,0:0|0:0,0:0:0:0:
344,52,255033,1,0,0:0:0:0:
256,44,255202,2,0,B|264:80|264:80|280:108,1,69.9999976158143,0|0,0:0|0:0,0:0:0:0:
280,108,255708,2,0,B|308:176|308:176|344:232,1,139.999995231629,0|8,0:0|0:0,0:0:0:0:
344,232,256382,1,0,0:0:0:0:
156,220,256719,54,0,P|208:152|216:96,1,139.999995231629,4|0,0:0|0:0,0:0:0:0:
100,136,257224,2,0,P|72:164|60:208,1,69.9999976158143,0|8,0:0|0:0,0:0:0:0:
132,268,257562,2,0,P|212:244|260:196,1,139.999995231629,0|0,0:0|0:0,0:0:0:0:
108,308,258067,2,0,P|196:300|252:284,1,139.999995231629,0|0,0:0|0:0,0:0:0:0:
248,140,258573,1,0,0:0:0:0:
192,208,258741,6,0,P|252:228|320:192,1,139.999995231629,8|0,0:0|0:0,0:0:0:0:
248,140,259247,1,0,0:0:0:0:
316,196,259416,2,0,P|376:240|468:232,1,139.999995231629,0|0,0:0|0:0,0:0:0:0:
408,140,259921,1,0,0:0:0:0:
348,72,260090,2,0,P|268:128|204:88,1,139.999995231629,8|0,0:0|0:0,0:0:0:0:
188,104,260595,1,0,0:0:0:0:
272,52,260764,2,0,P|276:144|232:204,1,139.999995231629,0|0,0:0|0:0,0:0:0:0:
48,112,261438,2,0,P|136:112|188:104,1,139.999995231629,8|0,0:0|0:0,0:0:0:0:
140,200,261944,5,0,0:0:0:0:
244,204,262112,2,0,P|224:264|160:308,1,139.999995231629,0|0,0:0|0:0,0:0:0:0:
140,200,262618,1,0,0:0:0:0:
232,252,262786,2,0,P|164:308|108:316,1,139.999995231629,8|0,0:0|0:0,0:0:0:0:
140,200,263292,1,0,0:0:0:0:
196,292,263460,2,0,P|112:316|56:296,1,139.999995231629,0|0,0:0|0:0,0:0:0:0:
140,200,263966,1,0,0:0:0:0:
160,312,264135,2,0,P|64:300|20:256,1,139.999995231629,8|0,0:0|0:0,0:0:0:0:
112,136,264640,54,0,L|140:200,1,69.9999976158143,0|0,0:0|0:0,0:0:0:0:
201,75,264977,2,0,L|216:144,1,69.9999976158143,0|0,0:0|0:0,0:0:0:0:
300,34,265314,2,0,L|304:104,1,69.9999976158143,0|8,0:0|0:0,0:0:0:0:
408,12,265651,2,0,L|396:80,1,69.9999976158143,0|0,0:0|0:0,0:0:0:0:
500,20,265989,5,0,0:0:0:0:
480,92,266157,1,0,0:0:0:0:
472,108,266326,1,0,0:0:0:0:
464,128,266494,1,0,0:0:0:0:
344,152,266831,2,0,L|236:152,1,69.9999976158143,8|0,0:0|0:0,0:0:0:0:
168,152,267168,1,0,0:0:0:0:
168,152,267337,1,0,0:0:0:0:
168,256,267505,6,0,L|100:269,2,69.9999976158143,4|0|0,0:0|0:0|0:0,0:0:0:0:
256,192,268011,1,0,0:0:0:0:
320,280,268180,2,0,L|333:348,2,69.9999976158143,8|0|0,0:0|0:0|0:0,0:0:0:0:
256,192,268685,1,0,0:0:0:0:
344,128,268854,2,0,L|412:115,2,69.9999976158143,0|0|0,0:0|0:0|0:0,0:0:0:0:
256,192,269359,1,0,0:0:0:0:
192,104,269528,2,0,L|179:36,2,69.9999976158143,8|0|0,0:0|0:0|0:0,0:0:0:0:
380,192,270202,54,0,L|456:192,2,69.9999976158143,0|0|0,0:0|0:0|0:0,0:0:0:0:
132,192,270876,6,0,L|56:192,2,69.9999976158143,8|0|0,0:0|0:0|0:0,0:0:0:0:
216,156,271382,2,0,P|252:108|304:84,1,69.9999976158143,0|0,0:0|0:0,0:0:0:0:
312,176,271719,2,0,P|384:156|408:168,1,69.9999976158143,0|0,0:0|0:0,0:0:0:0:
232,268,272224,2,0,P|164:276|108:325,1,139.999995231629,8|0,0:0|0:0,0:0:0:0:
136,232,272730,2,0,L|160:152,1,69.9999976158143,0|0,0:0|0:0,0:0:0:0:
224,180,273573,2,0,L|156:164,1,69.9999976158143,8|0,0:0|0:0,0:0:0:0:
224,180,273910,2,0,L|280:136,1,69.9999976158143,0|0,0:0|0:0,0:0:0:0:
352,184,274247,1,0,0:0:0:0:
168,244,274416,1,0,0:0:0:0:
336,276,274584,6,0,P|276:268|224:328,2,139.999995231629,0|8|0,0:0|0:0|0:0,0:0:0:0:
426,382,275595,2,0,P|420:384|300:344,1,139.999995231629,0|0,0:0|0:0,0:0:0:0:
384,304,276101,2,0,L|404:224,1,69.9999976158143,0|8,0:0|0:0,0:0:0:0:
340,200,276607,2,0,L|400:236,1,69.9999976158143,0|0,0:0|0:0,0:0:0:0:
340,200,276944,2,0,L|365:134,1,69.9999976158143,0|0,0:0|0:0,0:0:0:0:
229,176,277281,2,0,L|364:136,1,139.999995231629,0|8,0:0|0:0,0:0:0:0:
212,264,277786,2,0,L|284:244,1,69.9999976158143,0|0,0:0|0:0,0:0:0:0:
408,280,278292,53,4,0:0:0:0:
327,126,278629,6,0,L|392:100,1,69.9999976158143,0|0,0:0|0:0,0:0:0:0:
188,121,278966,2,0,L|248:84,1,69.9999976158143,8|0,0:0|0:0,0:0:0:0:
62,155,279303,2,0,L|100:96,1,69.9999976158143,0|0,0:0|0:0,0:0:0:0:
177,269,279640,2,0,L|128:220,1,69.9999976158143,0|0,0:0|0:0,0:0:0:0:
327,246,279977,2,0,L|260:228,1,69.9999976158143,0|0,0:0|0:0,0:0:0:0:
456,160,280314,2,0,L|388:176,2,69.9999976158143,8|0|0,0:0|0:0|0:0,0:0:0:0:
212,120,280989,6,0,L|116:156,1,69.9999976158143,0|0,0:0|0:0,0:0:0:0:
216,204,281326,2,0,L|164:260,1,69.9999976158143,0|0,0:0|0:0,0:0:0:0:
260,268,281663,2,0,L|232:336,1,69.9999976158143,8|0,0:0|0:0,0:0:0:0:
324,316,282000,2,0,L|312:384,1,69.9999976158143,0|0,0:0|0:0,0:0:0:0:
232,332,282337,2,0,L|175:373,1,69.9999976158143,0|0,0:0|0:0,0:0:0:0:
168,256,282674,2,0,L|99:270,1,69.9999976158143,0|0,0:0|0:0,0:0:0:0:
148,144,283011,2,0,L|0:152,2,139.999995231629,8|0|0,0:0|0:0|0:0,0:0:0:0:
316,76,284022,6,0,P|364:152|344:212,2,139.999995231629,0|8|0,0:0|0:0|0:0,0:0:0:0:
280,156,284865,2,0,L|188:164,1,69.9999976158143,0|0,0:0|0:0,0:0:0:0:
164,84,285202,2,0,L|236:80,1,69.9999976158143,0|0,0:0|0:0,0:0:0:0:
132,160,285708,2,0,P|84:84|104:24,2,139.999995231629,8|0|0,0:0|0:0|0:0,0:0:0:0:
308,208,286719,6,0,L|380:200,1,69.9999976158143,0|0,0:0|0:0,0:0:0:0:
468,192,287056,1,8,0:0:0:0:
368,178,287393,2,0,L|368:108,1,69.9999976158143,0|0,0:0|0:0,0:0:0:0:
256,192,287730,2,0,L|256:264,1,69.9999976158143,0|0,0:0|0:0,0:0:0:0:
144,178,288067,2,0,L|144:108,1,69.9999976158143,0|0,0:0|0:0,0:0:0:0:
44,192,288404,1,8,0:0:0:0:
256,192,289078,5,0,0:0:0:0:
300,116,289584,1,0,0:0:0:0:
168,200,290090,1,0,0:0:0:0:
308,260,290595,1,0,0:0:0:0:
256,192,291101,12,0,293123,0:0:0:0:
