osu file format v6

[General]
AudioFilename: Sugarcult - Dead Living.mp3
AudioLeadIn: 1500
PreviewTime: 35393
Countdown: 0
SampleSet: Normal
StackLeniency: 0.7
Mode: 0
LetterboxInBreaks: 0

[Editor]
Bookmarks: 13116,37101,49281,57888,67270,113166,136589,145021,168819,191680,213910
DistanceSpacing: 0.800000011920929
BeatDivisor: 4
GridSize: 8

[Metadata]
Title:Dead Living
Artist:Sugarcult
Creator:x3ns0r
Version:Living Death
Source:Burnout Paradise OST
Tags:Living Burnout Paradise Gaming Rock

[Difficulty]
HPDrainRate:7
CircleSize:5
OverallDifficulty:7
SliderMultiplier:1.4
SliderTickRate:2

[Events]
//Background and Video events
0,0,"PrototypeAlexMercerld.png"
//Break Periods
2,9938,12398
2,63901,66361
2,81701,83412
2,138850,140185
2,141848,143183
//Storyboard Layer 0 (Background)
//Storyboard Layer 1 (Fail)
//Storyboard Layer 2 (Pass)
//Storyboard Layer 3 (Foreground)
Sprite,Foreground,Centre,"PrototypeAlexMercerud.png",320,240 S,0,167363,,0.624 F,0,167363,167409,1,0 F,0,167409,167690,0 F,0,167690,167737,0,1 F,0,167737,167784,1,0 F,0,167784,168065,0 F,0,168065,168112,0,1 F,0,168112,168159,1,0 F,0,168159,168768,0 F,0,168768,168815,0,1 F,0,168815,168861,1,0 F,0,168861,169330,0 F,0,169330,169377,0,0.9148936 F,0,169377,169424,0.9148936,0 F,0,169424,169939,0 F,0,169939,169986,0,0.9148936 F,0,169986,170033,0.9148936,0 F,0,170033,170501,0 F,0,170501,170548,0,0.9148936 F,0,170548,170595,0.9148936,0 F,0,170595,171953,0 F,0,171953,172000,0 F,0,172000,172562,0,1 F,0,172562,173124,1,0 F,0,173124,173686,0,1 F,0,173686,174248,1,0 F,0,174248,174811,0,0.003558695 F,0,174811,174857,0.003558695,1 F,0,174857,174904,1,0.003558695 F,0,174904,175373,0.003558695 F,0,175373,175419,0.003558695,1 F,0,175419,175466,1,0.003558695 F,0,175466,175935,0.003558695 F,0,175935,175982,0.003558695,1 F,0,175982,176028,1,0.003558695 F,0,176028,176497,0.003558695 F,0,176497,176544,0.003558695,1 F,0,176544,176591,1,0.003558695 F,0,176591,181322,0.003558695,0 F,0,181322,181369,0 F,0,181369,181556,0,1 F,0,181556,181743,1,0 F,0,181743,181931,0,1 F,0,181931,183055,1,0.9840425 F,0,183055,183242,0.9840425,0 F,0,183242,183430,0,0.9840425 F,0,183430,186053,0.9840425,0.9526369 F,0,186053,186428,0.9526369,0 F,0,186428,186802,0,0.02286327 F,0,186802,186849,0.02286327,1 F,0,186849,186896,1,0.02286327 F,0,186896,187364,0.02286327 F,0,187364,187411,0.02286327,1 F,0,187411,187458,1,0.02286327 F,0,187458,187927,0.02286327 F,0,187927,187973,0.02286327,1 F,0,187973,188020,1,0.02286327 F,0,188020,188489,0.02286327 F,0,188489,188535,0.02286327,1 F,0,188535,188582,1,0.02286327 F,0,188582,190175,0.02286327,0 F,0,190175,192049,0,1 F,0,192049,192798,1,0.9962647 F,0,192798,192845,0.9962647,0 F,0,192845,192892,0,0.9962647 F,0,192892,193360,0.9962647 F,0,193360,193407,0.9962647,0 F,0,193407,193454,0,0.9962647 F,0,193454,193922,0.9962647 F,0,193922,194297,0.9962647,0 F,0,194297,194484,0,0.01594021 F,0,194484,195234,0.01594021,1 F,0,195234,195796,1 F,0,195796,196358,1,0 F,0,196358,196920,0 F,0,196920,197295,0,1 F,0,197295,197670,1,0 F,0,197670,198794,0 F,0,198794,199169,0,1 F,0,199169,199544,1,0 F,0,199544,199918,0 F,0,199918,200293,0,1 F,0,200293,200668,1,0 F,0,200668,201042,0,1 F,0,201042,205352,1 F,0,205352,205914,1,0 F,0,205914,206476,0,1 F,0,206476,207038,1,0 F,0,207038,207788,0 F,0,207788,208350,0,1 F,0,208350,209474,1 F,0,209474,210224,1,0 F,0,210224,210786,0 F,0,210786,211910,0,1 F,0,211910,213034,1,0 F,0,213034,213971,0 F,0,213971,214018,0,1 F,0,214018,214065,1,0 F,0,214065,214158,0 F,0,214158,214205,0,1 F,0,214205,214252,1,0 F,0,214252,214486,0 F,0,214486,214533,0,1 F,0,214533,214580,1,0 F,0,214580,214674,0 F,0,214674,214721,0,1 F,0,214721,214767,1,0 F,0,214767,215095,0 F,0,215095,215142,0,1 F,0,215142,215189,1,0 F,0,215189,215470,0 F,0,215470,215517,0,1 F,0,215517,215564,1,0 F,0,215564,215657,0 F,0,215657,215704,0,1 F,0,215704,215751,1,0 F,0,215751,216032,0 F,0,216032,216079,0,1 F,0,216079,216126,1,0 F,0,216126,216220,0 F,0,216220,216266,0,1 F,0,216266,216313,1,0 F,0,216313,216407,0 F,0,216407,216454,0,1 F,0,216454,216501,1,0 F,0,216501,216594,0 F,0,216594,216641,0,1 F,0,216641,216688,1,0 F,0,216688,216782,0 F,0,216782,216829,0,1 F,0,216829,216875,1,0 F,0,216875,216969,0 F,0,216969,217016,0,1 F,0,217016,217063,1,0 F,0,217063,217156,0 F,0,217156,217203,0,1 F,0,217203,217250,1,0
//Storyboard Sound Samples
//Background Colour Transformations
3,100,163,162,255

[TimingPoints]
183,374.742364624321,4,1,0,80,1,0
932,374.742364624321,4,1,0,80,1,0
12924,374.742364624321,4,2,0,80,1,0
17420,-100,4,1,0,80,0,0
18919,-100,4,2,0,80,0,0
23416,-100,4,1,0,80,0,0
24541,-100,4,2,0,80,0,0
36798,-100,4,1,0,80,0,0
66699,-100,4,2,0,80,0,0
71383,-100,4,1,0,80,0,0
72882,-100,4,2,0,80,0,0
77394,-100,4,1,0,80,0,0
87778,-100,4,2,0,80,0,0
89370,-100,4,1,0,80,0,0
90853,-100,4,1,0,80,0,1
114665,-100,4,1,0,80,0,0
145021,-100,4,2,0,80,0,0
167316,-100,4,1,0,80,0,0
168815,-100,4,1,0,80,0,1
205352,-100,4,1,0,80,0,0
213877,-100,4,1,0,80,0,0

[Colours]
Combo1 : 0,0,160
Combo2 : 128,0,255
Combo3 : 255,255,0
Combo4 : 255,0,0

[HitObjects]
72,192,183,1,0
128,192,370,1,0
184,192,557,1,0
240,192,745,1,4
240,80,1119,5,0
240,80,1306,1,0
352,80,1681,1,0
352,80,1868,1,0
352,80,2056,1,0
352,80,2243,2,0,B|352:320,1,210
256,344,3180,5,0
256,288,3367,1,0
256,232,3555,1,0
256,176,3742,1,0
88,192,4304,5,0
256,40,5054,1,0
424,192,5803,1,0
312,192,6178,5,0
256,192,6365,1,0
200,192,6553,1,0
256,192,6740,1,4
256,208,6927,12,0,8052
256,192,8239,6,0,B|232:232|176:224|144:208|136:168|144:128|152:96|192:64|264:64|304:120,1,350
344,152,9363,1,0
384,192,9551,1,0
424,224,9738,1,4
256,192,13298,5,0
256,136,13486,1,0
256,80,13673,1,0
256,192,14048,1,2
480,192,14797,5,0
424,192,14985,1,0
368,192,15172,1,0
480,192,15547,1,2
480,360,16109,5,0
432,336,16296,1,0
384,304,16484,1,0
336,272,16671,1,0
256,192,17046,1,2
256,80,17420,5,4
216,120,17608,1,0
256,160,17795,1,4
216,200,17983,1,0
256,240,18170,1,4
216,280,18357,1,0
256,320,18545,1,0
256,152,19107,5,0
256,96,19294,1,0
256,208,19669,1,8
256,96,20044,1,2
120,192,20606,5,0
160,152,20793,1,0
192,200,20980,1,0
224,152,21168,1,8
256,264,21543,1,10
408,192,22105,6,0,B|344:136,1,70
328,192,22479,1,0
296,144,22667,2,0,B|248:200,1,70
208,168,23042,1,0
168,136,23229,1,0
168,80,23416,5,2
168,136,23604,1,0
120,168,23791,1,2
120,224,23978,1,0
232,224,24353,1,2
256,208,24728,12,0,27538
40,192,27913,5,0
40,192,28101,2,0,B|80:152|136:144|176:160,1,140
256,232,28850,1,0
344,160,29225,2,0,B|416:144|488:192,1,140
478,185,29787,1,0
480,296,30162,5,0
424,296,30349,1,0
256,208,30536,12,0,32597
208,304,32785,5,0
256,200,33160,1,0
304,304,33534,1,0
256,200,33909,2,0,B|256:48,2,140
256,256,34846,5,0
256,256,35033,2,0,B|104:304,1,140
256,256,35783,2,0,B|408:304,1,140
256,256,36907,6,0,B|256:32,2,210,4|0|0
360,288,38406,1,0
304,288,38593,2,0,B|152:288,1,140
112,288,39155,2,0,B|112:136,1,140
112,88,39718,1,0
112,32,39905,6,0,B|200:32,1,70
240,32,40280,2,0,B|320:32,1,70
344,72,40654,2,0,B|424:72,1,70
416,128,41029,6,0,B|504:128,1,70
488,184,41404,2,0,B|400:184,1,70
416,240,41779,2,0,B|336:240,1,70
344,296,42153,2,0,B|256:296,1,70
216,296,42528,2,0,B|136:296,1,70
88,296,42903,5,4
224,192,43465,1,0
56,192,44027,1,4
136,40,44589,1,0
304,40,45151,1,0
304,208,45526,1,0
304,208,45713,2,0,B|304:168|288:136|256:112|208:104|176:104|136:120|112:144|88:184|88:224|88:256|112:288|152:312|208:320|256:312,1,490,0|0
352,320,47400,5,0
392,280,47587,1,0
392,224,47775,1,0
392,168,47962,1,0
352,128,48149,1,0
296,128,48337,1,0
240,128,48524,1,0
192,152,48711,1,4
176,264,49086,5,0
136,224,49274,1,0
88,240,49461,2,0,B|88:312,2,70,0|2|0
88,184,50023,1,0
256,192,50585,5,0
312,192,50772,1,0
368,192,50960,1,0
368,136,51147,2,0,B|280:136,1,70,2|0
240,136,51522,1,0
256,360,52271,5,0
256,248,52646,1,0
160,192,53021,1,0
216,192,53208,1,0
160,192,53396,2,0,B|80:192,6,70
88,104,54895,5,4
256,64,55457,1,4
416,112,56019,1,4
256,64,56581,1,4
256,232,57143,1,4
256,120,57518,5,4
256,64,57705,2,0,B|392:80|416:208|384:360|240:384|96:360|48:208|88:80|240:64,1,770
256,176,60141,1,0
256,176,60328,1,0
256,176,60516,1,0
256,176,60703,2,4,B|256:208|232:240|192:256|152:240|120:208|120:160,1,210,4|0
336,96,62015,5,0
336,96,62202,1,0
336,96,63139,2,0,B|248:96,1,70
208,96,63514,1,0
208,96,63701,1,4
256,192,67261,6,0,B|256:40,1,140,4|0
328,144,68011,1,2
144,144,68573,6,0,B|288:144,1,140,4|0
336,144,69135,1,0
336,200,69322,1,2
304,248,69510,1,2
248,248,69697,1,0
248,192,69884,2,0,B|240:136|248:96|280:72|320:56|360:88,1,140,4|0
352,80,70446,1,0
408,80,70634,2,0,B|464:144,1,70
480,184,71009,1,0
368,192,71383,5,4
312,288,71758,1,0
256,192,72133,1,0
200,288,72508,1,0
256,128,73070,6,0,B|408:128,1,140
400,184,73632,2,0,B|248:184,1,140
32,184,74756,5,0
136,152,75131,1,0
136,40,75505,1,0
360,40,76255,2,0,B|416:56|432:112|392:176,1,140,0|0
352,248,77004,1,0
256,192,77379,5,4
184,104,77754,1,0
256,24,78129,1,0
328,104,78503,1,0
256,208,78878,12,0,81501
256,192,84312,5,0
256,136,84499,1,0
256,80,84687,2,0,B|312:96|368:128|400:176|384:200|336:248|320:264|280:280|240:280|192:264|144:232|144:176|168:112|216:80|216:48,2,560
256,136,87872,5,0
256,192,88059,1,0
312,192,88247,1,0
312,136,88434,1,0
312,248,88809,5,0
312,304,88996,1,0
256,304,89184,1,0
216,264,89371,1,0
216,208,89558,2,0,B|208:152|240:112|264:112|304:120,3,140
344,120,90870,5,4
256,264,91432,1,4
176,112,91994,1,4
256,264,92556,1,4
104,192,93118,5,4
176,280,93493,1,0
208,240,93680,1,0
240,200,93868,2,0,B|264:152|360:128|376:216|344:240|328:280|304:328|240:296|232:288,3,280
56,192,96866,5,4
136,48,97428,1,4
224,192,97990,1,4
392,192,98552,1,4
256,96,99114,1,0
256,208,99676,12,0,102112
256,192,103049,5,4
256,136,103236,1,0
256,80,103424,2,0,B|336:80,3,70
344,192,104548,5,4
344,248,104735,1,0
344,304,104923,2,0,B|264:304,3,70
152,192,106234,5,0
264,192,106609,1,0
264,192,106796,1,0
264,192,106984,1,0
360,248,107359,5,0
248,248,107733,1,0
304,248,107921,2,0,B|256:240|256:112,1,140
104,192,108858,5,4
256,120,109420,1,4
400,40,109982,1,4
256,120,110544,1,4
104,192,111106,1,4
216,192,111481,5,4
272,192,111668,2,0,B|288:240|280:280|256:304|216:336|176:336|112:320|88:272|80:240|80:192|96:144|168:136|200:136|240:136|280:136,1,490,4|0
32,192,114104,5,0
88,192,114291,1,0
144,192,114479,1,0
200,192,114666,1,4
256,192,114853,6,0,B|312:184|392:264,1,140,4|0
416,288,115416,1,0
392,336,115603,2,0,B|338:337|290:299|272:263,1,140,0|4
272,216,116165,1,0
272,160,116352,2,0,B|320:120|320:72|288:32|272:24|256:16,1,140,4|0
248,80,116915,2,0,B|192:136,1,70,0|0
160,168,117289,1,0
256,208,117664,12,4,118976
256,192,119725,5,0
256,192,119912,1,0
256,192,120100,1,0
256,192,120287,1,0
256,192,120475,1,4
312,192,120662,2,0,B|304:240|264:256|200:264,1,140,4|0
144,264,121224,5,0
88,264,121411,2,0,B|32:256|16:224|0:200|16:160,1,140
16,112,121974,5,0
16,56,122161,2,0,B|72:56|104:88|120:128|120:152,1,140,4|4
152,184,122723,5,0
184,224,122910,2,0,B|224:256|248:280,1,70
280,304,123285,1,0
256,208,123660,12,0,124971
256,192,125159,6,0,B|208:208|168:160|128:112|232:40|328:72|400:160,1,350,0|4
72,328,126845,5,0
72,216,127220,1,0
112,176,127407,2,0,B|400:176,1,280,0|4
256,80,128719,2,0,B|256:304,1,210
112,192,129843,2,0,B|272:264|456:192,2,350,4|0|0
256,96,132279,5,0
312,96,132466,1,0
368,96,132654,1,0
424,96,132841,1,0
424,208,133216,5,0
352,296,133591,1,0
280,208,133965,1,0
256,256,134153,5,0
160,192,134527,1,0
120,160,134715,1,0
80,128,134902,1,0
256,192,135839,6,0,B|120:96,1,140,4|0
256,192,136401,6,0,B|384:104,1,140,4|0
256,192,136963,6,0,B|256:344,1,140,4|0
256,192,137525,6,0,B|256:40,1,140,4|0
312,56,138087,1,0
352,96,138275,1,0
352,152,138462,1,0
312,192,138650,1,0
256,112,141085,5,0
288,160,141273,1,0
320,208,141460,1,0
352,256,141648,1,0
256,112,144083,5,0
216,152,144271,1,0
176,192,144458,1,0
136,232,144645,1,0
256,192,145208,5,0
256,136,145395,1,0
256,80,145582,1,0
256,192,145957,1,2
480,192,146707,5,0
424,192,146894,1,0
368,192,147081,1,0
480,192,147456,1,2
480,360,148018,5,0
432,336,148205,1,0
384,304,148393,1,0
336,272,148580,1,0
256,192,148955,1,2
256,80,149330,5,4
192,168,149704,1,4
120,80,150079,1,4
192,168,150454,1,4
256,264,150829,5,4
256,320,151016,1,0
312,320,151203,1,0
424,320,151578,1,0
424,208,151953,1,2
424,40,152515,5,0
384,80,152702,1,0
328,80,152890,1,0
272,80,153077,1,0
160,80,153452,1,2
256,216,154014,6,0,B|256:136,1,70
256,88,154389,1,0
200,88,154576,2,0,B|200:168,2,70
480,192,156825,6,0,B|462:162|480:136|432:112|376:112|328:144|304:168|288:224|312:256,1,280
32,192,158324,6,0,B|50:162|32:136|80:112|136:112|184:144|208:168|224:224|200:256,1,280
256,208,159823,12,0,162446
256,192,162820,5,0
256,136,163008,1,0
256,80,163195,1,0
256,192,163570,1,2
480,192,164319,5,0
424,192,164507,1,0
368,192,164694,1,0
480,192,165069,1,2
256,192,165818,6,0,B|208:192|160:176|144:136|136:112,2,140
368,192,166943,1,0
256,192,167317,1,4
144,192,167692,1,4
256,192,168067,1,4
32,192,168816,5,4
120,48,169378,1,4
288,48,169941,1,4
376,192,170503,1,4
256,72,171065,5,4
256,184,171440,1,0
256,240,171627,1,0
256,128,172002,2,0,B|488:128|488:128,4,210,0|0|0|0|4
32,192,174812,5,4
144,312,175374,1,4
144,136,175936,1,4
312,192,176499,1,4
480,192,177061,5,0
368,192,177435,1,4
256,208,177623,12,4,180433
312,192,180995,5,0
272,152,181183,1,0
232,112,181370,2,0,B|312:112,3,70,0|0|0|4
416,304,182682,5,0
376,264,182869,1,0
336,304,183057,2,0,B|256:304,2,70,0|0|4
136,192,184181,5,0
256,192,184556,1,0
256,136,184743,1,0
256,80,184930,1,0
352,136,185305,1,0
352,248,185680,1,0
296,248,185867,1,0
240,248,186054,2,0,B|192:240|176:112,1,140,0|4
88,192,186804,5,4
88,24,187366,1,4
256,24,187928,1,4
256,192,188490,1,4
424,192,189052,5,0
312,192,189427,1,0
256,192,189615,1,0
256,192,189989,2,0,B|285:72|173:32|45:72|37:200|53:328|173:384|285:328|312:248,1,630,0|4
256,336,192800,5,4
256,192,193362,1,4
256,24,193924,2,0,B|296:24|328:80|328:128|304:152,1,140,4|0
312,192,194486,2,0,B|319:338|167:298|215:130,1,280,0|4
88,192,195798,6,0,B|32:96|128:48|192:72|192:72,1,210,4|0
360,64,196922,2,0,B|512:96|360:200,2,210
80,192,198796,6,0,B|88:136|152:104|192:112,2,140,4|0|0
192,192,199920,2,0,B|184:248|136:256|104:272|72:256,3,140,4|0|0|0
88,144,201419,1,4
256,208,201606,12,4,204792
256,192,205354,6,0,B|144:216|64:112,3,210,0|0|0|4
464,344,207790,6,0,B|272:216,1,210,4|0
160,120,208914,1,0
160,120,209476,2,0,B|240:120|208:32|128:24|72:96|72:192,1,280,0|4
72,184,210787,6,0,B|72:144|88:64|128:40|200:16|264:40|344:88|352:160|360:200,2,420,0|4|0
256,192,213973,5,4
256,192,214160,1,0
256,192,214535,1,4
256,192,214722,1,0
256,192,215097,1,0
256,192,215472,1,4
256,192,215659,1,0
256,64,216034,1,4
256,64,216221,1,0
256,64,216409,1,4
256,64,216596,1,4
256,64,216783,1,0
256,64,216971,1,4
256,64,217158,1,0
