osu file format v6

[General]
AudioFilename: Sugarcult - Dead Living.mp3
AudioLeadIn: 1511
PreviewTime: 35393
Countdown: 0
SampleSet: Normal
StackLeniency: 0.7
Mode: 0
LetterboxInBreaks: 0

[Editor]
DistanceSpacing: 0.800000011920929
BeatDivisor: 2
GridSize: 8

[Metadata]
Title:Dead Living
Artist:Sugarcult
Creator:x3ns0r
Version:Alive
Source:Burnout Paradise OST
Tags:Rock Burnout Paradise Gaming Rock

[Difficulty]
HPDrainRate:3
CircleSize:4
OverallDifficulty:4
SliderMultiplier:1.3
SliderTickRate:2

[Events]
//Background and Video events
0,0,"PrototypeAlexMercer.png"
//Break Periods
2,17620,17787
2,27738,29404
2,33734,35587
2,64463,65941
2,114866,119342
2,138850,143700
//Storyboard Layer 0 (Background)
//Storyboard Layer 1 (Fail)
//Storyboard Layer 2 (Pass)
//Storyboard Layer 3 (Foreground)
//Storyboard Sound Samples
//Background Colour Transformations
3,100,163,162,255

[TimingPoints]
183,374.742364624321,4,1,0,80,1,0
932,374.742364624321,4,1,0,80,1,0
12924,374.742364624321,4,2,0,80,1,0
17420,-100,4,1,0,80,0,0
18919,-100,4,2,0,80,0,0
23416,-100,4,1,0,80,0,0
24541,-100,4,2,0,80,0,0
36798,-100,4,1,0,80,0,0
66699,-100,4,2,0,80,0,0
71383,-100,4,1,0,80,0,0
72882,-100,4,2,0,80,0,0
77378,-100,4,1,0,80,0,0
78503,-100,4,2,0,80,0,0
89370,-100,4,1,0,80,0,0
90869,-100,4,1,0,80,0,1
114665,-100,4,1,0,80,0,0

[Colours]
Combo1 : 0,0,160
Combo2 : 128,0,255
Combo3 : 255,255,0
Combo4 : 255,0,0

[HitObjects]
256,192,183,1,0
256,192,370,1,0
256,192,557,1,0
256,248,745,2,0,B|208:320|80:192|120:112|256:16|376:64|376:128,1,455,4|0
376,176,2243,2,0,B|376:224|368:256|344:288|320:312|296:320|272:336|248:336|224:336|208:328|184:328|152:312|136:304,1,325,4|0
104,280,3367,1,0
104,232,3555,1,0
104,184,3742,1,4
256,208,4117,12,4,5803
256,192,6178,5,0
256,192,6365,1,0
256,192,6553,1,0
256,192,6740,2,0,B|296:168|360:184|376:248|368:328|304:360|256:368|216:360|184:352|144:328|128:248,1,455,4|0
128,200,8239,2,0,B|136:144|176:104|240:96|296:96|352:112|400:160,1,325,4|0
432,192,9363,1,0
400,232,9551,1,0
352,232,9738,1,4
256,208,10113,12,4,12736
104,192,13111,5,0
160,192,13298,1,0
216,192,13486,1,0
256,152,13673,2,0,B|256:232,2,65,2|0|0
448,336,14610,5,0
400,304,14797,1,0
352,272,14985,1,0
352,216,15172,2,0,B|280:216,2,65,2|0|0
256,352,16109,5,0
256,296,16296,1,0
256,240,16484,1,0
200,240,16671,2,0,B|96:184|200:152,2,130,0|0|4
424,192,19107,5,0
392,144,19294,1,0
360,192,19481,1,0
328,144,19669,1,2
296,192,19856,1,0
264,144,20044,1,0
72,192,20606,5,0
104,144,20793,1,0
136,192,20980,1,0
168,144,21168,1,2
200,192,21355,1,0
232,144,21543,1,0
392,192,22105,5,0
352,232,22292,1,0
304,264,22479,1,0
248,264,22667,2,0,B|192:264|168:248|152:208|152:176|184:152|248:144|280:144|296:176|344:144,1,260,0|4
368,128,23604,1,0
456,56,23978,1,0
368,128,24353,1,0
288,192,24728,6,0,B|176:160|104:256|200:352|320:384|416:352|440:248|448:160|392:72|288:32|192:24|88:56|16:120|72:296,1,975
32,192,30724,6,0,B|56:40|152:8|288:0|424:48|448:160|440:248|400:336|320:368|184:360|80:256|80:96|288:192,1,975
24,320,36907,6,0,B|152:160,1,195,4|0
320,160,38031,2,0,B|184:352,1,195,4|0
208,160,39155,1,0
208,56,39530,1,0
208,56,39718,1,0
256,208,40092,12,4,42153
256,48,42903,5,4
344,192,43465,1,4
256,336,44027,1,4
168,192,44589,1,4
256,48,45151,5,0
344,192,45713,2,0,B|384:160|432:168|472:200|488:248|456:304|432:328|384:344|344:328|320:304|296:248|240:136,2,455,4|0|0
168,192,48899,1,4
168,80,49274,6,0,B|40:96|40:144,1,130,0|0
48,256,50023,1,0
160,256,50398,1,4
200,224,50585,6,0,B|216:216|248:152|240:96|160:136,1,130
144,128,51147,1,0
104,160,51335,1,0
72,192,51522,1,0
256,312,52271,5,0
360,312,52646,2,0,B|456:312,5,65
360,232,53958,1,0
400,192,54145,1,0
432,152,54333,1,0
312,56,54895,5,4
240,192,55457,1,4
312,328,56019,1,4
384,192,56581,1,4
312,56,57143,1,0
256,144,57518,1,0
256,192,57705,1,0
256,208,58080,12,4,60703
256,192,62015,5,0
256,192,62202,2,0,B|256:136|264:104|296:80|328:64|368:72|400:88|432:112|456:144|472:176|480:208,1,325
472,232,63326,1,0
448,280,63514,1,0
400,280,63701,2,0,B|344:280|296:248|296:208|317:159|348:136|376:160,1,195
256,192,67261,5,0
256,192,67449,1,0
256,248,67636,2,0,B|200:240|192:200,2,65
256,80,68573,5,0
256,80,68760,1,0
256,24,68947,2,0,B|296:40|312:80,3,65
256,232,70072,5,0
312,232,70259,1,0
368,232,70446,1,0
368,176,70634,2,0,B|312:96|312:96|264:152,1,130
240,120,71196,1,0
200,152,71383,5,4
160,192,71571,2,0,B|96:264|96:264|96:312,2,130
320,320,73070,5,0
376,320,73257,1,0
376,264,73444,1,0
376,208,73632,2,0,B|384:136|312:88|272:96,1,130
104,192,74756,6,0,B|128:272|184:264|240:224|248:168|248:80,1,260
384,192,76068,5,0
328,192,76255,1,0
272,192,76442,1,0
216,192,76630,2,0,B|128:192,3,65
96,192,77379,5,4
160,48,77941,1,0
256,96,78316,1,0
256,208,78691,12,0,81127
472,192,81876,5,0
432,160,82063,1,0
392,192,82251,1,0
344,192,82438,2,0,B|304:231|270:220|253:180|253:146,1,130
256,104,83000,1,0
256,56,83188,2,0,B|208:8|168:40|152:64|152:96,1,130
152,288,84312,6,0,B|240:224,1,65
256,208,84687,12,0,87310
256,192,87685,5,0
296,160,87872,1,0
336,128,88059,1,0
384,128,88247,2,0,B|384:272,1,130
384,312,88809,1,0
336,312,88996,1,0
280,312,89184,1,0
256,264,89371,2,0,B|248:208|280:168|304:168|352:200,3,130
424,192,90870,5,4
272,192,91432,1,4
120,192,91994,1,4
272,192,92556,1,4
272,352,93118,5,4
272,248,93493,1,0
360,192,93868,2,0,B|336:160|312:144|288:128|256:120|232:112|200:112|168:112|144:120|128:128|104:136|88:160|80:168|72:192,2,325
80,328,96866,5,4
80,328,97428,1,4
80,176,97990,1,4
160,40,98552,1,4
312,40,99114,1,4
256,208,99676,12,4,102112
96,48,103236,6,0,B|96:200,1,130
96,296,103986,1,0
320,312,104735,6,0,B|320:168,1,130
320,56,105485,1,0
120,160,106234,6,0,B|208:160,1,65
224,192,106609,1,0
320,192,106984,1,0
360,160,107171,1,0
392,120,107359,1,0
424,80,107546,1,0
320,80,107921,2,0,B|168:80|168:80|168:152|168:152|168:152,1,195
168,224,108858,5,4
256,352,109420,1,4
256,200,109982,1,4
256,48,110544,1,4
256,200,111106,1,4
256,208,111668,12,4,114666
40,192,120662,5,0
136,64,121224,1,8
136,64,121599,2,0,B|192:80|208:112|208:160|176:208|144:224,1,195
136,64,122723,1,8
136,64,122910,2,0,B|176:32|224:24|248:24|280:32|296:56|320:80|320:112|320:152,1,260
256,280,124222,1,8
256,176,124597,1,4
256,280,124971,1,8
256,280,125159,2,2,B|192:280|160:256|128:208|128:168|136:112,1,260
392,192,126845,6,0,B|384:160|360:120|336:104|304:80|272:72|224:72|200:80|176:96|152:104|128:136|112:152|96:192,1,390,0|4
256,152,128532,1,0
48,192,129281,2,0,B|56:224|80:264|112:280|144:296|176:296|224:296,1,195
200,192,130218,1,0
256,104,130593,1,0
256,104,130780,1,0
304,192,131155,1,0
256,288,131529,1,0
136,192,132092,5,4
344,192,132841,2,0,B|328:144|296:112|256:112|208:112|160:128|112:152|56:192,3,325
64,240,135839,2,0,B|264:240,3,195,4|4|4|4
256,80,138087,5,0
256,80,138275,1,0
256,80,138462,1,0
256,80,138650,1,4
472,192,145020,5,0
472,192,145208,2,0,B|448:112|400:96|336:96|304:128|272:168,1,260,0|8
40,192,146519,1,0
40,192,146707,2,0,B|64:112|112:96|176:96|208:128|240:168,1,260,0|8
256,320,148018,1,0
256,320,148205,2,0,B|256:56,1,260,0|8
472,192,151016,5,0
472,192,151203,2,0,B|448:112|400:96|336:96|304:128|272:168,1,260,0|8
40,192,152515,1,0
40,192,152702,2,0,B|64:112|112:96|176:96|208:128|240:168,1,260,0|8
256,320,154014,1,0
256,320,154201,2,0,B|256:56,1,260,0|8
256,40,156825,6,0,B|200:64|160:80|128:144|144:184|256:192,1,260
456,192,158324,2,0,B|448:248|408:272|376:288|320:304|272:304|232:304,1,260
256,96,159823,1,0
312,240,160385,2,0,B|360:232|392:184|392:128|368:104|320:88,1,195
176,96,161321,2,0,B|145:106|121:130|121:186|153:234|201:242,1,195
400,192,162820,6,0,B|352:128|280:104|216:136|176:192,1,260
400,192,164319,2,0,B|352:256|280:280|216:248|176:192,1,260
40,40,165818,2,0,B|176:40,6,130,0|0|0|0|4|4|4
256,40,168816,5,4
208,192,169378,1,0
96,80,169941,2,0,B|96:288,1,195
152,128,171065,1,0
152,232,171440,1,0
152,336,171814,1,0
152,336,172002,2,0,B|200:336|240:312|256:264|264:216|264:40,1,325,0|0
472,192,174812,5,0
320,192,175374,1,0
256,48,175936,2,0,B|256:256,1,195
112,192,177061,1,0
112,192,177623,2,0,B|136:152|160:120|192:112|224:96|256:96|288:96|312:104|344:128|368:160|376:192|384:240|368:280,2,390,0|0|4
448,328,181183,6,8,B|448:192,1,130
448,96,181932,1,0
384,296,182682,2,8,B|384:144,1,130
376,64,183431,1,0
256,232,184181,2,2,B|256:88,1,130
256,48,184743,1,0
256,48,184930,1,0
256,48,185118,2,0,B|208:64|200:104|200:136|192:168,1,130
192,208,185680,1,0
192,208,185867,2,0,B|200:256|240:280|280:288|320:272|352:232|376:192|376:152,1,260
376,120,186804,5,4
256,216,187366,1,0
256,64,187928,2,0,B|256:128|184:128|184:128|224:184|224:232,2,195
256,168,189427,1,0
256,272,189802,1,4
256,208,189989,12,0,192238
256,40,192800,6,2,B|296:40|320:72|328:104|328:144|312:176|280:192,1,195
128,192,193924,2,0,B|128:232|144:264|168:288|208:304|240:304|264:304|304:288|328:264|344:240|344:192,1,325,8|0
112,80,195798,2,0,B|160:48|248:48|304:80,1,195,8|0
408,192,196922,2,0,B|400:232|360:256|320:272|272:280|224:280|184:272|160:256|128:232|112:208,1,325
256,208,198796,12,4,201606
256,192,204792,5,0
256,40,205354,2,0,B|296:48|312:80|320:120|304:160|288:192,1,195
104,192,206478,2,0,B|88:280|120:304|176:304|216:264,1,195
408,192,207790,2,0,B|392:240|360:256|320:264|288:264|264:248|240:240,1,195
96,192,208914,2,0,B|120:168|168:128|200:104|256:104|288:104,1,195
96,192,210787,6,0,B|96:144|104:88|160:32|216:0|296:0|368:40|424:80|472:144|472:192,1,520
472,272,212661,1,0
56,192,213973,2,0,B|144:192,1,65,0|4
224,192,214535,2,0,B|296:192,1,65
392,192,215097,1,8
392,88,215472,1,4
392,88,215659,1,8
392,88,215846,2,0,B|312:88,3,65
288,120,216596,1,0
256,216,216971,2,4,B|256:296,1,65
