osu file format v7

[General]
AudioFilename: 209 - Fury - Sugar Donut.mp3
AudioLeadIn: 0
PreviewTime: -1
Countdown: 1
SampleSet: Normal
StackLeniency: 0.7
Mode: 0
LetterboxInBreaks: 1

[Editor]
DistanceSpacing: 0.800000011920929
BeatDivisor: 8
GridSize: 32

[Metadata]
Title:Fury
Artist:Sugar Donut
Creator:mikeyzaa
Version:Easy
Source:DJMAX
Tags:DJMAX

[Difficulty]
HPDrainRate:3
CircleSize:4
OverallDifficulty:2
SliderMultiplier:1.4
SliderTickRate:2

[Events]
//Background and Video events
0,0,"djmaxbswall011.jpg"
Video,0,"Fury.avi"
//Break Periods
2,30468,35874
//Storyboard Layer 0 (Background)
//Storyboard Layer 1 (Fail)
//Storyboard Layer 2 (Pass)
//Storyboard Layer 3 (Foreground)
//Storyboard Sound Samples
//Background Colour Transformations
3,100,0,0,0

[TimingPoints]
46,444.444444444444,4,1,1,61,1,0
44498,-100,4,1,1,61,0,1
58859,-100,4,1,1,61,0,0
80139,-100,4,1,1,61,0,1

[Colours]
Combo1 : 207,210,211
Combo2 : 255,136,136
Combo3 : 175,221,254
Combo4 : 186,254,239
Combo5 : 251,254,146

[HitObjects]
160,96,8990,1,0
288,96,10768,1,0
416,96,12545,1,0
256,32,14323,1,0
256,128,14768,1,0
256,224,15212,1,0
256,320,15657,1,4
384,224,16101,5,4
384,320,16545,2,4,B|352:352|128:352|96:320,2,280
256,256,19157,1,0
384,160,19657,5,0
416,64,20101,2,0,B|384:32|160:32|128:64,2,280
256,160,22768,1,8
384,224,23212,5,0
384,320,23656,2,0,B|352:352|128:352|96:320,2,280
256,256,26267,1,0
384,192,26712,5,0
416,96,27156,2,0,B|384:64|160:64|128:96,2,280
256,128,29823,1,0
256,256,30268,1,4
256,96,37434,5,0
256,256,38323,1,0
160,256,38768,1,0
64,256,39212,1,0
64,128,40101,5,0
160,128,40545,1,0
256,128,40990,1,0
384,128,41879,5,0
384,224,42323,1,0
384,320,42768,1,0
288,288,43601,2,0,B|192:224|288:256|192:288|192:288|256:320|256:320|224:320,1,210
192,352,44545,5,0
160,256,44990,1,0
128,160,45434,1,0
160,64,45879,1,0
32,64,47601,5,2
96,128,48045,2,0,B|128:224|128:224|160:128|160:128|192:224|192:224|224:128|224:128|256:224|256:224|288:128|288:128|320:224,1,700
416,224,50712,1,0
448,320,51157,1,0
352,320,51601,5,0
256,320,52101,1,0
160,320,52545,1,0
64,320,52990,1,0
64,192,53879,2,0,B|64:128|128:128|128:128|160:128|160:192,1,175
256,192,54768,1,4
320,128,55212,5,0
224,64,55657,1,0
128,64,56101,1,0
32,64,56545,1,0
64,224,57434,2,0,B|96:256|128:224|160:288|192:128,1,192.5
288,256,58768,1,8
288,128,59657,5,0
128,128,61379,1,0
128,320,63157,1,0
256,320,64990,1,0
352,320,65434,1,0
448,320,65879,1,0
384,224,67601,1,0
384,96,69323,1,0
288,96,71157,1,4
160,128,72934,5,0
96,128,73157,1,0
32,128,73379,1,0
32,256,74768,2,0,B|64:288|128:288|160:224,1,140
320,256,76545,5,0
320,192,76768,1,0
320,128,76990,1,0
192,128,78323,1,0
128,224,78768,1,0
96,352,79212,2,0,B|128:288|160:384|160:384|192:288|224:352|224:384|224:384|256:352|256:352,1,262.5,0|4
256,320,80545,5,0
320,224,80990,1,0
352,128,81434,1,0
256,128,82101,1,0
160,160,82545,1,0
192,256,82934,1,0
256,256,83212,1,2
352,224,83657,6,0,B|384:224|384:160|384:96|384:96,3,140
256,96,85601,1,0
128,128,86045,2,0,B|160:192,3,70
192,288,87157,1,0
288,288,87601,1,0
384,256,88045,1,0
416,160,88490,1,8
384,64,89212,6,0,B|352:128,5,70
256,160,90712,1,0
192,224,91157,1,0
160,320,91601,1,0
256,320,92045,1,0
384,320,92768,6,0,B|480:256|480:256|384:224|384:224|480:192|480:192|384:160|384:160|448:128|448:128|448:128,1,472.5
192,128,95212,1,0
192,256,95545,1,0
320,256,95823,1,0
256,192,96212,12,0,98879
