osu file format v8

[General]
AudioFilename: Imademo....mp3
AudioLeadIn: 0
PreviewTime: 91352
Countdown: 0
SampleSet: Soft
StackLeniency: 0.7
Mode: 0
LetterboxInBreaks: 0

[Editor]
Bookmarks: 31932,40835,91354,104321,140708,166257
DistanceSpacing: 0.7
BeatDivisor: 4
GridSize: 8

[Metadata]
Title:Imademo...
Artist:SuganoMusic
Creator:S i R i R u
Version:Easy
Source:Touhou
Tags:Flandre Scarlet u.n owen was her Noa

[Difficulty]
HPDrainRate:1
CircleSize:3
OverallDifficulty:1
ApproachRate:2
SliderMultiplier:0.7
SliderTickRate:1

[Events]
//Background and Video events
0,0,"BG.jpg"
//Break Periods
2,29812,30955
2,32908,34245
2,54586,65213
2,116521,127148
//Storyboard Layer 0 (Background)
//Storyboard Layer 1 (Fail)
//Storyboard Layer 2 (Pass)
//Storyboard Layer 3 (Foreground)
//Storyboard Sound Samples
//Background Colour Transformations
3,100,255,255,255

[TimingPoints]
17225,387.096774193548,4,2,1,40,1,0
22837,-100,4,1,0,30,0,0
23418,-100,4,2,1,50,0,0
28741,-100,4,1,0,50,0,0
29612,-100,4,2,1,70,0,0
32321,-100,4,1,0,50,0,0
41999,-100,4,2,2,60,0,1
42192,-100,4,2,2,60,0,0
52837,-100,4,1,0,30,0,0
54386,-100,4,2,2,60,0,0
66773,-100,4,2,1,50,0,0
67450,-100,4,1,1,50,0,0
67644,-100,4,2,1,50,0,0
69870,-100,4,2,1,30,0,0
72966,-100,4,2,1,50,0,0
76063,-100,4,2,2,50,0,0
79160,-100,4,2,1,50,0,0
83805,-100,4,1,0,40,0,0
85354,-100,4,2,1,50,0,0
91547,-100,4,2,2,60,0,1
91741,-100,4,2,2,60,0,0
92224,-100,4,1,1,60,0,0
92418,-100,4,2,2,60,0,0
102386,-100,4,2,2,30,0,0
103934,-100,4,2,2,60,0,1
104128,-100,4,2,2,60,0,0
110805,-100,4,1,1,60,0,0
110999,-100,4,2,2,60,0,0
114773,-100,4,1,0,50,0,0
116321,-100,4,2,2,60,0,0
128321,-100,4,2,1,50,0,0
131805,-100,4,2,2,50,0,0
134902,-100,4,2,1,50,0,0
137999,-100,4,2,2,50,0,0
141095,-100,4,2,1,50,0,0
145741,-100,4,1,0,50,0,0
147289,-100,4,2,1,50,0,0
150676,-100,4,1,1,50,0,0
150870,-100,4,2,1,50,0,0
153483,-100,4,2,2,60,0,1
153676,-100,4,2,2,60,0,0
164321,-100,4,2,1,30,0,0
165870,-100,4,2,2,60,0,1
166063,-100,4,2,2,61,0,0
172741,-100,4,1,1,60,0,0
172934,-100,4,2,2,60,0,0
174289,-100,4,1,1,70,0,0
174483,-100,4,2,2,61,0,0
181354,-100,4,2,2,30,0,0
182902,-100,4,2,2,40,0,0
184450,-100,4,2,2,60,0,0
187547,-100,4,2,2,30,0,0
189095,-100,4,1,0,60,0,0
190644,-100,4,2,2,60,0,1
190837,-100,4,2,2,60,0,0

[Colours]
Combo1 : 255,255,255
Combo2 : 255,255,2
Combo3 : 0,227,0

[HitObjects]
256,336,17225,1,4
256,240,17999,1,2
256,144,18773,2,0,B|336:144,2,70,0|0|2
256,144,20321,2,0,B|184:144,2,70,0|0|2
256,240,21870,1,0
256,240,22644,1,2
256,240,23418,1,4
352,240,24192,6,0,B|424:240,2,70,8|0|0
352,192,25354,1,0
352,144,25741,2,0,B|352:96|296:64|248:72,2,140,8|0|8
256,160,28063,5,0
256,256,28837,1,0
256,256,29224,1,0
256,256,29612,1,4
256,192,32515,6,0,B|256:240,1,35
96,192,35805,5,0
192,192,36579,1,0
256,120,37354,1,0
256,288,38708,5,0
256,288,38902,1,0
256,96,40450,1,0
256,192,41999,5,4
168,232,42773,1,8
208,320,43547,2,0,B|360:320,2,140,0|8|0
128,264,45870,5,8
128,216,46257,1,0
128,168,46644,1,0
224,152,47418,2,0,B|224:104|176:64|128:72,1,140,8|4
56,136,48966,6,0,B|56:208,2,70,8|0|0
152,136,50515,2,0,B|192:136|240:168|240:232,2,140,8|0|8
104,136,52450,1,0
256,192,52837,12,4,54386
424,328,66773,6,0,B|384:328|328:312|288:272|248:216|256:128,1,280,4|0
256,40,69095,1,8
256,40,69483,1,0
256,192,69870,12,4,72966
256,192,73741,6,0,B|256:344,2,140,8|0|8
256,96,76063,2,0,B|256:24,2,70,4|0|8
352,96,77612,1,4
432,152,78386,1,8
432,152,78773,1,0
432,152,79160,6,0,B|432:304,1,140,4|8
336,312,80708,2,0,B|280:320|224:272|224:232,1,140,0|8
224,192,81870,1,0
224,144,82257,2,0,B|184:104|104:112|80:120,2,140,0|8|0
272,144,84192,5,0
320,144,84579,1,0
368,144,84966,1,0
416,144,85354,1,0
416,240,86128,6,0,B|416:288|368:328|312:328,1,140,8|0
264,248,87676,2,0,B|192:248,1,70,8|0
144,248,88450,2,0,B|64:248,4,70,0|0|8|0|4
208,136,91547,6,0,B|16:248,2,210,4|0|8
256,136,94257,1,0
304,136,94644,2,0,B|448:136,2,140,0|8|0
304,232,96966,1,8
256,320,97741,6,0,B|200:320|160:296|136:256,1,140,4|8
136,160,99289,2,0,B|136:80,2,70,0|0|8
224,120,100837,1,0
304,72,101612,1,8
256,192,102386,12,4,103934
256,248,104708,5,8
256,344,105483,2,0,B|296:352|352:312|352:256,2,140,0|8|0
160,344,107805,2,0,B|160:192,2,140,8|0|8
256,344,110128,6,0,B|248:256|288:184|360:152|416:152,1,280,4|0
416,248,112450,2,0,B|488:248,2,70,8|0|0
320,248,113999,1,8
256,192,114773,12,4,116321
64,192,128708,5,4
160,192,129483,1,8
176,144,129870,1,0
216,120,130257,2,0,B|256:120|312:144|336:200,2,140,0|8|4
216,216,132579,5,8
216,264,132966,1,0
216,312,133354,1,4
312,288,134128,2,0,B|352:288|408:264|408:192,1,140,8|4
328,144,135676,6,0,B|176:144,2,140,8|0|8
384,64,137999,1,4
448,136,138773,2,0,B|448:208,2,70,8|0|4
360,176,140321,1,8
272,224,141095,1,4
176,224,141870,6,0,B|104:224,2,70,8|0|0
176,128,143418,1,8
256,72,144192,1,0
352,72,144966,1,8
352,168,145741,5,0
344,216,146128,1,0
312,256,146515,1,0
264,272,146902,1,0
216,272,147289,1,0
120,272,148063,6,0,B|120:128,2,140,8|0|8
136,320,149999,1,0
184,344,150386,2,0,B|328:344,2,140,0|0|4
256,192,153483,6,0,B|256:152|296:96|336:88,1,140,0|8
368,184,155031,2,0,B|368:328,2,140,0|8|0
272,184,157354,1,8
208,256,158128,1,0
192,304,158515,1,0
144,328,158902,1,8
80,256,159676,6,0,B|80:104,2,140,4|8|0
176,224,161999,1,8
176,176,162386,1,0
176,128,162773,2,0,B|176:48,2,70,0|0|8
256,192,164321,12,4,165870
256,192,166644,6,0,B|264:240|227:291|176:304,2,140,8|0|8
256,144,168579,1,0
256,96,168966,2,0,B|400:96,2,140,0|8|0
160,96,171289,1,8
160,192,172063,6,0,B|160:256|224:296|296:288|352:256|352:184,2,280,4|0|0
256,168,175934,1,8
256,120,176321,1,0
256,72,176708,1,4
256,248,178257,6,0,B|256:328,2,70,8|0|2
256,136,179805,2,0,B|256:64,2,70,8|0|2
256,192,181354,12,2,182902
208,160,184450,5,8
256,144,184837,1,0
304,128,185224,1,2
304,224,185999,1,8
256,240,186386,1,0
208,256,186773,1,2
256,192,187547,12,0,189095
256,192,189870,6,0,B|256:112,2,70,0|0|4
