osu file format v5

[General]
AudioFilename: Allegro Cantabile.mp3
AudioLeadIn: 0
PreviewTime: 11980
Countdown: 0
SampleSet: Normal
EditorBookmarks: 650,12020,23093,28630,32023,43454,62029

[Metadata]
Title:Allegro Cantabile
Artist:Suemitsu & The Suemith
Creator:Kharl
Version:Easy

[Difficulty]
HPDrainRate:3
CircleSize:4
OverallDifficulty:3
SliderMultiplier:0.8
SliderTickRate:2

[Events]
//Background and Video events
0,0,"allegroCantabileBg.jpg"
1,0,"Nodame Cantabile 1st OP.avi"
//Break Periods
2,54872,60945
//Storyboard Layer 0 (Background)
//Storyboard Layer 1 (Failing)
//Storyboard Layer 2 (Passing)
//Storyboard Layer 3 (Foreground)
//Storyboard Sound Samples
//Background Colour Transformations
3,100,163,162,255

[TimingPoints]
650,357.029585798817,4,1,0,100
11986,357.207876470589,4,1,0,100

[Colours]
Combo1 : 218,133,169
Combo2 : 218,177,112
Combo3 : 145,191,153
Combo4 : 145,155,223

[HitObjects]
216,280,12343,1,0
96,224,13057,1,0
216,184,13772,1,0
96,120,14486,1,0
216,72,15200,5,0
336,128,15915,1,0
336,248,16629,1,0
280,280,16986,1,0
224,312,17344,1,2
184,224,17879,6,0,B|206:121|356:107|408:208,2,280
248,224,20737,2,0,B|280:296|416:304|456:240,1,240
408,192,22166,1,4
368,136,22523,1,4
304,160,22880,1,4
264,104,23238,1,6
192,184,23773,6,0,B|147:111|226:57|403:71|399:182|360:280|248:352,1,480
256,192,26095,12,0,27881
256,344,28596,1,0
304,304,28953,1,2
192,240,29667,1,2
304,184,30382,1,2
192,120,31096,1,0
248,80,31453,1,0
248,80,31632,1,4
352,96,32168,6,0,B|418:166|428:226|360:320,1,240
304,344,33597,1,0
240,352,33954,1,0
176,328,34311,1,0
136,272,34668,1,0
176,208,35025,6,0,B|204:282|261:308|314:289|353:239|360:200,1,240
360,152,36454,1,0
320,96,36811,1,6
256,72,37169,1,6
192,96,37526,1,6
144,144,37883,6,0,B|128:208|176:264,1,120
224,344,38955,1,0
160,328,39312,1,0
96,256,39848,1,0
88,192,40205,1,0
88,192,40384,1,2
144,152,40741,6,0,B|178:50|270:37|352:88,1,240
392,128,42170,1,4
408,200,42527,1,4
384,264,42884,1,4
312,272,43241,6,2,B|232:232|232:176,1,120
320,80,44491,1,0
424,176,45206,1,0
368,296,45920,1,0
232,320,46635,1,2
168,296,46992,1,0
168,296,47170,1,0
112,256,47528,2,2,B|192:200|312:256,1,200
400,248,48957,6,0,B|312:184|208:168,1,200
120,192,50385,1,4
152,128,50743,1,4
216,96,51100,1,4
312,120,51636,1,2
312,120,51814,1,2
256,192,52171,12,4,54672
344,328,61995,5,4
296,288,62352,1,4
248,248,62709,1,4
200,208,63066,1,4
152,168,63423,5,2
240,80,64138,1,0
240,80,64317,1,0
304,80,64674,1,0
424,224,65567,5,0
424,224,65745,1,0
368,184,66102,1,2
168,184,66996,1,0
168,184,67174,1,2
136,128,67531,2,2,B|72:184|116:252|184:248,1,160
288,192,68960,6,0,B|344:192|376:232|392:264,1,120
336,296,69853,1,2
232,296,70389,2,4,B|168:272|136:232|120:184,2,160
256,192,72175,12,4,74675
296,216,76462,5,0
224,216,76819,1,0
256,280,77176,1,0
256,280,77355,1,0
256,280,77533,1,4
