osu file format v9

[General]
AudioFilename: 09-Subway To Sally - Eisblumen.mp3
AudioLeadIn: 0
PreviewTime: 224271
Countdown: 0
SampleSet: Soft
StackLeniency: 0.7
Mode: 0
LetterboxInBreaks: 1

[Editor]
DistanceSpacing: 0.8
BeatDivisor: 4
GridSize: 8

[Metadata]
Title:Eisblumen
Artist:Subway to Sally
Creator:DoKoLP
Version:Hard
Source:
Tags:Nord Ost ice flowers

[Difficulty]
HPDrainRate:6
CircleSize:4
OverallDifficulty:7
ApproachRate:8
SliderMultiplier:1.9
SliderTickRate:2

[Events]
//Background and Video events
0,0,"Ice flower Wallpaper__yvt2.jpg"
//Break Periods
2,165622,186596
//Storyboard Layer 0 (Background)
//Storyboard Layer 1 (Fail)
//Storyboard Layer 2 (Pass)
//Storyboard Layer 3 (Foreground)
//Storyboard Sound Samples
//Background Colour Transformations
3,100,163,162,255

[TimingPoints]
25423,384.615384615385,4,2,0,70,1,0
34653,-100,4,1,0,75,0,0
36961,-66.6666666666667,4,2,0,70,0,0
37153,-66.6666666666667,4,1,0,75,0,0
37730,-66.6666666666667,4,1,0,50,0,0
54846,-100,4,2,0,70,0,0
56192,-100,4,1,0,50,0,0
64269,-200,4,2,0,60,0,0
65423,-200,4,2,0,75,0,1
88499,-200,4,2,0,60,0,0
89269,-66.6666666666667,4,1,0,75,0,0
90038,-66.6666666666667,4,1,0,50,0,0
111576,-66.6666666666667,4,2,0,70,0,0
114653,-66.6666666666667,4,1,0,50,0,0
133115,-100,4,2,0,70,0,0
141192,-200,4,2,0,60,0,0
142346,-200,4,2,0,75,0,1
165423,-200,4,2,0,5,0,0
187346,-200,4,2,0,50,0,0
197730,-200,4,2,0,60,0,0
200807,-200,4,2,0,75,0,1
222346,-200,4,2,0,70,0,0
224263,-100,4,2,0,70,0,0
225423,-100,4,2,0,85,0,1
250038,-100,4,2,0,85,0,0

[Colours]
Combo1 : 15,104,238
Combo2 : 28,126,155
Combo3 : 117,91,217

[HitObjects]
192,96,25423,2,0,B|160:48|160:48|144:64|96:16|104:104|8:48,1,190,4|0
320,96,26192,2,0,B|352:48|352:48|368:64|416:16|408:104|504:48,1,190
304,192,26961,2,0,B|328:232|264:288|256:224|248:288|184:232|208:192,1,190
384,232,27730,2,0,B|440:224|408:272|464:256|464:256|432:304|472:304|472:352,1,190
128,232,28499,2,0,B|72:224|104:272|48:256|48:256|80:304|40:304|40:352,1,190
256,344,29269,1,0
256,192,29653,1,0
256,40,30038,5,0
40,192,30423,1,0
256,344,30807,1,0
472,192,31192,1,0
256,40,31576,1,0
96,176,31961,6,0,B|32:136|32:136|80:120|56:96|128:64,1,190
416,208,32730,2,0,B|480:248|480:248|432:264|456:288|384:320,1,190
320,344,33307,1,0
256,208,33692,1,0
320,72,34076,2,0,B|336:96|336:96|296:128|336:176|256:128|256:128|176:176|216:128|176:96|176:96|192:72,1,285,0|4
256,344,35807,5,0
256,344,36192,1,8
472,192,36961,5,4
368,152,37153,1,0
256,136,37346,1,0
144,152,37538,1,0
40,192,37730,6,0,B|16:264|40:336,1,142.499995753169,4|0
112,240,38115,2,0,B|136:168|112:96,1,142.499995753169,8|0
200,24,38499,1,0
200,136,38692,1,0
296,80,38884,2,0,B|368:56|368:56|432:80,2,142.499995753169,8|0|0
296,192,39461,1,0
384,264,39653,1,8
496,232,39846,1,0
512,120,40038,6,0,B|512:24|416:16,1,142.499995753169
320,32,40422,2,0,B|320:128|416:136,1,142.499995753169,8|0
208,32,40999,5,8
112,96,41192,1,8
112,96,41384,1,8
208,32,41576,2,0,B|240:104|216:168|216:176,1,142.499995753169
384,192,42346,5,0
256,312,42538,1,8
128,192,42730,1,8
256,72,42922,1,0
256,72,43307,1,8
256,72,43499,1,0
352,280,43884,5,4
456,320,44076,1,0
352,360,44269,1,8
248,312,44461,2,0,B|176:288|176:288|112:320,1,142.499995753169
24,216,44846,2,0,B|96:240|96:240|160:208,1,142.499995753169,0|8
256,160,45230,1,0
352,96,45422,6,0,B|416:64|504:88|496:248|360:224,1,284.999991506338,0|8
256,160,45999,1,0
160,96,46192,2,0,B|96:64|8:88|16:248|152:224,1,284.999991506338,0|8
256,368,46961,5,0
256,256,47153,1,0
168,184,47346,2,8,B|136:152|136:152|112:160|72:160|56:112,1,142.499995753169
344,184,47730,2,0,B|376:152|376:152|400:160|440:160|456:112,1,142.499995753169
216,112,48499,5,0
256,208,48692,1,8
256,208,48884,1,8
304,112,49076,1,0
256,24,49269,1,0
256,208,49461,1,8
256,208,49653,1,8
112,160,50038,6,0,B|48:192|56:280,1,142.499995753169
136,240,50422,2,0,B|120:320|200:360,1,142.499995753169,8|0
208,272,50807,2,0,B|264:336|352:288,1,142.499995753169
440,248,51192,1,8
496,152,51384,1,0
480,40,51576,6,0,B|416:0|344:32,1,142.499995753169
32,40,51961,2,0,B|96:0|168:32,1,142.499995753169,8|0
256,104,52346,1,8
144,136,52538,2,0,B|112:192|152:256|192:232|192:232|224:256|256:224|256:224|288:256|320:232|320:232|360:256|400:192|368:136,1,427.499987259508,8|4
192,312,53499,6,0,B|256:368|320:312,1,142.499995753169
320,72,53884,2,0,B|256:16|192:72,1,142.499995753169,8|0
384,240,54269,2,0,B|440:192|440:192|384:144,1,142.499995753169
128,144,54653,2,0,B|72:192|72:192|128:240,1,142.499995753169,8|8
184,280,55038,5,8
248,320,55230,1,0
320,328,55422,1,0
392,312,55615,1,0
440,256,55807,1,0
464,184,55999,1,0
456,112,56192,6,0,B|448:64|408:32,1,95
256,144,56769,2,0,B|256:240,1,95
56,272,57346,2,0,B|64:320|104:352,1,95
184,256,57922,5,0
320,192,58115,1,8
184,128,58307,1,0
272,304,58499,1,8
240,80,58692,1,0
136,192,58884,1,8
336,264,59076,1,0
432,160,59269,6,0,B|480:128|472:72,1,95,4|0
400,88,59653,2,0,B|400:40|344:16,1,95
320,88,60038,2,0,B|280:56|224:72,1,95
264,144,60422,2,0,B|200:160|168:112,2,95
472,192,61192,5,8
40,192,61576,1,8
72,120,61769,1,0
128,72,61961,1,0
200,48,62153,1,0
256,192,62346,5,2
256,192,62442,12,0,63884
408,56,64269,6,0,B|408:112,1,47.5,2|0
408,144,64653,2,0,B|408:192,1,47.5,2|0
408,232,65038,1,2
408,272,65230,1,0
384,304,65422,6,2,B|352:336|320:328|288:336|256:304,1,142.5,4|0
272,264,66192,2,2,B|304:224|296:168,1,95,0|4
240,112,66961,1,0
168,80,67346,1,0
96,104,67730,1,8
40,152,68115,6,0,B|8:192|16:248,2,95
112,176,69269,1,8
184,144,69653,1,0
184,144,69846,1,0
256,112,70230,5,0
272,144,70422,1,2
280,184,70615,1,0
272,224,70807,1,2
256,256,70999,1,0
248,296,71192,1,2
256,336,71384,1,0
280,368,71576,6,2,B|328:384|384:368|416:320|424:280,1,190,4|0
352,248,72730,2,2,B|360:192|400:160|448:152,1,142.5,4|0
480,144,73499,1,2
512,72,73884,1,8
472,8,74269,1,0
424,72,74653,6,2,B|352:104|352:104|248:56,1,190,12|0
208,120,75807,1,8
168,184,76192,1,4
136,256,76576,6,0,B|104:296,1,47.5,2|0
80,320,76961,2,0,B|80:368,1,47.5,2|0
120,368,77346,2,0,B|168:368,1,47.5,2|0
208,368,77730,6,0,B|256:368|296:336|304:280,1,142.5,4|0
304,240,78499,1,2
304,200,78692,1,0
328,168,78884,2,2,B|376:136|384:72|328:32|272:64,1,190,4|0
208,88,80038,5,8
144,48,80422,1,0
144,48,80807,2,0,B|104:8|56:32,1,95,4|4
88,104,81576,2,0,B|64:144|64:144|64:192,2,95,0|0|4
112,128,83115,1,8
136,152,83884,6,0,B|184:176|184:176|224:176,1,95,6|0
296,24,84653,2,0,B|272:71|272:71|272:113,1,95,2|0
408,200,85422,2,0,B|360:176|360:176|320:176,1,95,4|0
240,312,86192,2,0,B|264:264|264:264|264:222,1,95,2|0
256,192,86961,12,4,88499
184,280,89269,5,0
256,80,89461,1,0
328,280,89653,1,0
144,160,89846,1,0
368,160,90038,5,4
448,80,90230,1,0
344,40,90422,2,0,B|280:0|200:16,1,142.499995753169,8|0
144,112,90807,2,0,B|208:152|288:136,2,142.499995753169,0|0|8
48,48,91384,1,0
24,160,91576,6,0,B|48:232|48:232|48:304,1,142.499995753169
144,360,91961,2,0,B|144:216,1,142.499995753169,8|0
256,72,92346,2,0,B|256:216,1,142.499995753169
368,360,92730,2,0,B|368:216,1,142.499995753169,8|0
472,72,93115,2,0,B|472:216,1,142.499995753169
368,144,93499,1,8
264,216,93692,1,0
144,48,93884,6,0,B|72:64|40:136,1,142.499995753169
152,144,94269,2,0,B|120:144|120:144|120:256,1,142.499995753169,8|0
360,240,94653,2,0,B|392:240|392:240|392:128,1,142.499995753169
368,336,95038,2,0,B|440:320|472:248,1,142.499995753169,8|0
256,40,95422,5,0
200,136,95615,1,0
200,248,95807,1,8
256,344,95999,1,0
384,192,96192,5,8
384,192,96384,1,8
384,192,96576,2,0,B|416:128|416:128|488:112,2,142.499995753169,8|0|0
328,296,97153,1,0
280,192,97346,1,8
232,296,97538,1,0
184,192,97730,6,0,B|112:192|56:128,1,142.499995753169
248,128,98115,2,0,B|320:128|376:64,1,142.499995753169,8|0
184,64,98499,2,0,B|112:64|56:0,2,142.499995753169,0|0|8
472,64,99269,5,0
472,352,99653,1,8
40,352,100038,1,0
40,64,100422,1,8
472,192,100807,5,0
256,344,101192,1,8
40,192,101576,1,0
256,40,101961,1,8
400,232,102346,5,0
400,232,102538,1,0
464,328,102730,2,0,B|400:384|336:328,1,142.499995753169,8|0
272,232,103115,2,0,B|336:176|400:232,1,142.499995753169
336,328,103499,2,0,B|272:384|208:328,1,142.499995753169,8|0
144,232,103884,6,0,B|64:112|64:112|88:48|168:24,1,284.999991506338,0|8
368,152,104653,2,0,B|448:272|448:272|424:336|344:360,1,284.999991506338,0|8
256,144,105422,5,0
144,88,105615,1,8
200,32,105807,1,8
368,88,105999,1,0
312,32,106192,1,8
256,144,106384,1,8
256,144,106576,1,0
256,256,106769,1,0
168,328,106961,6,8,B|96:320|96:320|48:264,1,142.499995753169
344,328,107346,2,8,B|416:320|416:320|464:264,1,142.499995753169
256,40,107922,1,8
256,40,108115,1,8
312,192,108499,5,0
200,192,108692,1,0
103,128,108884,2,0,B|48:192|103:255,1,142.499995753169,8|0
408,255,109269,2,0,B|464:192|408:128,1,142.499995753169,0|0
256,224,109653,2,8,B|256:368,1,142.499995753169,8|0
256,40,110038,1,0
256,224,110230,6,0,B|224:160|248:72|352:64|400:120|400:176,1,284.999991506338,8|0
256,224,110807,2,0,B|288:160|264:72|160:64|112:120|112:176,1,284.999991506338,8|0
216,40,111576,6,4,B|112:48|112:48|200:88|176:128|104:168|128:192|128:192|168:192|256:336|344:192|384:192|384:192|408:168|336:128|312:88|400:48|400:48|296:40,1,854.999974519015
384,272,113115,2,0,B|256:384|128:272,1,284.999991506338,4|0
128,112,113884,2,0,B|256:0|384:112,1,284.999991506338,4|0
304,192,114653,5,4
192,192,114846,1,0
88,232,115038,2,0,B|48:296|80:368,1,142.499995753169,8|0
304,232,115422,2,0,B|344:168|312:96,1,142.499995753169
208,152,115807,2,0,B|168:216|200:288,1,142.499995753169,8|0
424,152,116192,2,0,B|464:88|432:16,2,142.499995753169,0|0|8
336,224,116769,1,0
256,144,116961,6,0,B|256:80|192:40|128:40|64:80|64:144,1,284.999991506338,0|8
160,176,117538,2,0,B|160:240|224:280|288:280|352:240|352:176,1,284.999991506338,0|8
256,144,118115,2,0,B|256:80|320:40|384:40|448:80|448:144,1,284.999991506338,0|8
448,256,118692,1,0
256,40,119269,5,8
256,264,119653,1,8
256,264,119846,1,8
80,120,120230,1,8
80,120,120422,1,8
432,120,120807,5,0
432,120,120999,1,0
480,224,121192,2,0,B|480:304|392:328,1,142.499995753169,8|0
392,232,121576,2,0,B|320:288|248:248,1,142.499995753169
312,184,121961,2,0,B|240:176|184:120,2,142.499995753169,8|0|0
424,184,122538,1,0
376,80,122730,1,8
272,32,122922,1,0
168,72,123115,6,0,B|104:112|24:96,1,142.499995753169,0|0
120,168,123499,2,0,B|184:208|264:192,2,142.499995753169,8|0|0
32,240,124076,1,0
120,312,124269,2,0,B|192:304|256:352|256:352|320:304|392:312,1,284.999991506338,8|0
120,72,125038,2,0,B|192:80|256:32|256:32|320:80|392:72,1,284.999991506338,8|0
504,72,125615,5,0
488,216,125807,1,8
368,288,125999,1,8
256,192,126192,1,0
256,80,126384,5,8
256,192,126576,1,8
256,304,126769,1,0
360,352,126961,6,0,B|424:368|424:368|480:272|408:160,1,284.999991506338,4|8
152,352,127730,2,0,B|88:368|88:368|32:272|104:160,1,284.999991506338,0|8
304,88,128499,6,0,B|344:40|344:40|368:104|392:40|392:40|416:104|504:16,1,284.999991506338,0|8
208,192,129269,2,0,B|208:136|40:104|176:304|8:272|8:192,1,284.999991506338,0|8
304,296,130038,2,0,B|344:344|344:344|368:280|392:344|392:344|416:280|504:368,1,284.999991506338,4|8
352,112,130807,2,0,B|256:8|256:8|160:112,1,284.999991506338,0|8
256,288,131576,5,0
360,192,131769,1,8
256,96,131961,1,8
152,192,132153,1,0
336,272,132346,5,8
336,112,132538,1,8
176,112,132730,1,0
176,272,132922,1,0
256,192,133115,5,4
256,192,133307,1,2
472,48,133692,1,0
472,48,133884,1,2
40,48,134269,1,0
40,48,134461,1,2
16,232,134846,5,0
88,256,135038,1,2
152,296,135230,1,0
216,336,135422,1,2
296,336,135615,1,0
360,296,135807,1,2
424,256,135999,1,0
496,232,136192,6,0,B|496:136|496:136|496:88|448:64|400:88|400:136|400:136|400:168|396:196|352:216|316:200,1,380,4|2
256,48,137346,1,0
195,200,137730,2,0,B|160:216|116:196|112:168|112:136|112:136|112:88|64:64|16:88|16:136|16:136|16:232,1,380,0|2
16,312,138692,1,2
256,192,139269,12,4,140807
256,56,141192,5,0
232,88,141384,1,0
224,128,141576,1,0
232,168,141769,1,0
256,200,141961,1,0
288,216,142153,1,0
328,224,142346,6,0,B|360:232|400:232|440:208|464:168|448:120,1,190,4|0
376,144,143499,2,0,B|384:96|352:40|288:32|240:64,1,190,4|0
184,96,144653,1,2
144,160,145038,5,0
128,232,145422,2,0,B|128:280,2,47.5,2|0|2
200,208,146192,1,2
272,224,146576,1,0
304,240,146769,1,0
392,120,147346,6,0,B|408:80|376:40|352:32,1,95,2|0
320,104,148115,1,2
344,176,148499,6,0,B|304:200|232:160|232:104|256:64,1,190,4|0
200,16,149653,2,0,B|168:56|160:104|168:168|208:200,1,190,4|0
256,240,150807,5,2
328,264,151192,1,0
400,240,151576,2,0,B|424:192|400:144,1,95,14|0
336,192,152346,2,0,B|312:144|336:96,1,95,10|0
400,144,153115,2,0,B|424:96|400:48,1,95,14|0
384,24,153692,5,0
344,16,153884,1,2
304,24,154076,1,0
264,16,154269,1,2
224,24,154461,1,0
184,16,154653,6,0,B|120:8|72:16|40:56|48:104,1,190,4|0
120,96,155807,2,0,B|120:120|136:152|168:168|224:176|280:152,1,190,4|0
344,128,156961,1,2
408,168,157346,1,0
408,96,157730,5,6
344,128,158115,1,0
344,200,158499,1,2
344,280,158884,1,0
320,312,159076,2,0,B|256:368|192:312,1,142.5,2|0
256,240,160038,1,4
208,152,160807,6,0,B|168:120|120:112,1,95,6|0
304,152,161576,2,0,B|344:120|392:112,1,95,2|0
256,240,162346,2,0,B|256:336,1,95,4|0
256,88,163115,1,8
256,88,163307,1,8
256,88,163499,1,0
256,192,163884,12,0,165422
256,48,187346,5,0
248,120,187730,1,2
256,192,188115,1,0
304,248,188499,6,0,B|392:312|480:248,1,190,2|0
424,200,189653,2,0,B|464:176|504:88|440:32,1,190,2|0
296,56,191192,5,0
256,120,191576,1,2
216,56,191961,1,0
176,120,192346,1,2
136,56,192730,1,0
136,56,192922,1,2
136,56,193499,6,0,B|96:24|48:56,1,95,2|0
96,112,194269,1,0
72,184,194653,2,0,B|16:232|40:320|112:328,1,190,2|0
216,320,195807,1,2
256,112,196961,5,2
320,72,197346,1,0
392,72,197730,1,4
288,200,199269,5,12
256,224,199461,1,8
232,248,199653,2,0,B|208:288,1,47.5,10|0
176,312,200038,2,0,B|128:328,1,47.5,10|0
96,320,200422,2,0,B|56:296,1,47.5,10|0
32,264,200807,6,0,B|8:224|8:168|32:128,1,142.5,4|0
56,96,201576,1,0
120,48,201961,2,0,B|184:16|224:88|304:40,1,190,4|0
376,8,203115,1,2
440,56,203499,5,0
456,128,203884,2,0,B|456:176,2,47.5,2|0|2
384,112,204653,1,2
312,136,205038,1,0
312,136,205230,1,2
312,136,205807,5,2
288,168,205999,1,0
312,200,206192,1,2
336,232,206384,1,0
312,264,206576,1,2
288,296,206769,1,0
264,264,206961,6,0,B|152:224|104:328,1,190,4|0
208,336,208115,2,0,B|224:224|144:160,1,190,4|0
96,104,209269,5,8
136,40,209653,1,0
192,88,210038,2,0,B|256:160|256:160|320:88,1,190
376,40,211192,1,0
416,104,211576,1,8
256,192,211961,5,2
288,216,212153,1,0
304,248,212346,1,2
328,272,212538,1,0
368,280,212730,2,0,B|416:288,1,47.5,2|0
448,280,213115,6,0,B|496:256|504:200|496:136|432:128,1,190,4|0
376,96,214269,2,0,B|312:16|272:112|200:32,1,190,4|0
128,32,215422,5,8
64,80,215807,1,0
40,152,216192,1,4
56,224,216576,1,0
112,280,216961,1,8
184,312,217346,1,8
184,312,217538,1,0
184,312,217730,5,8
256,288,218499,1,8
328,312,219269,5,8
328,312,219653,1,0
400,296,220038,2,0,B|440:272|456:216,1,95,2|0
376,208,220807,2,0,B|384:160|432:136,1,95,2|0
472,72,221576,5,4
256,192,221961,1,4
40,72,222346,1,4
256,192,222442,12,4,223884
256,80,224269,5,2
184,104,224461,1,2
128,152,224653,1,2
88,216,224846,1,2
160,224,225038,1,0
232,232,225230,1,0
256,160,225422,6,0,B|336:184|312:320|232:304,2,190,4|0|2
184,128,226384,1,0
248,88,226576,2,0,B|344:64,1,95,4|0
472,112,226961,2,0,B|376:136,1,95,2|0
272,240,227346,2,0,B|368:216,1,95,2|0
504,264,227730,2,0,B|408:288,1,95,2|0
352,336,228115,5,2
280,360,228307,1,0
208,336,228499,2,0,B|160:320|160:320|128:264,1,95,4|0
208,264,228884,2,0,B|256:248|256:248|288:192,1,95
208,192,229269,2,0,B|160:176|160:176|128:120,2,95,2|0|2
256,128,229846,1,4
472,48,230422,5,2
440,120,230615,1,0
472,192,230807,1,2
440,264,230999,1,0
384,312,231192,1,2
312,304,231384,1,0
256,256,231576,6,0,B|208:176|208:176|208:80,1,190,4|0
136,208,232346,2,0,B|184:288|184:288|184:384,2,190,4|0|2
256,32,233499,1,8
256,88,233884,1,8
256,144,234269,1,0
256,200,234653,6,0,B|256:296|368:344,1,190,12|0
256,200,235422,2,0,B|256:296|144:344,1,190,12|0
160,200,236192,2,0,B|128:80|256:8|384:80|352:200,1,380,4|4
256,144,237346,1,2
200,280,237730,6,0,B|128:360,1,95,4|0
104,128,238115,2,0,B|176:48,1,95,2|0
312,280,238499,2,0,B|384:360,1,95,4|0
408,128,238884,2,0,B|336:48,1,95,2|0
288,8,239269,1,2
216,40,239461,1,0
256,104,239653,1,2
256,184,239846,1,0
408,128,240038,6,0,B|408:224,1,95,8|0
256,185,240422,2,0,B|256:280,1,95,8|0
104,128,240807,2,0,B|104:224,2,95,12|0|12
416,192,241576,2,0,B|512:192,2,95,12|0|12
32,192,242346,2,0,B|168:40|248:320|368:192,1,380,0|4
32,192,243884,5,4
256,32,244269,1,0
480,192,244653,1,8
256,352,245038,1,0
256,192,245422,5,12
368,112,245807,1,0
144,272,246192,1,8
416,320,246576,1,4
96,64,246961,1,0
256,192,247057,12,4,250038
