osu file format v9

[General]
AudioFilename: Subplaid - That No.mp3
AudioLeadIn: 0
PreviewTime: 129589
Countdown: 0
SampleSet: Soft
StackLeniency: 0.7
Mode: 0
LetterboxInBreaks: 1
EpilepsyWarning: 1

[Editor]
DistanceSpacing: 0.8
BeatDivisor: 2
GridSize: 4

[Metadata]
Title:That No
Artist:Subplaid
Creator:grumd
Version:Normal
Source:
Tags:

[Difficulty]
HPDrainRate:5
CircleSize:4
OverallDifficulty:5
ApproachRate:7
SliderMultiplier:1.4
SliderTickRate:1

[Events]
//Background and Video events
0,0,"bg.jpg"
//Break Periods
//Storyboard Layer 0 (Background)
//Storyboard Layer 1 (Fail)
//Storyboard Layer 2 (Pass)
//Storyboard Layer 3 (Foreground)
//Storyboard Sound Samples
//Background Colour Transformations
3,100,128,255,128

[TimingPoints]
0,368.152365992539,4,2,0,80,1,0

[Colours]
Combo1 : 37,156,88
Combo2 : 0,221,155
Combo3 : 47,198,66
Combo4 : 71,209,5
Combo5 : 0,196,156

[HitObjects]
64,84,11780,2,0,B|140:64|212:76,1,140
268,164,12517,1,0
380,152,12885,1,0
428,252,13253,1,0
316,244,13621,2,0,B|284:244|248:256,2,70
416,196,14357,1,0
448,300,14726,2,0,B|372:320|300:308,1,140
244,220,15463,1,0
132,232,15831,1,0
84,132,16199,1,0
192,100,16567,2,0,B|224:99|260:88,2,70
360,148,17303,6,0,B|296:176|224:176,1,140
136,248,18039,2,0,B|116:192|116:104,1,140
220,72,18775,1,0
260,176,19143,1,0
216,280,19512,1,0
272,292,19696,1,0
328,296,19880,1,0
360,188,20248,1,0
344,76,20616,5,0
452,112,20984,2,0,B|453:148|444:184,1,70
404,220,21352,2,0,B|396:252|400:292,1,70
356,324,21720,1,0
248,296,22089,1,0
140,324,22457,2,0,B|148:289|144:252,1,70
100,224,22825,2,0,B|95:190|96:152,1,70
128,108,23193,6,0,B|196:96|276:100,1,140
320,196,23929,1,0
224,248,24298,1,0
120,280,24666,1,0
76,176,25034,1,0
184,156,25402,2,0,B|225:150|264:160,2,70
268,84,26138,6,0,B|292:148|288:228,1,140
376,152,26875,1,0
424,256,27243,2,0,B|376:288|292:300,1,140
180,300,27979,2,0,B|160:244|152:164,2,140
268,232,29084,6,0,B|340:212|412:216,1,140
352,312,29820,2,0,B|284:324|192:308,1,140
116,252,30557,1,0
124,140,30925,2,0,B|184:128|256:96,1,140
296,56,31477,2,0,B|336:48|368:48,1,70
396,156,32029,6,0,B|420:224|424:296,2,140
284,136,33133,1,0
252,244,33501,2,0,B|188:264|108:248,2,140
340,316,34606,2,0,B|356:260|352:172,1,140
380,68,35342,5,0
268,88,35710,2,0,B|228:88|184:96,1,70
192,148,36078,2,0,B|156:148|124:168,1,70
112,220,36447,1,0
192,296,36815,2,0,B|264:304|352:296,1,140
388,308,37367,2,0,B|396:236|388:164,1,140
368,116,37919,1,0
264,156,38287,5,0
164,104,38655,2,0,B|172:144|160:188,1,70
116,204,39023,2,0,B|107:245|116:288,1,70
144,320,39392,1,0
252,288,39760,1,0
280,180,40128,1,0
232,80,40496,1,0
344,80,40864,6,0,B|369:143|368:216,1,140,0|0
432,308,41601,2,0,B|400:316|360:312,1,70
308,300,41969,1,0
252,300,42153,2,0,B|212:300|172:316,1,70
76,284,42705,2,0,B|60:212|76:140,1,140
116,108,43257,2,0,B|180:124|260:124,1,140
308,108,43810,1,0
400,172,44178,2,0,B|328:176|248:212,1,140
208,212,44730,2,0,B|176:212|140:200,2,70
252,176,45282,1,0
184,88,45650,5,0
296,88,46019,1,0
352,84,46203,2,0,B|387:85|420:72,2,70
296,88,46755,6,0,B|276:160|284:228,1,140
192,160,47491,2,0,B|176:232|184:308,1,140
100,228,48227,1,0
116,116,48596,2,0,B|192:88|260:96,1,140
276,144,49148,2,0,B|348:160|424:152,1,140
436,200,49700,1,0
340,260,50068,5,0
240,308,50436,2,0,B|208:300|164:304,2,70
292,284,50988,2,0,B|292:244|284:204,1,70
176,192,51541,1,0
64,180,51909,2,0,B|64:144|68:108,1,70
116,84,52277,2,0,B|156:72|200:72,1,70
240,88,52645,6,0,B|304:112|384:120,1,140
416,224,53382,1,0
324,292,53750,2,0,B|332:224|324:152,1,140
220,108,54486,2,0,B|160:100|80:108,1,140
72,164,55038,2,0,B|88:240|80:308,1,140
136,320,55591,1,0
240,280,55959,5,0
344,236,56327,2,0,B|340:272|336:304,1,70
392,316,56695,2,0,B|432:328|464:312,1,70
460,256,57063,1,0
392,164,57431,1,0
296,104,57799,1,0
240,112,57983,2,0,B|204:100|160:104,2,70
252,168,58536,6,0,B|184:192|96:168,1,140
144,64,59272,1,0
256,80,59640,2,0,B|280:144|272:228,1,140,0|0
352,140,60376,1,0
432,64,60745,2,0,B|424:100|428:140,1,70
344,208,61297,2,0,B|352:172|352:140,2,70
296,240,61849,5,0
192,284,62217,1,0
76,268,62585,2,0,B|92:204|92:124,1,140
188,72,63322,1,0
212,180,63690,1,0
160,280,64058,1,0
272,284,64426,6,0,B|340:308|412:296,1,140
404,184,65162,1,0
316,116,65531,2,0,B|308:180|312:256,1,140
416,216,66267,2,0,B|356:252|284:256,1,140
252,304,66819,2,0,B|180:288|112:288,1,140
76,248,67371,2,0,B|64:200|64:168,1,70
76,124,67740,1,0
176,76,68108,2,0,B|208:140|208:212,1,140
296,144,68844,1,0
388,76,69212,2,0,B|384:148|396:220,1,140
300,148,69948,1,0
300,148,70317,6,0,B|312:216|312:288,1,140
204,320,71053,1,0
216,220,71421,2,0,B|148:212|72:216,1,140
136,312,72157,2,0,B|152:240|148:172,1,140
172,124,72710,2,0,B|244:104|312:104,1,140
364,116,73262,2,0,B|376:152|376:188,1,70
368,240,73630,1,0
264,200,73998,2,0,B|232:192|192:192,1,70
188,136,74366,2,0,B|152:132|120:120,1,70
80,84,74734,1,0
120,188,75103,2,0,B|144:256|136:328,1,140
192,320,75655,1,0
244,296,75839,2,0,B|276:284|312:288,1,70
368,272,76207,6,0,B|380:200|376:128,1,140
268,168,76943,1,0
212,68,77311,2,0,B|140:56|68:64,1,140
120,164,78048,2,0,B|140:232|140:304,1,140
196,308,78600,2,0,B|268:300|332:272,1,140
384,252,79152,2,0,B|400:288|400:324,2,70,0|0|4
144,92,82097,6,0,B|120:156|140:232,1,140
368,108,83570,6,0,B|408:112|440:100,2,70
364,308,84675,6,0,B|328:304|296:288,1,70
264,244,85043,2,0,B|232:228|196:220,1,70
144,220,85411,1,0
240,108,86515,6,0,B|240:72|248:36,2,70
324,180,87252,2,0,B|336:216|336:252,1,70
304,296,87620,2,0,B|236:316|164:296,1,140
165,296,88356,1,0
152,84,89461,6,0,B|228:68|296:72,1,140
388,304,90565,6,0,B|372:268|368:232,1,70
384,184,90933,2,0,B|388:148|384:112,1,70
336,84,91301,1,0
336,84,91669,1,0
336,84,92038,1,0
256,160,92406,2,0,B|256:232,2,70
176,84,93142,2,0,B|144:80|104:88,1,70
72,132,93510,2,0,B|76:168|76:208,1,70
92,248,93878,1,0
92,248,94247,6,0,B|124:264|168:260,1,70
216,244,94615,2,0,B|252:236|288:236,2,70
148,156,95351,2,0,B|136:120|140:84,1,70
188,60,95719,2,0,B|256:68|328:44,1,140
348,96,96271,2,0,B|344:168|364:240,2,140
272,180,97376,6,0,B|236:188|204:188,1,70
112,252,97928,1,0
212,304,98296,2,0,B|256:312|288:312,1,70
384,264,98848,2,0,B|388:220|388:188,1,70
300,124,99401,2,0,B|264:124|224:120,2,70
316,176,99953,2,0,B|296:244|296:316,1,140
244,296,100505,2,0,B|172:284|104:296,2,140
260,244,101425,1,0
228,196,101610,2,0,B|224:160|232:120,1,70
280,104,101978,6,0,B|320:96|360:96,1,70
396,192,102530,1,0
344,292,102898,1,0
232,296,103266,2,0,B|228:260|232:224,1,70
312,148,103818,2,0,B|240:140|168:140,1,140
116,152,104371,2,0,B|108:220|120:292,1,140
172,316,104923,1,0
284,300,105291,2,0,B|352:312|424:288,2,140
264,248,106211,2,0,B|264:212|256:180,2,70
284,300,106764,1,0
396,308,107132,6,0,B|412:272|416:240,1,70
468,220,107500,2,0,B|460:184|460:148,1,70
424,108,107868,1,0
436,52,108052,2,0,B|372:40|292:44,1,140
200,100,108789,1,0
92,72,109157,2,0,B|84:108|88:144,1,70
184,184,109709,1,0
276,120,110077,2,0,B|316:112|348:112,1,70
416,200,110629,2,0,B|376:208|344:208,1,70
252,272,111182,2,0,B|228:204|232:132,2,140
196,268,112102,1,0
140,256,112286,1,0
100,220,112470,2,0,B|99:182|107:150,1,70
204,88,113022,2,0,B|272:80|344:84,1,140
