osu file format v9

[General]
AudioFilename: only time make.mp3
AudioLeadIn: 2000
PreviewTime: 56486
Countdown: 0
SampleSet: Normal
StackLeniency: 0.7
Mode: 1
LetterboxInBreaks: 0

[Editor]
Bookmarks: 16,11310,28251,33898,56486,67780,79074,101663,124251
DistanceSpacing: 0.8
BeatDivisor: 2
GridSize: 32

[Metadata]
Title:Only time make your hapiness
Artist:Subplaid
Creator:[Luanny PhNyx]
Version:Futsuu
Source:
Tags:gabe breakcore jungle enya makes happiness taiko

[Difficulty]
HPDrainRate:3
CircleSize:5
OverallDifficulty:3
ApproachRate:5
SliderMultiplier:1.4
SliderTickRate:1

[Events]
//Background and Video events
0,0,"onlytime.png"
//Break Periods
//Storyboard Layer 0 (Background)
//Storyboard Layer 1 (Fail)
//Storyboard Layer 2 (Pass)
//Storyboard Layer 3 (Foreground)
//Storyboard Sound Samples
//Background Colour Transformations
3,100,163,162,255

[TimingPoints]
16,352.941176470588,4,1,0,70,1,0
56486,-100,4,1,0,70,0,1
79074,-100,4,1,0,70,0,0
101663,-100,4,1,0,70,0,1
124251,-100,4,1,0,70,0,0

[HitObjects]
256,192,16,1,0
256,192,721,1,0
256,192,1427,1,8
256,192,2133,1,8
256,192,2839,1,0
256,192,3545,1,0
256,192,4251,1,8
256,192,4957,1,8
256,192,5663,1,0
256,192,6368,1,0
256,192,7074,1,8
256,192,7780,1,8
256,192,8486,1,0
256,192,9192,1,0
256,192,9898,1,8
256,192,10604,1,8
256,192,11310,1,0
256,192,11663,1,0
256,192,12015,1,0
256,192,12721,1,8
256,192,13427,1,8
256,192,13780,1,0
256,192,14133,1,0
256,192,14839,1,0
256,192,15192,1,8
256,192,15545,1,8
256,192,15898,1,0
256,192,16074,1,0
256,192,16251,1,8
256,192,16957,1,0
256,192,17663,1,0
256,192,18368,1,8
256,192,18721,1,0
256,192,19074,1,8
256,192,19427,1,0
256,192,19780,1,0
256,192,20486,1,0
256,192,20839,1,8
256,192,21192,1,8
256,192,21545,1,0
256,192,21721,1,0
256,192,21898,1,8
256,192,22604,1,0
256,192,23310,1,0
256,192,23663,1,0
256,192,24015,1,8
256,192,24721,1,8
256,192,25427,1,0
256,192,26133,1,0
256,192,26486,1,0
256,192,26839,1,8
256,192,27545,1,8
256,192,28251,1,0
256,192,28957,1,0
256,192,29663,1,8
256,192,30368,12,8,32839
256,192,33898,5,0
256,192,34604,1,0
256,192,34957,1,8
256,192,35310,1,0
256,192,36015,1,8
256,192,36721,1,8
256,192,37074,1,0
256,192,37251,1,0
256,192,37427,1,8
256,192,38133,1,0
256,192,38839,1,8
256,192,39192,1,8
256,192,39368,1,8
256,192,39545,1,0
256,192,40251,1,0
256,192,40604,1,8
256,192,40957,1,0
256,192,41663,1,8
256,192,42368,1,8
256,192,42721,1,0
256,192,43074,1,8
256,192,43427,1,0
256,192,43604,1,0
256,192,43780,1,8
256,192,44486,1,6
256,192,45192,1,0
256,192,45545,1,8
256,192,45898,1,0
256,192,46604,1,8
256,192,47310,1,8
256,192,47663,1,0
256,192,48015,1,8
256,192,48721,1,8
256,192,49427,1,0
256,192,50133,1,8
256,192,50486,1,8
256,192,50663,1,8
256,192,50839,1,0
256,192,51545,1,0
256,192,51898,1,8
256,192,52251,1,8
256,192,52604,1,0
256,192,52957,1,8
256,192,53663,12,0,55780
256,192,56486,5,4
256,192,56839,1,0
256,192,57192,1,8
256,192,57898,1,8
256,192,58604,1,0
256,192,58957,1,8
256,192,59133,1,8
256,192,59310,1,8
256,192,59663,1,0
256,192,60015,1,8
256,192,60721,1,0
256,192,61427,1,8
256,192,61780,1,8
256,192,61957,1,8
256,192,62133,1,0
256,192,62839,1,8
256,192,63545,1,0
256,192,64251,1,0
256,192,64604,1,8
256,192,64957,1,8
256,192,65310,1,0
256,192,65663,1,8
256,192,66368,1,0
256,192,66721,1,8
256,192,67074,1,0
256,192,67780,1,4
256,192,68486,1,8
256,192,69192,1,0
256,192,69898,1,8
256,192,70251,1,8
256,192,70427,1,8
256,192,70604,1,8
256,192,70957,1,0
256,192,71310,1,8
256,192,72016,1,0
256,192,72721,1,8
256,192,73074,1,8
256,192,73251,1,8
256,192,73427,1,0
256,192,74133,1,8
256,192,74839,1,0
256,192,75545,1,0
256,192,75898,1,8
256,192,76251,1,8
256,192,76604,1,0
256,192,76780,1,0
256,192,76957,1,8
256,192,77663,1,0
256,192,78368,1,0
256,192,78721,1,0
256,192,79074,1,0
256,192,79780,1,8
256,192,80133,1,8
256,192,80486,1,0
256,192,80839,1,0
256,192,81192,1,8
256,192,81898,1,0
256,192,82251,1,0
256,192,82604,1,8
256,192,83310,1,0
256,192,84016,1,8
256,192,84368,1,8
256,192,84721,1,0
256,192,85427,1,8
256,192,85780,1,0
256,192,86133,1,0
256,192,86839,1,8
256,192,87192,1,0
256,192,87368,1,0
256,192,87545,1,8
256,192,88251,1,8
256,192,88957,1,0
256,192,89663,1,8
256,192,90368,1,0
256,192,90721,1,8
256,192,91074,1,8
256,192,91780,1,0
256,192,92486,1,8
256,192,92839,1,8
256,192,93016,1,8
256,192,93192,1,0
256,192,93898,1,8
256,192,94604,1,0
256,192,95310,1,8
256,192,95663,1,0
256,192,96016,1,0
256,192,96721,1,8
256,192,97427,1,0
256,192,98133,1,8
256,192,98486,1,8
256,192,98663,1,0
256,192,98839,1,0
256,192,99545,1,8
256,192,99898,1,8
416,96,100251,2,0,B|96:96,1,280
256,192,101663,1,4
256,192,102368,1,8
256,192,103074,1,0
256,192,103780,1,8
256,192,104133,1,0
256,192,104310,1,0
256,192,104486,1,8
256,192,105192,1,8
256,192,105898,1,0
256,192,106604,1,8
256,192,106957,1,8
256,192,107310,1,0
256,192,107663,1,0
256,192,108016,1,8
256,192,108721,1,0
256,192,109427,1,8
256,192,109780,1,0
256,192,110133,1,8
256,192,110486,1,0
256,192,110839,1,8
256,192,111545,1,0
256,192,112251,1,8
256,192,112427,1,8
256,192,112604,1,8
256,192,112957,1,0
256,192,113663,1,8
256,192,114368,1,0
256,192,115074,1,8
256,192,115427,1,0
256,192,115604,1,0
256,192,115780,1,8
256,192,116133,1,0
256,192,116486,1,8
256,192,117192,1,0
256,192,117898,1,8
256,192,118251,1,8
256,192,118427,1,8
256,192,118604,1,0
256,192,119310,1,8
256,192,120016,1,0
256,192,120721,1,0
256,192,121074,1,8
256,192,121427,1,8
256,192,121780,1,0
256,192,121957,1,0
256,192,122133,1,8
256,192,122839,1,8
256,192,123545,1,8
256,192,123898,1,8
256,192,124251,1,4
