osu file format v13

[General]
AudioFilename: Subformat - More (feat. Charli Brix).mp3
AudioLeadIn: 0
PreviewTime: 66171
Countdown: 0
SampleSet: Normal
StackLeniency: 0.7
Mode: 0
LetterboxInBreaks: 0
WidescreenStoryboard: 1

[Editor]
Bookmarks: 340,44225,54441,55197,66168,88111,110054,131997,153940
DistanceSpacing: 1.2
BeatDivisor: 4
GridSize: 4
TimelineZoom: 1.6

[Metadata]
Title:More (feat. Charli Brix)
TitleUnicode:More (feat. Charli Brix)
Artist:Subformat
ArtistUnicode:Subformat
Creator:Secretpipe
Version:Collab Insane
Source:
Tags:drum and bass liquid dnb mrsuicidesheep ProfessionalBox RikiH_ -Bakari- Mao Desperate-Kun
BeatmapID:442243
BeatmapSetID:184800

[Difficulty]
HPDrainRate:8.5
CircleSize:4
OverallDifficulty:7.5
ApproachRate:9
SliderMultiplier:1.8
SliderTickRate:1

[Events]
//Background and Video events
0,0,"maxresdefault.jpg",0,0
//Break Periods
//Storyboard Layer 0 (Background)
//Storyboard Layer 1 (Fail)
//Storyboard Layer 2 (Pass)
//Storyboard Layer 3 (Foreground)
Sprite,Foreground,TopCentre,"Desperate-kun.png",320,240 M,0,132013,,540,355 S,0,132013,,0.4 F,1,132013,132356,0,1 R,1,132013,132356,0.2,0 F,1,153956,154298,1,0 R,1,153956,154298,0,0.2
Sprite,Foreground,TopCentre,"Mao.png",320,240 M,0,110054,,540,360 S,0,110054,,0.4 F,1,110054,110413,0,1 R,1,110054,110413,0.2,0 F,1,132013,132356,1,0 R,1,132013,132356,0,0.2
Sprite,Foreground,TopCentre,"-Bakari-.png",320,240 M,0,88127,,540,355 S,0,88127,,0.4 F,1,88127,88470,0,1 R,1,88127,88470,0.2,0 F,1,110054,110413,1,0 R,1,110054,110413,0,0.2
Sprite,Foreground,TopCentre,"Rikih_.png",320,240 M,0,66184,,540,355 S,0,66184,,0.4 F,1,66184,66527,0,1 R,1,66184,66527,0.2,0 F,1,88127,88470,1,0 R,1,88127,88470,0,0.2
Sprite,Foreground,TopCentre,"ProfessionalBox.png",320,240 M,0,44241,,540,355 S,0,44241,,0.4 F,1,44241,44584,0,1 R,1,44241,44584,0.2,0 F,1,66184,66527,1,0 R,1,66184,66527,0,0.2
//Storyboard Sound Samples
//Background Colour Transformations
3,100,163,162,255

[TimingPoints]
356,342.857142857143,4,1,1,20,1,0
44241,-133.333333333333,4,2,1,45,0,0
49727,-117.647058823529,4,2,1,45,0,0
55213,-111.111111111111,4,2,1,45,0,0
63270,-117.647058823529,4,2,1,50,0,0
66184,-100,4,1,1,55,0,0
88127,-80,4,1,1,50,0,1
132013,-100,4,1,1,45,0,0

[Colours]
Combo1 : 69,77,148
Combo2 : 245,185,118
Combo3 : 102,174,213
Combo4 : 219,62,45

[HitObjects]
120,112,44241,6,0,L|115:204,1,67.5000025749208,4|0,2:0|0:0,0:0:0:0:
216,164,44584,2,0,L|219:254,1,67.5000025749208,0|0,0:0|0:0,0:0:0:0:
324,222,44927,2,0,L|318:301,1,67.5000025749208,2|0,0:2|0:0,0:0:0:0:
314,381,45270,1,0,0:0:0:0:
423,292,45441,6,0,B|428:198|428:198|410:153,1,135.000005149842,4|0,0:2|0:0,0:0:0:0:
341,98,45956,2,0,P|376:72|427:66,1,67.5000025749208,0|0,0:0|0:0,0:0:0:0:
324,222,46298,1,0,0:0:0:0:
241,149,46470,2,0,L|237:73,1,67.5000025749208
384,222,46813,6,0,B|287:193|286:289|161:220,1,202.500007724762,4|0,0:2|0:0,0:0:0:0:
188,233,47498,1,0,0:0:0:0:
94,215,47670,2,0,L|82:139,1,67.5000025749208,2|0,0:2|0:0,0:0:0:0:
114,58,48013,1,0,0:0:0:0:
188,233,48184,6,0,L|196:389,1,135.000005149842,4|0,0:2|0:0,0:0:0:0:
108,304,48698,1,0,0:0:0:0:
273,347,48870,1,0,0:0:0:0:
464,212,49213,1,0,0:0:0:0:
284,64,49556,1,0,0:0:0:0:
283,64,49727,6,0,P|239:132|143:136,1,153.000002918243,4|0,0:2|0:0,0:0:0:0:
0,112,50241,1,0,0:0:0:0:
67,43,50413,2,0,P|95:113|42:200,1,153.000002918243,2|0,0:2|0:0,0:0:0:0:
0,284,50927,6,0,L|156:280,1,153.000002918243,4|0,0:2|0:0,0:0:0:0:
260,188,51441,2,0,L|172:192,1,76.5000014591217,0|0,0:2|0:0,0:0:0:0:
348,229,51784,2,0,P|355:179|333:124,2,76.5000014591217,2|0|0,0:2|0:0|0:0,0:0:0:0:
302,326,52298,1,0,0:0:0:0:
193,305,52470,6,0,P|164:185|184:72,1,229.500004377365,0|0,0:2|0:0,0:0:0:0:
248,19,53156,1,2,0:2:0:0:
95,73,53327,1,0,0:0:0:0:
255,114,53498,1,0,0:0:0:0:
157,0,53670,1,0,0:0:0:0:
164,147,53841,6,0,L|154:237,1,76.5000014591217,4|0,0:2|0:0,0:0:0:0:
253,211,54184,2,0,L|243:296,1,76.5000014591217,0|0,0:0|0:0,0:0:0:0:
339,341,54527,2,0,L|346:265,1,76.5000014591217,2|0,0:2|0:0,0:0:0:0:
164,147,54870,2,0,L|154:237,1,76.5000014591217,0|0,0:0|0:0,0:0:0:0:
244,287,55213,6,0,L|263:113,1,161.999995056153,4|0,0:2|0:0,0:0:0:0:
273,37,55727,1,0,0:0:0:0:
348,95,55898,2,0,P|388:106|457:86,2,80.9999975280763,2|0|0,0:2|0:0|0:0,0:0:0:0:
187,32,56413,6,0,P|147:21|78:41,1,80.9999975280763,4|0,0:2|0:0,0:0:0:0:
0,119,56756,2,0,P|40:130|109:110,1,80.9999975280763,0|0,0:0|0:0,0:0:0:0:
273,122,57098,2,0,P|233:111|164:131,1,80.9999975280763,0|0,0:0|0:0,0:0:0:0:
86,209,57441,2,0,P|126:220|195:200,1,80.9999975280763,2|0,0:0|0:2,0:0:0:0:
348,95,57784,2,0,B|402:131|384:205|384:205|323:262|356:329,1,242.999992584229,0|2,0:0|0:2,0:0:0:0:
441,284,58470,1,0,0:0:0:0:
256,267,58641,6,0,L|153:272,1,80.9999975280763,2|2,0:2|0:2,0:0:0:0:
15,313,58984,1,0,0:0:0:0:
115,363,59156,2,0,L|285:355,1,161.999995056153
182,155,59670,1,0,0:0:0:0:
182,155,59841,2,0,P|179:195|183:235,2,80.9999975280763,0|0|0,0:0|0:0|0:0,0:0:0:0:
275,114,60356,2,0,P|279:154|276:194,1,80.9999975280763,0|0,0:0|0:0,0:0:0:0:
203,48,60698,6,0,P|276:16|362:69,1,161.999995056153,4|0,0:2|0:0,0:0:0:0:
358,169,61213,1,0,0:0:0:0:
266,254,61384,2,0,L|254:344,1,80.9999975280763,2|0,0:2|0:0,0:0:0:0:
458,193,61898,5,4,0:2:0:0:
256,51,62241,1,0,0:0:0:0:
53,192,62584,1,0,0:0:0:0:
53,192,62756,1,0,0:0:0:0:
458,193,63098,1,0,0:0:0:0:
336,324,63270,6,0,L|329:171,1,153.000002918243,0|0,0:0|0:0,0:0:0:0:
424,264,63784,1,0,0:0:0:0:
244,284,63956,2,0,L|237:131,1,153.000002918243,0|0,0:0|0:0,0:0:0:0:
332,224,64470,1,0,0:0:0:0:
152,256,64641,2,0,L|145:103,1,153.000002918243,4|0,0:2|0:0,0:0:0:0:
230,35,65327,5,0,0:0:0:0:
237,132,65498,1,2,0:2:0:0:
38,40,65841,1,2,0:2:0:0:
38,40,66184,6,0,P|77:74|126:82,1,90,4|0,2:0|0:0,0:0:0:0:
86,171,66527,2,0,P|137:171|180:146,1,90,8|2,0:0|3:0,0:0:0:0:
215,76,66870,1,0,0:0:0:0:
289,26,67041,1,0,3:0:0:0:
372,60,67213,1,8,0:0:0:0:
359,148,67384,6,0,P|343:196|368:255,1,90,2|0,0:2|0:0,0:0:0:0:
436,200,67727,2,0,P|454:247|511:276,1,90,0|8,0:0|0:0,0:0:0:0:
441,348,68070,1,2,0:3:0:0:
351,337,68241,1,0,0:0:0:0:
290,269,68413,1,0,3:0:0:0:
370,166,68584,2,0,P|383:215|369:262,1,90,8|2,0:0|0:2,0:0:0:0:
233,341,68927,6,0,P|187:357|133:352,1,90,4|0,0:2|0:0,0:0:0:0:
20,275,69270,2,0,P|66:291|120:286,1,90,8|0,0:0|0:0,0:0:0:0:
132,41,69613,1,0,0:0:0:0:
77,112,69784,1,0,3:0:0:0:
77,202,69956,1,8,0:0:0:0:
66,96,70127,6,0,P|55:51|22:19,1,90,0|2,0:0|0:0,0:0:0:0:
87,222,70470,2,0,P|98:267|131:299,1,90,0|8,0:0|0:0,0:0:0:0:
201,349,70813,1,2,3:0:0:0:
266,289,70984,2,0,P|282:245|275:194,1,90,0|0,0:0|3:0,0:0:0:0:
353,45,71327,2,0,P|337:89|344:140,1,90,8|0,0:0|0:0,0:0:0:0:
385,301,71670,6,0,L|386:210,1,90,4|0,0:0|0:0,0:0:0:0:
441,349,72013,2,0,P|390:375|347:365,1,90,8|2,0:0|3:0,0:0:0:0:
294,308,72356,1,0,0:0:0:0:
257,225,72527,1,0,3:0:0:0:
297,144,72698,1,8,0:0:0:0:
465,89,72870,6,0,P|428:114|384:119,1,90,2|2,0:2|0:2,0:0:0:0:
324,3,73213,2,0,P|377:13|405:44,1,90,0|8,0:0|0:0,0:0:0:0:
447,194,73556,1,2,3:0:0:0:
341,316,73727,2,0,L|242:300,1,90,0|0,0:0|3:0,0:0:0:0:
109,342,74070,2,0,L|208:358,1,90,8|2,0:0|0:2,0:0:0:0:
21,189,74413,6,0,B|13:250|63:283|63:283|81:269|98:264|118:264|136:270|153:279,1,180,2|8,0:0|0:0,0:0:0:0:
202,215,74927,1,2,3:0:0:0:
176,128,75098,2,0,P|115:119|72:135,1,90,0|0,0:0|3:0,0:0:0:0:
17,70,75441,1,8,0:0:0:0:
98,30,75613,6,0,P|151:33|187:57,1,90,2|2,0:2|0:2,0:0:0:0:
351,83,75956,2,0,P|298:80|262:56,1,90,0|8,0:0|0:0,0:0:0:0:
420,29,76298,1,2,3:0:0:0:
479,97,76470,2,0,P|490:144|481:201,1,90,0|0,0:0|3:0,0:0:0:0:
399,158,76813,2,0,P|385:204|348:249,1,90,8|2,0:0|0:2,0:0:0:0:
287,290,77156,5,4,0:2:0:0:
198,306,77327,1,0,0:0:0:0:
112,279,77498,2,0,P|79:248|66:189,1,90,8|2,0:0|3:0,0:0:0:0:
35,39,77841,2,0,P|68:70|81:129,1,90,0|0,0:0|3:0,0:0:0:0:
18,301,78184,1,8,0:0:0:0:
150,205,78356,6,0,P|200:196|251:205,1,90,2|2,0:2|0:2,0:0:0:0:
391,150,78698,2,0,P|341:159|290:150,1,90,0|8,0:0|0:0,0:0:0:0:
237,91,79041,1,2,3:0:0:0:
294,21,79213,1,0,0:0:0:0:
466,103,79384,1,0,3:0:0:0:
311,95,79556,1,8,0:0:0:0:
490,32,79727,1,2,0:2:0:0:
328,171,79898,6,0,P|277:177|229:171,1,90,2|0,0:2|0:0,0:0:0:0:
186,99,80241,1,8,0:0:0:0:
275,90,80413,1,2,3:0:0:0:
230,185,80584,2,0,P|192:221|142:233,1,90,0|0,0:0|3:0,0:0:0:0:
75,192,80927,1,8,0:0:0:0:
34,112,81098,6,0,P|42:62|32:18,2,90,2|2|0,0:2|0:2|0:0,0:0:0:0:
75,192,81613,1,8,0:0:0:0:
234,218,81784,1,2,3:0:0:0:
84,105,81956,1,0,0:0:0:0:
148,243,82127,1,0,3:0:0:0:
167,55,82298,2,0,P|210:37|263:35,1,90,8|2,0:0|0:2,0:0:0:0:
341,51,82641,5,4,0:2:0:0:
286,123,82813,1,0,0:0:0:0:
430,53,82984,2,0,P|472:74|496:126,1,90,8|2,0:0|3:0,0:0:0:0:
477,198,83327,1,0,0:0:0:0:
415,137,83498,1,0,3:0:0:0:
447,279,83670,1,8,0:0:0:0:
286,335,83841,6,0,P|322:310|366:307,1,90,2|2,0:2|0:2,0:0:0:0:
253,263,84184,2,0,P|215:237|198:177,1,90,0|8,0:0|0:0,0:0:0:0:
219,109,84527,1,2,3:0:0:0:
288,52,84698,2,0,P|333:42|378:49,1,90,0|0,0:0|3:0,0:0:0:0:
465,134,85041,2,0,P|422:144|378:138,1,90,8|0,0:0|3:0,0:0:0:0:
289,52,85384,5,0,0:0:0:0:
115,42,85556,1,0,0:0:0:0:
203,24,85727,1,0,0:0:0:0:
72,120,85898,1,0,0:0:0:0:
152,293,86070,5,0,0:0:0:0:
162,119,86241,1,0,0:0:0:0:
230,336,86413,1,0,0:0:0:0:
134,205,86584,1,0,0:0:0:0:
320,313,86756,5,0,0:0:0:0:
337,316,86841,1,0,0:0:0:0:
355,316,86927,1,0,0:0:0:0:
372,314,87013,1,0,0:0:0:0:
402,296,87098,5,0,0:0:0:0:
427,270,87184,1,0,0:0:0:0:
440,236,87270,1,0,0:0:0:0:
443,200,87356,1,0,0:0:0:0:
426,149,87441,5,0,0:0:0:0:
391,107,87527,1,0,0:0:0:0:
339,89,87613,1,0,0:0:0:0:
286,100,87698,1,0,0:0:0:0:
244,136,87784,1,8,0:0:0:0:
128,240,88127,6,0,P|92:220|60:148,1,112.5,4|0,0:2|0:0,0:0:0:0:
128,240,88470,2,0,P|128:281|82:344,1,112.5,8|0,0:0|0:0,0:0:0:0:
128,240,88813,2,0,P|163:218|241:227,1,112.5,2|0,0:2|3:0,0:0:0:0:
196,328,89156,1,10,0:2:0:0:
92,168,89327,1,2,0:2:0:0:
240,40,89498,6,0,L|352:48,1,112.5,2|0,0:2|0:0,0:0:0:0:
464,24,89841,2,0,P|468:76|436:128,1,112.5,8|2,0:0|0:3,0:0:0:0:
256,200,90184,1,2,0:2:0:0:
308,300,90356,1,0,0:0:0:0:
168,204,90527,2,0,P|180:152|228:112,1,112.5,8|2,0:0|0:2,0:0:0:0:
200,308,90870,6,0,P|156:316|96:288,1,112.5,4|0,0:0|0:0,0:0:0:0:
64,120,91213,1,8,0:0:0:0:
132,32,91384,1,0,0:0:0:0:
260,136,91556,2,0,P|308:148|368:128,1,112.5,2|0,0:2|3:0,0:0:0:0:
480,24,91898,1,8,0:0:0:0:
512,172,92070,1,2,0:2:0:0:
456,268,92241,6,0,P|412:228|396:164,1,112.5,4|0,0:0|0:0,0:0:0:0:
284,192,92584,2,0,P|271:250|223:295,1,112.5,8|2,0:0|0:3,0:0:0:0:
312,372,92927,2,0,P|368:353|432:372,1,112.5,2|0,0:2|0:0,0:0:0:0:
356,276,93270,1,8,0:0:0:0:
236,384,93441,1,2,0:2:0:0:
120,280,93613,6,0,L|136:152,1,112.5,4|0,0:0|0:0,0:0:0:0:
244,36,93956,2,0,L|256:148,1,112.5,8|0,0:0|0:0,0:0:0:0:
327,235,94298,1,0,0:0:0:0:
452,156,94470,1,0,0:0:0:0:
368,304,94641,2,0,P|308:312|256:280,1,112.5,8|2,0:0|0:2,0:0:0:0:
248,156,94984,6,0,L|264:24,1,112.5,4|0,0:0|0:0,0:0:0:0:
156,128,95327,1,8,0:0:0:0:
328,236,95498,1,2,0:3:0:0:
168,308,95670,1,2,0:2:0:0:
12,188,95841,1,0,0:0:0:0:
116,148,96013,2,0,P|125:203|100:253,1,112.5,8|0,0:0|0:0,0:0:0:0:
32,80,96356,6,0,P|76:48|140:48,1,112.5,4|0,0:0|0:0,0:0:0:0:
264,128,96698,1,8,0:0:0:0:
248,16,96870,1,0,0:0:0:0:
336,208,97041,1,4,0:2:0:0:
404,120,97213,1,0,0:0:0:0:
356,308,97384,2,0,P|301:304|257:271,1,112.5,8|2,0:0|0:2,0:0:0:0:
124,152,97727,6,0,L|108:276,1,112.5,4|0,0:0|0:0,0:0:0:0:
228,200,98070,2,0,L|216:84,1,112.5,8|2,0:0|0:3,0:0:0:0:
300,12,98413,2,0,L|420:28,1,112.5,0|0,0:0|0:0,0:0:0:0:
372,184,98756,2,0,L|464:252,1,112.5,8|0,0:0|0:0,0:0:0:0:
272,220,99098,6,0,P|272:160|304:108,1,112.5,4|0,0:0|0:0,0:0:0:0:
167,7,99441,2,0,P|216:33|272:32,1,112.5,8|0,0:0|0:0,0:0:0:0:
88,48,99784,2,0,P|88:108|56:160,1,112.5,2|0,0:2|3:0,0:0:0:0:
192,260,100127,2,0,P|143:234|88:236,1,112.5,8|0,0:0|0:0,0:0:0:0:
192,144,100470,5,2,0:2:0:0:
300,84,100641,1,0,0:0:0:0:
368,188,100813,2,0,P|416:184|460:136,2,112.5,8|2|2,0:0|0:3|0:2,0:0:0:0:
232,56,101327,1,0,0:0:0:0:
268,160,101498,2,0,P|244:204|184:224,1,112.5,8|0,0:0|0:0,0:0:0:0:
0,228,101841,6,0,L|40:336,1,112.5,4|0,0:0|0:0,0:0:0:0:
56,116,102184,2,0,L|90:223,1,112.5,8|0,0:0|0:0,0:0:0:0:
120,8,102527,2,0,L|154:115,1,112.5,0|0,0:0|3:0,0:0:0:0:
164,228,102870,1,8,0:0:0:0:
232,140,103041,1,0,0:0:0:0:
200,312,103213,6,0,P|148:320|92:292,1,112.5,4|0,0:0|0:0,0:0:0:0:
96,128,103556,1,8,0:0:0:0:
164,228,103727,1,2,0:3:0:0:
276,232,103898,1,2,0:2:0:0:
372,176,104070,1,0,0:0:0:0:
460,240,104241,2,0,L|488:352,1,112.5,8|0,0:0|0:0,0:0:0:0:
364,232,104584,6,0,P|376:184|428:136,1,112.5,4|0,0:0|0:0,0:0:0:0:
512,86,104927,2,0,P|464:58|432:6,1,112.5,8|0,0:0|0:0,0:0:0:0:
328,116,105270,1,2,0:2:0:0:
220,92,105441,1,0,3:0:0:0:
112,64,105613,2,0,L|124:192,1,112.5,8|0,0:0|0:0,0:0:0:0:
24,332,105956,6,0,L|36:216,1,112.5,4|0,0:0|0:0,0:0:0:0:
132,272,106298,2,0,B|188:256|188:256|220:204,1,112.5,8|2,0:0|0:3,0:0:0:0:
220,92,106641,2,0,B|164:108|164:108|132:160,1,112.5,2|0,0:2|0:0,0:0:0:0:
24,332,106984,1,8,0:0:0:0:
124,384,107156,1,0,0:0:0:0:
208,232,107327,6,0,P|176:196|108:188,1,112.5,4|0,0:0|0:0,0:0:0:0:
16,240,107670,1,8,0:0:0:0:
28,128,107841,1,0,0:0:0:0:
32,16,108013,2,0,P|88:36|148:32,1,112.5,2|0,0:2|3:0,0:0:0:0:
304,16,108356,2,0,P|360:12|420:36,1,112.5,8|2,0:0|0:2,0:0:0:0:
344,132,108698,6,0,P|288:136|228:112,1,112.5,4|0,0:0|0:0,0:0:0:0:
160,36,109041,1,8,0:0:0:0:
68,104,109213,1,2,0:3:0:0:
108,208,109384,2,0,P|44:212|-4:188,1,112.5,2|0,0:2|0:0,0:0:0:0:
168,128,109727,2,0,P|192:168|192:240,1,112.5,8|0,0:0|0:0,0:0:0:0:
108,308,110070,5,4,0:0:0:0:
256,323,110241,1,0,0:0:0:0:
412,227,110413,2,0,P|429:165|413:102,1,112.5,8|0,0:0|0:0,0:0:0:0:
349,63,110756,1,2,0:2:0:0:
169,73,110927,1,0,3:0:0:0:
269,222,111098,1,8,0:0:0:0:
256,40,111270,6,0,B|160:36|160:36|128:52|128:52|24:48,1,225,2|0,0:2|0:0,0:0:0:0:
111,145,111784,2,0,P|122:185|95:253,1,112.5,8|2,0:0|0:3,0:0:0:0:
31,189,112127,1,2,0:2:0:0:
207,198,112298,1,0,0:0:0:0:
207,198,112470,2,0,L|329:206,1,112.5,8|2,0:0|0:2,0:0:0:0:
447,284,112813,6,0,P|410:236|414:174,1,112.5,2|0,0:2|0:0,0:0:0:0:
318,205,113156,2,0,P|322:150|360:109,1,112.5,8|0,0:0|0:0,0:0:0:0:
283,57,113498,2,0,P|331:20|392:24,1,112.5,2|0,0:0|3:0,0:0:0:0:
243,128,113841,1,8,0:0:0:0:
65,88,114013,1,2,0:2:0:0:
118,259,114184,6,0,B|161:290|161:290|240:280,1,112.5,4|0,0:0|0:0,0:0:0:0:
307,261,114527,1,8,0:0:0:0:
127,171,114698,1,2,0:3:0:0:
127,171,114870,2,0,L|9:166,1,112.5,2|0,0:2|0:0,0:0:0:0:
203,212,115213,1,8,0:0:0:0:
315,71,115384,1,0,0:0:0:0:
315,71,115470,1,0,0:0:0:0:
315,71,115556,6,0,P|277:43|207:41,1,112.5,0|0,0:0|0:0,0:0:0:0:
203,212,115898,2,0,B|295:220|295:220|319:232|319:232|431:240,1,225,8|2,0:0|0:2,0:0:0:0:
411,53,116413,1,0,3:0:0:0:
411,53,116584,2,0,P|399:77|415:173,1,112.5,8|2,0:0|0:2,0:0:0:0:
312,337,116927,6,0,P|331:291|308:217,1,112.5,4|0,0:0|0:0,0:0:0:0:
140,160,117270,2,0,P|142:263|245:278,1,225,8|2,0:0|0:2,0:0:0:0:
202,110,117784,1,0,0:0:0:0:
202,110,117956,2,0,P|158:84|95:93,1,112.5,8|2,0:0|0:2,0:0:0:0:
255,179,118298,5,4,0:0:0:0:
391,80,118470,1,0,0:0:0:0:
220,26,118641,1,8,0:0:0:0:
344,156,118813,1,0,0:0:0:0:
434,8,118984,1,2,0:0:0:0:
283,99,119156,1,0,3:0:0:0:
401,219,119327,1,8,0:0:0:0:
329,29,119498,6,0,B|245:19|245:19|202:32|202:32|96:16,1,225,2|0,0:2|0:0,0:0:0:0:
16,174,120013,2,0,P|75:156|193:250,1,225,8|2,0:0|0:2,0:0:0:0:
371,327,120527,1,0,0:0:0:0:
371,327,120698,2,0,L|401:219,1,112.5,8|0,0:0|0:0,0:0:0:0:
263,101,121041,6,0,P|254:160|285:216,1,112.5,4|0,0:0|0:0,0:0:0:0:
340,37,121384,2,0,B|216:80|252:0|116:32,1,225,8|2,0:0|0:2,0:0:0:0:
64,101,121898,1,0,3:0:0:0:
158,254,122070,1,8,0:0:0:0:
5,158,122241,6,0,B|84:144|84:144|119:153|119:153|243:129,1,225,2|0,0:2|0:0,0:0:0:0:
417,204,122756,2,0,L|298:189,1,112.5,8|2,0:0|0:3,0:0:0:0:
231,223,123098,1,2,0:2:0:0:
399,287,123270,1,0,0:0:0:0:
399,287,123441,2,0,P|421:289|494:232,1,112.5,8|2,0:0|0:2,0:0:0:0:
366,103,123784,5,4,0:0:0:0:
314,271,123956,1,0,0:0:0:0:
473,136,124127,1,8,0:0:0:0:
292,158,124298,1,0,0:0:0:0:
438,47,124470,1,2,0:0:0:0:
374,202,124641,1,0,3:0:0:0:
214,119,124813,1,8,0:0:0:0:
234,297,124984,6,0,P|258:335|400:277,1,225,2|0,0:2|0:0,0:0:0:0:
314,271,125498,2,0,B|180:232|216:300|88:256,1,225,8|2,0:0|0:2,0:0:0:0:
32,80,126013,1,0,0:0:0:0:
32,80,126184,2,0,L|40:204,1,112.5,8|0,0:0|0:0,0:0:0:0:
136,80,126527,6,0,L|185:193,1,112.5,4|0,0:0|0:0,0:0:0:0:
240,48,126870,2,0,P|336:104|444:74,1,225,8|2,0:0|0:2,0:0:0:0:
488,250,127384,1,0,3:0:0:0:
488,250,127556,2,0,L|362:236,1,112.5,8|2,0:0|0:2,0:0:0:0:
216,328,127898,6,0,L|342:314,1,112.5,0|0,0:0|0:0,0:0:0:0:
163,260,128241,2,0,L|37:246,1,112.5,8|2,0:0|0:3,0:0:0:0:
25,335,128584,1,2,0:2:0:0:
216,329,128756,1,0,0:0:0:0:
216,329,128927,2,0,P|245:283|243:224,1,112.5,8|2,0:0|0:2,0:0:0:0:
138,86,129270,5,4,0:0:0:0:
300,161,129441,1,0,0:0:0:0:
189,18,129613,1,8,0:0:0:0:
86,158,129784,1,0,0:0:0:0:
248,86,129956,1,2,0:0:0:0:
163,260,130127,1,0,3:0:0:0:
52,79,130298,1,8,0:0:0:0:
208,184,130470,6,0,P|244:231|136:346,1,225,2|0,0:2|0:0,0:0:0:0:
87,299,130984,1,8,0:0:0:0:
141,126,131156,1,2,0:3:0:0:
163,260,131327,1,2,0:2:0:0:
163,260,131413,1,0,0:0:0:0:
163,260,131498,1,0,0:0:0:0:
14,340,131670,2,0,L|5:210,1,112.5,8|2,0:0|0:2,0:0:0:0:
18,87,132013,6,0,B|111:80|96:138|188:129,1,180,4|8,0:0|0:0,0:0:0:0:
301,71,132527,1,0,0:0:0:0:
426,69,132698,1,0,0:0:0:0:
474,186,132870,2,0,P|472:236|449:274,1,90,0|8,3:0|0:0,0:0:0:0:
356,352,133213,1,0,0:0:0:0:
256,278,133384,6,0,P|163:270|86:318,1,180,0|8,0:0|0:0,0:0:0:0:
90,312,133898,2,0,L|87:220,1,90,2|2,3:0|0:2,0:0:0:0:
153,136,134241,2,0,L|170:44,1,90,0|8,3:0|0:0,0:0:0:0:
307,37,134584,6,0,P|257:114|283:208,1,180,0|0,0:0|0:0,0:0:0:0:
364,135,135098,2,0,L|456:128,1,90,8|0,0:0|0:0,0:0:0:0:
497,227,135441,1,2,0:2:0:0:
424,307,135613,2,0,L|334:313,2,90,0|8|0,3:0|0:0|0:0,0:0:0:0:
227,265,136127,6,0,B|134:258|149:316|57:307,1,180,2|8,0:0|0:0,0:0:0:0:
76,200,136641,1,2,3:0:0:0:
143,287,136813,1,0,0:0:0:0:
150,84,136984,1,0,3:0:0:0:
183,188,137156,1,8,0:0:0:0:
257,0,137327,1,0,0:0:0:0:
255,108,137498,6,0,P|278:174|390:184,1,180,4|8,0:0|0:0,0:0:0:0:
462,124,138013,1,2,0:2:0:0:
417,293,138184,2,0,L|396:382,1,90,0|0,0:0|3:0,0:0:0:0:
235,232,138527,2,0,L|255:144,1,90,8|0,0:0|0:0,0:0:0:0:
313,310,138870,6,0,P|256:341|150:299,1,180,2|8,0:2|0:0,0:0:0:0:
107,205,139384,1,2,3:0:0:0:
107,205,139470,1,0,0:0:0:0:
107,205,139556,1,0,0:0:0:0:
235,232,139727,1,0,3:0:0:0:
194,107,139898,2,0,P|187:58|201:18,1,90,8|0,0:0|0:0,0:0:0:0:
292,76,140241,6,0,B|315:120|361:130|361:130|457:126,1,180,4|8,0:0|0:0,0:0:0:0:
223,312,140927,2,0,L|128:315,1,90,0|0,0:0|3:0,0:0:0:0:
42,253,141270,1,8,0:0:0:0:
53,145,141441,1,0,0:0:0:0:
130,69,141613,6,0,L|219:59,1,90,0|0,0:0|0:0,0:0:0:0:
186,161,141956,2,0,L|275:151,1,90,8|2,0:0|3:0,0:0:0:0:
240,253,142298,1,0,0:0:0:0:
382,138,142470,2,0,P|380:183|353:224,1,90,0|8,3:0|0:0,0:0:0:0:
404,101,142984,6,0,P|404:185|351:268,2,180,4|8|0,0:0|0:0|0:0,0:0:0:0:
331,20,143841,1,0,3:0:0:0:
240,79,144013,2,0,P|194:87|127:70,1,90,8|2,0:0|3:0,0:0:0:0:
34,33,144356,6,0,P|21:83|106:195,1,180,2|8,0:0|0:0,0:0:0:0:
151,80,144870,1,0,0:0:0:0:
151,80,145213,1,0,0:0:0:0:
83,186,145384,2,0,P|77:241|93:294,1,90,8|0,0:0|0:0,0:0:0:0:
183,231,145727,6,0,B|276:237|232:313|336:321,1,180,4|8,0:0|0:0,0:0:0:0:
434,294,146241,1,2,3:0:0:0:
477,194,146413,1,0,0:0:0:0:
434,90,146584,2,0,P|393:61|354:60,1,90,0|8,3:0|0:0,0:0:0:0:
257,140,146927,6,0,B|172:171|172:171|61:155,1,180,0|0,0:0|0:0,0:0:0:0:
160,68,147441,1,8,0:0:0:0:
9,123,147613,2,0,P|25:213|106:234,1,180
160,68,148127,1,8,0:0:0:0:
232,190,148298,1,0,0:0:0:0:
367,140,148470,6,0,P|421:145|498:243,1,180,4|8,0:0|0:0,0:0:0:0:
375,269,148984,1,2,3:0:0:0:
375,269,149156,1,0,0:0:0:0:
255,230,149327,2,0,L|255:338,1,90,0|8,3:0|0:0,0:0:0:0:
137,269,149670,6,0,L|71:199,1,90,0|0,0:0|0:0,0:0:0:0:
70,45,150013,2,0,L|132:111,1,90,0|8,0:0|0:0,0:0:0:0:
256,56,150356,2,0,B|290:140|220:148|256:231,1,180,0|0,0:0|3:0,0:0:0:0:
255,230,150870,1,8,0:0:0:0:
397,91,151041,6,0,P|411:188|484:229,1,180,0|0,0:0|0:0,0:0:0:0:
499,121,151556,1,8,0:0:0:0:
454,334,151727,2,0,P|379:363|277:323,1,180,2|0,3:0|3:0,0:0:0:0:
255,140,152241,2,0,L|255:230,1,90,8|0,0:0|0:0,0:0:0:0:
256,192,152584,12,0,153613,0:0:0:0:
256,192,153956,5,4,0:0:0:0:
