osu file format v14

[General]
AudioFilename: Sub.Sound - Feel The Buzz [NoCopyrightSounds Release].mp3
AudioLeadIn: 0
PreviewTime: -1
Countdown: 0
SampleSet: Normal
StackLeniency: 0.7
Mode: 0
LetterboxInBreaks: 1
WidescreenStoryboard: 0

[Editor]
Bookmarks: 73113,82768,104837,150354,160009
DistanceSpacing: 1
BeatDivisor: 8
GridSize: 8
TimelineZoom: 1.5

[Metadata]
Title:Feel The Buzz
TitleUnicode:Feel The Buzz
Artist:Sub.Sound
ArtistUnicode:Sub.Sound
Creator:Astrid
Version:In Your Ears
Source:
Tags:DnB feel the buzz sub sound
BeatmapID:710185
BeatmapSetID:318998

[Difficulty]
HPDrainRate:7
CircleSize:4.1
OverallDifficulty:7
ApproachRate:9.1
SliderMultiplier:2.3
SliderTickRate:1

[Events]
//Background and Video events
0,0,"未标题-1123.jpg",0,0
//Break Periods
2,62278,72529
//Storyboard Layer 0 (Background)
//Storyboard Layer 1 (Fail)
//Storyboard Layer 2 (Pass)
//Storyboard Layer 3 (Foreground)
//Storyboard Sound Samples

[TimingPoints]
5527,689.655172413793,4,1,0,100,1,0
17854,-57.1428571428571,4,1,0,100,0,0
17941,-57.1428571428571,4,1,0,100,0,1
48113,-50,4,1,0,100,0,1
62078,-57.1428571428571,4,1,0,100,0,0

[Colours]
Combo1 : 255,255,255
Combo2 : 0,255,255

[HitObjects]
176,120,5527,5,0,0:0:0:0:
432,144,5871,5,0,0:0:0:0:
200,232,6216,5,0,0:0:0:0:
384,256,6561,5,0,0:0:0:0:
384,256,6906,6,0,B|328:320|312:320|312:320|256:264|256:264|128:312|53:189,1,402.5
112,80,8803,1,0,0:0:0:0:
224,120,8975,1,0,0:0:0:0:
328,160,9147,1,0,0:0:0:0:
328,160,9492,1,0,0:0:0:0:
240,240,9665,1,0,0:0:0:0:
240,240,10182,5,0,0:0:0:0:
328,160,10354,1,0,0:0:0:0:
416,80,10526,1,0,0:0:0:0:
416,80,10872,1,0,0:0:0:0:
464,184,11044,1,0,0:0:0:0:
96,64,11734,6,0,P|80:112|120:176,1,115
232,248,12423,1,0,0:0:0:0:
397,187,12768,1,0,0:0:0:0:
298,334,13113,1,0,0:0:0:0:
292,156,13458,1,0,0:0:0:0:
401,296,13803,1,0,0:0:0:0:
232,248,14147,1,0,0:0:0:0:
397,187,14492,1,0,0:0:0:0:
298,334,14837,1,0,0:0:0:0:
292,156,15182,5,0,0:0:0:0:
401,296,15354,1,0,0:0:0:0:
232,248,15527,1,0,0:0:0:0:
397,187,15699,1,0,0:0:0:0:
298,334,15872,1,0,0:0:0:0:
292,156,16044,1,0,0:0:0:0:
401,296,16216,1,0,0:0:0:0:
232,248,16389,1,0,0:0:0:0:
397,187,16561,5,0,0:0:0:0:
402,158,16647,1,0,0:0:0:0:
400,130,16733,1,0,0:0:0:0:
390,103,16819,1,0,0:0:0:0:
374,79,16905,1,0,0:0:0:0:
352,61,16992,1,0,0:0:0:0:
327,48,17078,1,0,0:0:0:0:
298,43,17164,1,0,0:0:0:0:
270,46,17250,1,0,0:0:0:0:
184,120,17423,1,0,0:0:0:0:
104,48,17596,1,0,0:0:0:0:
184,128,17768,1,0,0:0:0:0:
184,136,17940,6,0,P|160:240|240:320,1,201.25000191927
448,80,18802,1,0,0:0:0:0:
256,216,18975,1,0,0:0:0:0:
104,80,19320,2,0,P|192:40|272:128,1,201.25000191927
440,344,20182,1,0,0:0:0:0:
352,168,20354,1,0,0:0:0:0:
96,312,20699,5,0,0:0:0:0:
144,120,21044,1,0,0:0:0:0:
384,296,21561,2,0,B|408:232|408:232|464:184|424:104,1,201.25000191927
352,168,22078,1,0,0:0:0:0:
88,312,22423,1,0,0:0:0:0:
176,126,22940,1,0,0:0:0:0:
176,126,23113,1,0,0:0:0:0:
176,126,23285,1,0,0:0:0:0:
176,126,23458,2,0,P|256:102|192:30,1,201.25000191927
205,28,24320,1,0,0:0:0:0:
384,118,24492,1,0,0:0:0:0:
208,222,24837,2,0,B|240:286|320:270|320:270|400:302,1,201.25000191927
205,28,25699,1,0,0:0:0:0:
208,222,25871,1,0,0:0:0:0:
424,104,26216,6,0,P|456:160|384:256,1,176.093751679361
384,280,26561,2,0,B|312:240|256:280|256:280|200:256,1,176.093751679361
192,240,26906,2,0,B|160:192|160:192|24:192,1,176.093751679361
56,160,27251,2,0,P|112:88|232:72,1,201.25000191927
368,56,27768,1,0,0:0:0:0:
296,192,27940,1,0,0:0:0:0:
439,154,28113,1,0,0:0:0:0:
224,64,28285,5,0,0:0:0:0:
387,244,28458,1,0,0:0:0:0:
296,192,28630,1,0,0:0:0:0:
348,102,28802,1,0,0:0:0:0:
348,102,28975,2,0,P|303:74|159:90,1,201.25000191927
184,208,29492,1,0,0:0:0:0:
415,34,29837,1,0,0:0:0:0:
112,264,30182,1,0,0:0:0:0:
184,208,30354,6,0,L|264:272,2,100.625000959635
128,144,30871,1,0,0:0:0:0:
224,104,31044,1,0,0:0:0:0:
320,120,31216,1,0,0:0:0:0:
344,160,31302,1,0,0:0:0:0:
336,208,31389,1,0,0:0:0:0:
288,296,31560,1,0,0:0:0:0:
384,280,31733,1,0,0:0:0:0:
456,208,31906,1,0,0:0:0:0:
464,160,31992,1,0,0:0:0:0:
440,120,32078,1,0,0:0:0:0:
344,32,32251,5,0,0:0:0:0:
224,104,32423,1,0,0:0:0:0:
96,72,32595,2,0,P|96:152|200:224,1,201.25000191927
296,160,33113,2,0,B|376:200|376:200|352:256|416:320,1,201.25000191927
112,120,33802,6,0,P|80:184|96:248,1,100.625000959635
208,184,34147,2,0,P|213:233|243:273,1,100.625000959635
320,168,34492,2,0,B|344:232|344:232|384:192|384:192|424:296,1,201.25000191927
248,312,35009,2,0,P|160:280|96:192,1,201.25000191927
248,112,35526,2,0,P|376:160|416:232,1,201.25000191927
248,264,36044,1,0,0:0:0:0:
80,240,36216,1,0,0:0:0:0:
136,80,36389,1,0,0:0:0:0:
304,56,36561,6,0,B|336:152|336:152|392:112|392:112|464:240|368:320,1,377.34375359863
344,312,37251,2,0,P|280:304|192:232,1,176.093751679361
216,200,37595,2,0,B|232:136|192:104|192:104|104:88,1,176.093751679361
88,120,37940,2,0,B|88:192|88:192|48:224|48:224|88:280,1,176.093751679361
120,264,38285,2,0,B|176:248|224:288|224:288|304:264,1,176.093751679361
304,232,38630,2,0,P|320:152|424:112,1,201.25000191927
312,240,39147,1,0,0:0:0:0:
467,290,39319,1,0,0:0:0:0:
312,340,39492,1,0,0:0:0:0:
408,209,39665,1,0,0:0:0:0:
408,372,39837,1,0,0:0:0:0:
312,240,40009,6,0,P|288:160|272:248,1,201.25000191927
88,288,40526,1,0,0:0:0:0:
184,64,40871,1,0,0:0:0:0:
264,48,41044,1,0,0:0:0:0:
280,128,41216,1,0,0:0:0:0:
200,144,41389,1,0,0:0:0:0:
208,320,41733,5,0,0:0:0:0:
304,304,41906,2,0,B|400:272|376:216|376:216|488:184|488:184|464:96|352:80,1,402.500003838539
184,112,42768,1,0,0:0:0:0:
376,176,43113,1,0,0:0:0:0:
40,312,43630,1,0,0:0:0:0:
136,280,43802,1,0,0:0:0:0:
384,272,44147,2,0,P|392:200|360:160,1,100.625000959635
304,112,44492,1,0,0:0:0:0:
200,104,44664,1,0,0:0:0:0:
184,208,44837,1,0,0:0:0:0:
288,216,45009,1,0,0:0:0:0:
304,120,45182,5,0,0:0:0:0:
200,104,45354,1,0,0:0:0:0:
128,32,45526,1,0,0:0:0:0:
88,128,45699,1,0,0:0:0:0:
48,160,45786,1,0,0:0:0:0:
56,216,45872,1,0,0:0:0:0:
152,248,46044,1,0,0:0:0:0:
344,320,46389,1,0,0:0:0:0:
312,120,46733,5,0,0:0:0:0:
448,192,46906,1,0,0:0:0:0:
296,208,47078,1,0,0:0:0:0:
408,104,47251,1,0,0:0:0:0:
376,248,47423,1,0,0:0:0:0:
160,104,47768,1,0,0:0:0:0:
64,280,47940,1,0,0:0:0:0:
288,320,48285,2,0,P|272:224|336:96,1,230
40,88,48975,1,0,0:0:0:0:
296,32,49320,1,0,0:0:0:0:
104,208,49664,2,0,P|176:272|312:216,1,230
408,64,50354,6,0,L|320:88,1,57.5
344,136,50526,2,0,L|304:200,1,57.5
264,216,50699,2,0,L|184:224,1,57.5
224,272,50871,2,0,L|176:328,1,57.5
160,312,51044,2,0,L|56:240,2,115
320,296,51561,1,0,0:0:0:0:
416,184,51733,1,0,0:0:0:0:
344,56,51906,1,0,0:0:0:0:
312,64,51992,1,0,0:0:0:0:
296,88,52078,1,0,0:0:0:0:
224,224,52251,5,0,0:0:0:0:
112,112,52422,1,0,0:0:0:0:
176,200,52595,1,0,0:0:0:0:
64,88,52767,1,0,0:0:0:0:
128,176,52940,1,0,0:0:0:0:
32,256,53113,1,0,0:0:0:0:
160,336,53285,2,0,B|216:368|272:320|272:320|272:272|272:272|352:264,1,230
392,152,53802,5,0,0:0:0:0:
280,72,53975,1,0,0:0:0:0:
232,96,54061,1,0,0:0:0:0:
208,144,54147,1,0,0:0:0:0:
136,224,54320,1,0,0:0:0:0:
373,250,54492,2,0,P|328:284|272:288,1,115
472,152,55009,6,0,P|428:75|366:65,1,115
368,168,55354,2,0,P|295:117|235:133,1,115
272,216,55699,2,0,P|185:200|137:241,1,115
208,304,56044,2,0,P|122:326|96:383,1,115
72,232,56389,1,0,0:0:0:0:
152,144,56561,1,0,0:0:0:0:
368,72,56906,1,0,0:0:0:0:
136,328,57423,1,0,0:0:0:0:
240,272,57595,1,0,0:0:0:0:
432,144,57940,1,0,0:0:0:0:
200,160,58285,1,0,0:0:0:0:
440,304,58802,1,0,0:0:0:0:
360,224,58975,1,0,0:0:0:0:
256,192,59320,12,0,61906,0:0:0:0:
256,192,62078,5,4,0:0:0:0:
256,192,73113,12,0,81389,0:0:0:0:
336,264,82768,5,0,0:0:0:0:
80,240,83113,5,0,0:0:0:0:
312,152,83458,5,0,0:0:0:0:
136,136,83802,5,0,0:0:0:0:
192,304,84147,6,0,L|272:232,2,100.625000959635
168,208,84664,2,0,L|136:96,2,100.625000959635
232,128,85182,2,0,L|352:56,1,100.625000959635
336,176,85526,2,0,L|416:272,2,100.625000959635
440,160,86044,2,0,L|464:48,2,100.625000959635
408,256,86561,2,0,L|360:368,1,100.625000959635
296,280,86906,6,0,L|192:312,2,100.625000959635
216,216,87423,2,0,L|104:144,2,100.625000959635
232,112,87940,2,0,L|304:16,1,100.625000959635
192,32,88285,2,0,L|112:136,2,100.625000959635
88,40,88802,2,0,L|-32:16,2,100.625000959635
24,120,89320,2,0,L|128:216,1,100.625000959635
0,224,89664,6,0,L|-40:336,2,100.625000959635
72,296,90182,2,0,L|176:344,2,100.625000959635
152,240,90699,2,0,L|200:136,1,100.625000959635
264,224,91044,1,0,0:0:0:0:
376,176,91216,1,0,0:0:0:0:
360,296,91389,1,0,0:0:0:0:
472,248,91561,1,0,0:0:0:0:
488,128,91733,1,0,0:0:0:0:
392,56,91906,1,0,0:0:0:0:
280,104,92078,1,0,0:0:0:0:
184,24,92251,1,0,0:0:0:0:
80,88,92423,6,0,L|112:192,1,100.625000959635
72,296,92768,1,0,0:0:0:0:
192,264,92940,1,0,0:0:0:0:
288,344,93113,2,0,L|360:256,1,100.625000959635
264,184,93458,1,0,0:0:0:0:
368,128,93630,1,0,0:0:0:0:
264,72,93802,1,0,0:0:0:0:
72,296,94147,1,0,0:0:0:0:
384,328,94492,1,0,0:0:0:0:
264,72,94837,1,0,0:0:0:0:
264,72,95182,5,0,0:0:0:0:
160,72,95354,2,0,L|96:192,2,100.625000959635
216,160,95871,2,0,L|280:248,2,100.625000959635
320,152,96389,1,0,0:0:0:0:
408,200,96561,2,0,L|352:328,2,100.625000959635
312,232,97078,2,0,L|200:240,1,100.625000959635
112,272,97423,2,0,L|136:152,1,100.625000959635
32,208,97768,2,0,L|-16:104,2,100.625000959635
80,120,98285,6,0,L|144:24,1,100.625000959635
184,128,98630,2,0,L|240:224,1,100.625000959635
280,128,98975,2,0,L|392:64,1,100.625000959635
368,176,99320,1,0,0:0:0:0:
88,296,99837,1,0,0:0:0:0:
392,272,100354,1,0,0:0:0:0:
192,224,100699,1,0,0:0:0:0:
120,152,100871,2,0,L|248:112,1,100.625000959635
280,40,101216,2,0,L|344:168,1,100.625000959635
288,224,101561,2,0,L|416:184,1,100.625000959635
440,112,101906,1,0,0:0:0:0:
360,56,102078,6,0,B|328:136|384:192|384:192|384:280,1,201.25000191927
184,296,102768,1,0,0:0:0:0:
32,168,103113,2,0,P|8:32|56:0,1,201.25000191927
240,48,103802,1,0,0:0:0:0:
296,240,104147,1,0,0:0:0:0:
128,128,104492,1,0,0:0:0:0:
328,152,104837,5,0,0:0:0:0:
320,352,105182,1,0,0:0:0:0:
128,288,105526,1,0,0:0:0:0:
152,88,105871,1,0,0:0:0:0:
