osu file format v14

[General]
AudioFilename: Sub Focus - Tidal Wave ft. Alpines.mp3
AudioLeadIn: 0
PreviewTime: 154787
Countdown: 0
SampleSet: Normal
StackLeniency: 0.7
Mode: 0
LetterboxInBreaks: 0
WidescreenStoryboard: 0

[Editor]
Bookmarks: 88580,110649,143753
DistanceSpacing: 1.2
BeatDivisor: 2
GridSize: 4
TimelineZoom: 1

[Metadata]
Title:Tidal Wave (feat. Alpines)
TitleUnicode:Tidal Wave (feat. Alpines)
Artist:Sub Focus
ArtistUnicode:Sub Focus
Creator:Secretpipe
Version:Normal
Source:
Tags:drum and bass collab grumd ryuu Gero -kevincela- Kenterz
BeatmapID:666331
BeatmapSetID:296817

[Difficulty]
HPDrainRate:5
CircleSize:3.5
OverallDifficulty:4
ApproachRate:4.5
SliderMultiplier:1
SliderTickRate:1

[Events]
//Background and Video events
0,0,"687474703a2f2f7075752e73682f68553962442f643738323134616631642e6a7067.jpg",0,0
//Break Periods
2,44642,54217
2,110849,120424
2,132918,142493
//Storyboard Layer 0 (Background)
//Storyboard Layer 1 (Fail)
//Storyboard Layer 2 (Pass)
//Storyboard Layer 3 (Foreground)
//Storyboard Sound Samples

[TimingPoints]
305,344.827586206897,4,1,0,50,1,0
22373,-111.111111111111,4,1,0,50,0,0
66511,-100,4,1,0,65,0,1
88580,-100,4,1,0,50,0,0
154787,-100,4,1,0,65,0,1
176856,-100,4,1,0,60,0,0
219615,-100,4,1,0,40,0,0

[Colours]
Combo1 : 158,158,226
Combo2 : 186,137,218
Combo3 : 147,115,240
Combo4 : 111,133,238
Combo5 : 121,190,227

[HitObjects]
60,200,22373,6,0,B|164:160|144:232|248:192,1,179.999994506836,4|2,0:0|0:0,0:0:0:0:
448,148,23753,2,0,L|436:256,1,89.9999972534181,0|0,0:0|0:0,0:0:0:0:
344,292,24442,2,0,L|353:202,1,89.9999972534181,0|0,0:0|0:0,0:0:0:0:
292,112,25132,6,0,B|262:120|243:148|240:188|240:188|221:211|191:216|166:207,1,179.999994506836,0|2,0:0|0:0,0:0:0:0:
60,184,26167,1,0,0:0:0:0:
88,288,26511,2,0,L|76:392,2,89.9999972534181,0|0|0,0:0|0:0|0:0,0:0:0:0:
60,184,27546,1,0,0:0:0:0:
132,104,27891,6,0,B|236:64|216:136|320:96,1,179.999994506836,2|0,0:0|0:0,0:0:0:0:
480,228,29270,2,0,B|376:268|396:196|292:236,1,179.999994506836,0|0,0:0|0:0,0:0:0:0:
204,272,30305,1,0,0:0:0:0:
108,320,30649,6,0,P|55:333|7:318,2,89.9999972534181,2|0|0,0:0|0:0|0:0,0:0:0:0:
204,272,31684,1,2,2:1:0:0:
307,232,32029,2,0,L|327:124,1,89.9999972534181,0|0,0:0|0:0,0:0:0:0:
425,108,32718,2,0,L|408:196,1,89.9999972534181,0|0,0:0|0:0,0:0:0:0:
397,304,33408,6,0,P|310:306|320:220,1,179.999994506836,0|2,0:0|0:0,0:0:0:0:
310,123,34442,1,0,0:0:0:0:
228,52,34787,2,0,P|175:39|127:54,1,89.9999972534181,0|0,0:0|0:0,0:0:0:0:
60,118,35477,2,0,P|52:161|65:204,1,89.9999972534181,0|0,0:0|0:0,0:0:0:0:
113,301,36167,6,0,B|138:316|150:367|150:367|192:323|238:323,1,179.999994506836,0|2,0:0|0:0,0:0:0:0:
348,316,37201,1,0,0:0:0:0:
452,296,37546,2,0,P|460:244|472:204,1,89.9999972534181,0|0,0:0|2:0,0:0:0:0:
420,112,38236,2,0,P|368:104|328:92,1,89.9999972534181,0|0,0:0|0:0,0:0:0:0:
228,68,38925,6,0,P|152:38|122:114,2,179.999994506836,2|0|0,0:0|0:0|0:0,0:0:0:0:
324,260,40994,1,0,0:0:0:0:
452,88,41684,2,0,P|404:96|356:88,1,89.9999972534181,2|0,0:0|0:0,0:0:0:0:
259,68,42373,2,0,P|214:62|170:70,1,89.9999972534181,0|2,0:0|2:1,0:0:0:0:
72,110,43063,5,0,0:0:0:0:
73,217,43408,1,0,0:0:0:0:
177,247,43753,1,0,0:0:0:0:
237,158,44098,1,0,0:0:0:0:
169,72,44442,5,4,0:0:0:0:
346,119,55477,6,0,P|278:112|211:119,2,134.999995880127,8|8|0,0:0|0:0|0:0,0:0:0:0:
416,204,56856,2,0,P|422:274|413:351,2,134.999995880127,8|0|0,0:0|0:0|0:0,0:0:0:0:
346,119,58236,6,0,B|268:149|285:87|196:121,1,134.999995880127,8|8,0:0|0:0,0:0:0:0:
58,154,59270,1,8,0:0:0:0:
130,234,59615,2,0,P|177:230|231:236,1,89.9999972534181,8|0,0:0|0:0,0:0:0:0:
327,244,60305,2,0,P|371:248|416:244,1,89.9999972534181,2|0,2:1|0:0,0:0:0:0:
433,350,60994,6,0,P|362:356|285:347,1,134.999995880127,8|8,0:0|0:0,0:0:0:0:
137,329,62029,1,8,0:0:0:0:
65,248,62373,6,0,P|71:179|138:195,2,134.999995880127,8|0|0,0:0|0:0|0:0,0:0:0:0:
256,192,63753,12,0,65822,0:0:0:0:
288,88,66511,6,0,B|396:46|375:121|484:79,2,200,4|8|0,0:0|0:0|0:0,0:0:0:0:
64,176,68580,1,8,0:0:0:0:
264,308,69270,2,0,P|311:304|365:310,1,100
476,260,69960,2,0,P|470:209|474:159,1,100,8|0,0:0|0:0,0:0:0:0:
476,40,70649,2,0,P|441:37|406:40,1,50
308,44,71167,2,0,P|273:47|238:44,1,50
140,56,71684,1,0,0:0:0:0:
56,144,72029,6,0,L|36:242,1,100
100,344,72718,2,0,L|117:245,1,100,8|0,0:0|0:0,0:0:0:0:
168,136,73408,2,0,B|195:125|229:131|250:157|250:157|254:201|275:233|308:242,1,200,0|8,0:0|0:0,0:0:0:0:
412,300,74442,1,0,0:0:0:0:
416,180,74787,6,0,P|428:147|428:115,1,50,0|0,0:0|0:0,0:0:0:0:
344,48,75305,2,0,P|321:37|296:34,1,50,0|8,0:0|0:0,0:0:0:0:
176,32,75822,1,0,0:0:0:0:
64,76,76167,2,0,B|22:182|96:162|55:269,1,200,0|8,0:0|0:0,0:0:0:0:
284,344,77546,6,0,P|333:350|382:348,1,100,4|0,0:0|0:0,0:0:0:0:
468,264,78236,2,0,P|474:214|472:165,1,100,8|0,0:0|0:0,0:0:0:0:
396,72,78925,2,0,B|343:71|297:23|297:23|283:79|256:96,1,200,0|8,0:0|0:0,0:0:0:0:
160,172,79960,1,0,0:0:0:0:
68,252,80305,6,0,P|74:286|90:314,1,50,0|0,0:0|0:0,0:0:0:0:
188,356,80822,2,0,P|213:354|236:344,1,50,0|8,0:0|0:0,0:0:0:0:
348,300,81339,1,0,0:0:0:0:
460,252,81684,2,0,L|456:88,2,150,0|0|0,0:0|0:0|0:0,0:0:0:0:
348,300,83063,6,0,L|345:190,1,100,0|0,0:0|0:0,0:0:0:0:
232,244,83753,2,0,L|229:134,1,100,8|0,0:0|0:0,0:0:0:0:
224,24,84442,2,0,P|271:18|317:45,2,100
104,44,85477,1,0,0:0:0:0:
40,144,85822,2,0,L|36:204,1,50,0|0,0:0|0:0,0:0:0:0:
124,276,86339,2,0,L|127:226,1,50,0|8,0:0|0:0,0:0:0:0:
144,108,86856,1,0,0:0:0:0:
252,52,87201,6,0,B|261:53|272:72|284:94|268:122|268:122|302:110|333:131|348:165|324:202,1,200,0|0,0:0|0:0,0:0:0:0:
268,296,88236,1,0,0:0:0:0:
208,192,88580,5,4,0:0:0:0:
28,32,89270,1,8,0:0:0:0:
20,272,89960,2,0,L|124:276,1,100,0|0,0:0|0:0,0:0:0:0:
208,192,90649,2,0,L|312:196,1,100,8|0,0:0|0:0,0:0:0:0:
388,106,91339,6,0,P|440:194|380:277,1,200,0|8,0:0|0:0,0:0:0:0:
288,320,92373,1,0,0:0:0:0:
172,348,92718,2,0,P|124:356|60:348,1,100,0|0,0:0|0:0,0:0:0:0:
4,252,93408,2,0,P|-4:204|4:140,1,100,8|0,0:0|0:0,0:0:0:0:
76,60,94098,6,0,B|185:17|164:93|273:51,1,200,0|8,0:0|0:0,0:0:0:0:
383,89,95132,1,0,0:0:0:0:
383,209,95477,1,0,0:0:0:0:
268,246,95822,1,0,0:0:0:0:
198,149,96167,6,0,P|148:146|96:154,1,100,8|0,0:0|0:0,0:0:0:0:
48,44,96856,2,0,P|123:32|198:37,1,150,0|2,0:0|0:0,0:0:0:0:
256,48,97546,1,0,0:0:0:0:
368,88,97891,1,0,2:0:0:0:
276,164,98236,2,0,L|260:268,1,100,0|0,0:0|0:0,0:0:0:0:
160,328,98925,2,0,L|175:229,1,100,8|0,0:0|0:0,0:0:0:0:
176,108,99615,6,0,P|240:48|352:80,1,200,0|8,0:0|0:0,0:0:0:0:
404,172,100649,1,0,0:0:0:0:
316,252,100994,2,0,L|216:240,2,100,0|0|8,0:0|0:0|0:0,0:0:0:0:
432,284,102029,1,0,0:0:0:0:
340,360,102373,2,0,P|284:364|232:352,1,100,0|0,0:0|0:0,0:0:0:0:
124,336,103063,2,0,P|68:332|16:344,1,100,8|0,0:0|0:0,0:0:0:0:
4,224,103753,6,0,P|79:210|155:216,1,150,0|0,0:0|0:0,0:0:0:0:
212,228,104442,1,8,0:0:0:0:
328,264,104787,1,0,0:0:0:0:
432,204,105132,2,0,P|436:154|427:105,1,100,0|0,0:0|0:0,0:0:0:0:
328,36,105822,2,0,P|278:31|229:40,1,100,8|0,0:0|0:0,0:0:0:0:
120,92,106511,5,0,0:0:0:0:
139,211,106856,1,8,2:1:0:0:
258,231,107201,1,8,0:0:0:0:
312,123,107546,1,0,0:0:0:0:
412,56,107891,6,0,P|432:128|384:232,2,150
256,192,109270,12,4,110649,0:0:0:0:
103,169,121684,6,0,L|218:149,1,100,0|0,0:0|0:0,0:0:0:0:
322,149,122373,2,0,L|439:161,1,100,2|0,0:0|0:0,0:0:0:0:
440,280,123063,2,0,L|340:269,1,100,0|0,0:0|0:0,0:0:0:0:
220,260,123753,1,0,0:0:0:0:
196,144,124098,1,0,0:0:0:0:
164,28,124442,6,0,P|110:28|41:46,2,100,0|0|2,0:0|0:0|0:0,0:0:0:0:
284,20,125477,1,0,0:0:0:0:
332,132,125822,1,0,0:0:0:0:
380,244,126167,1,0,0:0:0:0:
452,148,126511,1,0,0:0:0:0:
332,132,126856,1,0,0:0:0:0:
252,220,127201,6,0,B|198:220|151:269|151:269|137:212|109:195,2,200,0|2|0,0:0|0:0|0:0,0:0:0:0:
484,164,129270,1,0,0:0:0:0:
300,12,129960,2,0,L|292:128,1,100,0|0,0:0|0:0,0:0:0:0:
212,200,130649,2,0,L|204:84,1,100,2|0,0:0|0:0,0:0:0:0:
108,28,131339,2,0,L|114:127,1,100,0|0,0:0|0:0,0:0:0:0:
124,248,132029,1,0,0:0:0:0:
20,192,132373,1,0,0:0:0:0:
20,312,132718,5,4,0:0:0:0:
453,330,143753,6,0,P|379:337|297:328,1,150,8|8,0:0|0:0,0:0:0:0:
128,300,144787,1,8,0:0:0:0:
92,184,145132,2,0,P|85:109|95:28,2,150,8|0|0,0:0|0:0|0:0,0:0:0:0:
128,300,146511,6,0,B|210:268|192:333|286:297,1,150,8|8,0:0|0:0,0:0:0:0:
448,268,147546,1,8,0:0:0:0:
392,160,147891,2,0,P|440:148|500:164,2,100,8|0|2,0:0|0:0|2:1,0:0:0:0:
280,204,148925,1,0,0:0:0:0:
188,124,149270,6,0,P|102:140|130:222,2,150,8|8|8,0:0|0:0|0:0,0:0:0:0:
280,204,150649,2,0,P|367:206|357:120,2,150,8|0|0,0:0|0:0|0:0,0:0:0:0:
256,192,152029,12,0,153408,0:0:0:0:
108,132,154098,5,2,0:0:0:0:
120,256,154442,1,8,0:0:0:0:
220,316,154787,6,0,P|276:320|336:308,1,100,4|0,0:0|0:0,0:0:0:0:
420,248,155477,2,0,P|424:198|417:148,1,100,8|0,0:0|0:0,0:0:0:0:
364,40,156167,1,0,0:0:0:0:
296,136,156511,1,8,2:1:0:0:
216,224,156856,2,0,P|190:220|167:211,2,50,8|0|0,0:0|0:0|0:0,0:0:0:0:
336,240,157546,6,0,P|392:236|452:248,1,100,0|0,0:0|0:0,0:0:0:0:
384,352,158236,2,0,P|328:356|268:344,1,100,8|0,0:0|0:0,0:0:0:0:
168,328,158925,1,0,0:0:0:0:
68,264,159270,1,8,2:1:0:0:
32,148,159615,2,0,P|81:140|131:145,1,100
240,200,160305,6,0,P|296:204|356:192,1,100,4|0,0:0|0:0,0:0:0:0:
444,256,160994,2,0,P|451:206|446:156,1,100,8|0,0:0|0:0,0:0:0:0:
380,56,161684,1,0,0:0:0:0:
316,160,162029,1,8,2:1:0:0:
232,244,162373,2,0,P|251:268|275:287,2,50,8|0|0,0:0|0:0|0:0,0:0:0:0:
192,200,162891,1,0,0:0:0:0:
156,152,163063,6,0,P|130:109|114:61,1,100,4|0,0:0|0:0,0:0:0:0:
32,152,163753,2,0,P|57:194|73:242,1,100,8|0,0:0|0:0,0:0:0:0:
112,356,164442,1,0,0:0:0:0:
232,352,164787,2,0,B|313:320|297:376|378:345,1,150
436,328,165477,1,0,0:0:0:0:
452,208,165822,6,0,P|452:156|424:96,1,100,4|0,0:0|0:0,0:0:0:0:
336,180,166511,2,0,P|291:131|229:108,1,100,8|0,0:0|0:0,0:0:0:0:
224,228,167201,2,0,P|149:224|81:256,2,150,0|0|0,0:0|0:0|0:0,0:0:0:0:
336,268,168580,6,0,L|340:320,2,50,0|0|0,0:0|0:0|0:0,0:0:0:0:
328,148,169270,2,0,L|331:98,2,50,8|0|0,0:0|0:0|0:0,0:0:0:0:
212,184,169960,2,0,L|224:25,2,150,0|0|0,0:0|0:0|0:0,0:0:0:0:
224,304,171339,6,0,P|273:311|323:306,1,100,4|0,0:0|0:0,0:0:0:0:
424,240,172029,2,0,P|428:190|421:140,1,100,8|0,0:0|0:0,0:0:0:0:
324,72,172718,2,0,P|274:67|224:74,1,100,0|8,0:0|2:1,0:0:0:0:
120,136,173408,2,0,P|112:185|117:235,1,100,8|0,0:0|0:0,0:0:0:0:
152,348,174098,5,0,0:0:0:0:
272,356,174442,1,0,0:0:0:0:
316,244,174787,1,8,0:0:0:0:
224,168,175132,1,0,0:0:0:0:
316,96,175477,6,0,P|365:89|415:94,1,100,0|0,0:0|0:0,0:0:0:0:
488,192,176167,2,0,P|494:241|489:291,1,100,0|0,0:0|0:0,0:0:0:0:
384,352,176856,2,0,B|284:376|256:304|256:304|228:376|120:352,1,300,4|0,0:0|0:0,0:0:0:0:
36,276,178236,6,0,P|21:228|26:179,2,100,0|0|8,0:0|0:0|0:0,0:0:0:0:
131,349,179270,1,0,0:0:0:0:
140,228,179615,2,0,P|160:182|196:148,1,100,0|8,0:0|2:1,0:0:0:0:
312,112,180305,2,0,P|357:132|392:168,1,100,8|0,0:0|0:0,0:0:0:0:
428,280,180994,5,0,0:0:0:0:
336,356,181339,1,0,0:0:0:0:
300,240,181684,2,0,P|256:212|208:200,1,100,8|0,0:0|0:0,0:0:0:0:
152,192,182201,1,0,0:0:0:0:
92,188,182373,6,0,L|88:72,2,100,4|0|2,0:0|0:0|0:0,0:0:0:0:
96,308,183408,1,0,0:0:0:0:
212,340,183753,2,0,P|260:350|309:341,1,100,0|0,0:0|0:0,0:0:0:0:
368,236,184442,2,0,P|319:225|270:234,1,100,8|0,0:0|0:0,0:0:0:0:
244,116,185132,6,0,P|318:101|393:118,2,150,0|2|8,0:0|0:0|0:0,0:0:0:0:
124,132,186511,2,0,P|114:107|110:83,2,50,0|0|0,0:0|0:0|0:0,0:0:0:0:
60,232,187201,2,0,P|33:229|10:221,2,50,8|0|0,0:0|0:0|0:0,0:0:0:0:
180,240,187891,6,0,B|208:229|242:235|264:261|264:261|267:307|289:338|323:348,1,200,4|8,0:0|0:0,0:0:0:0:
388,248,188925,1,0,0:0:0:0:
364,132,189270,2,0,P|323:103|274:93,1,100,0|8,0:0|2:1,0:0:0:0:
156,104,189960,2,0,P|127:144|117:193,1,100,8|0,0:0|0:0,0:0:0:0:
116,252,190477,1,0,0:0:0:0:
132,308,190649,6,0,L|228:344,1,100,0|0,0:0|0:0,0:0:0:0:
332,288,191339,2,0,L|238:252,1,100,8|0,0:0|0:0,0:0:0:0:
172,152,192029,1,0,0:0:0:0:
248,60,192373,1,8,2:1:0:0:
328,148,192718,2,0,P|368:172|432:176,2,100,8|0|0,0:0|0:0|0:0,0:0:0:0:
248,60,193753,5,0,0:0:0:0:
128,48,194098,1,8,0:0:0:0:
48,136,194442,1,0,0:0:0:0:
128,224,194787,2,0,L|136:324,1,100,0|0,0:0|0:0,0:0:0:0:
256,328,195477,2,0,L|264:228,1,100,8|0,0:0|0:0,0:0:0:0:
380,188,196167,2,0,L|367:341,2,150,0|2|8,0:0|0:0|0:0,0:0:0:0:
436,84,197546,2,0,P|387:73|338:82,1,100,0|0,0:0|0:0,0:0:0:0:
220,108,198236,2,0,P|171:119|122:110,1,100,8|0,0:0|0:0,0:0:0:0:
1,32,198925,6,0,P|18:123|1:228,1,200,4|0,0:0|0:0,0:0:0:0:
72,324,199960,1,8,0:0:0:0:
192,324,200305,2,0,P|241:313|290:322,1,100,0|0,0:0|0:0,0:0:0:0:
408,344,200994,2,0,P|419:295|410:246,1,100,0|0,0:0|0:0,0:0:0:0:
384,192,201511,1,0,0:0:0:0:
348,144,201684,1,2,0:0:0:0:
252,72,202029,6,0,P|170:56|75:72,1,150,0|0,0:0|0:0,0:0:0:0:
48,84,202718,1,8,0:0:0:0:
52,204,203063,2,0,P|125:218|199:212,1,150
320,200,203925,2,0,P|332:167|332:135,1,50,0|8,0:0|0:0,0:0:0:0:
332,92,204270,2,0,P|328:67|318:44,1,50,0|4,0:0|0:0,0:0:0:0:
200,52,204787,6,0,B|144:76|104:60|104:60|120:108|96:180,1,200,0|8,0:0|0:0,0:0:0:0:
36,260,205822,2,0,B|63:250|96:255|117:281|117:281|121:325|142:356|175:365,1,200,0|0,0:0|0:0,0:0:0:0:
244,268,206856,2,0,L|312:252,1,50,0|0,0:0|0:0,0:0:0:0:
352,240,207201,1,4,0:0:0:0:
412,136,207546,2,0,B|394:87|426:42|426:42|372:70|311:38,1,200,0|8,0:0|0:0,0:0:0:0:
212,12,208580,2,0,B|189:112|257:140|257:140|189:168|209:268,1,300,0|0,0:0|0:0,0:0:0:0:
220,328,209787,1,0,0:0:0:0:
272,356,209960,1,4,0:0:0:0:
368,284,210305,6,0,P|387:224|368:177,1,100
352,136,210822,1,8,0:0:0:0:
204,32,211339,2,0,P|185:86|204:128,1,100
224,180,211856,1,8,0:0:0:0:
256,296,212201,2,0,P|265:318|269:343,1,50,0|0,0:0|0:0,0:0:0:0:
328,356,212546,2,0,P|350:346|375:342,1,50,0|2,0:0|0:0,0:0:0:0:
492,308,213063,6,0,P|480:240|498:159,1,150
512,112,213753,1,8,0:0:0:0:
416,44,214098,2,0,P|342:55|268:42,1,150
208,32,214787,1,2,0:0:0:0:
88,24,215132,1,0,0:0:0:0:
16,120,215477,1,4,0:0:0:0:
136,116,215822,6,0,L|147:265,1,150
152,324,216511,1,8,0:0:0:0:
268,356,216856,2,0,L|255:206,1,150,0|8,0:0|0:0,0:0:0:0:
248,148,217546,1,0,0:0:0:0:
228,28,217891,1,8,0:0:0:0:
336,84,218236,6,0,B|344:200,1,100,2|0,0:0|0:0,0:0:0:0:
348,244,218753,1,4,0:0:0:0:
192,332,219270,1,8,0:0:0:0:
256,192,219615,12,4,220994,3:0:0:0:
