osu file format v14

[General]
AudioFilename: Sub Focus - Tidal Wave ft. Alpines.mp3
AudioLeadIn: 0
PreviewTime: 154787
Countdown: 0
SampleSet: Soft
StackLeniency: 0.7
Mode: 0
LetterboxInBreaks: 0
WidescreenStoryboard: 1

[Editor]
Bookmarks: 22373,33408,44442,55477,66511,77546,110649,132029,132718,143667,143753,143839,187891
DistanceSpacing: 1.7
BeatDivisor: 4
GridSize: 4
TimelineZoom: 1.5

[Metadata]
Title:Tidal Wave (feat. Alpines)
TitleUnicode:Tidal Wave (feat. Alpines)
Artist:Sub Focus
ArtistUnicode:Sub Focus
Creator:Secretpipe
Version:Collab Insane
Source:
Tags:drum and bass collab grumd ryuu Gero -kevincela- Kenterz
BeatmapID:673787
BeatmapSetID:296817

[Difficulty]
HPDrainRate:7
CircleSize:4.5
OverallDifficulty:8
ApproachRate:9
SliderMultiplier:1.6
SliderTickRate:1

[Events]
//Background and Video events
0,0,"687474703a2f2f7075752e73682f68553962442f643738323134616631642e6a7067.jpg",0,0
//Break Periods
2,44642,54877
2,132918,143153
//Storyboard Layer 0 (Background)
//Storyboard Layer 1 (Fail)
//Storyboard Layer 2 (Pass)
//Storyboard Layer 3 (Foreground)
//Storyboard Sound Samples

[TimingPoints]
305,344.827586206897,4,2,0,50,1,0
22373,-153.846153846154,4,2,0,60,0,0
40649,-200,4,2,0,60,0,0
40994,-153.846153846154,4,2,0,60,0,0
41339,-200,4,2,0,60,0,0
41684,-153.846153846154,4,2,0,60,0,0
55477,-166.666666666667,4,2,0,40,0,0
66511,-100,4,2,0,75,0,1
88580,-100,4,2,0,75,0,0
110649,-153.846153846154,4,2,0,75,0,0
110994,-153.846153846154,4,2,0,55,0,0
154787,-100,4,2,0,75,0,1
176856,-100,4,2,0,75,0,0
198925,-100,4,2,0,75,0,1
199184,-100,4,2,0,75,0,0
201684,-100,4,2,0,75,0,1
201942,-100,4,2,0,75,0,0
204442,-100,4,2,0,75,0,1
204701,-100,4,2,0,75,0,0
207201,-100,4,2,0,75,0,1
207460,-100,4,2,0,75,0,0
209960,-100,4,2,0,75,0,1
210218,-100,4,2,0,75,0,0
212718,-100,4,2,0,75,0,1
212977,-100,4,2,0,75,0,0
215477,-100,4,2,0,75,0,1
215736,-100,4,2,0,75,0,0

[Colours]
Combo1 : 158,158,226
Combo2 : 186,137,218
Combo3 : 147,115,240
Combo4 : 111,133,238
Combo5 : 121,190,227

[HitObjects]
432,208,22373,6,0,P|439:157|349:110,1,155.999992858887,4|0,1:0|0:0,0:0:0:0:
280,135,23063,5,0,1:0:0:0:
276,131,23580,1,0,0:0:0:0:
208,187,23753,2,0,L|151:179,2,51.999997619629,0|0|0,1:0|0:0|0:0,0:0:0:0:
361,157,24270,1,0,0:0:0:0:
291,218,24442,6,0,P|297:295|363:328,1,155.999992858887,0|0,1:0|0:0,0:0:0:0:
344,132,25132,6,0,L|286:123,1,51.999997619629,0|0,1:0|0:0,0:0:0:0:
456,56,25477,2,0,L|508:49,1,51.999997619629
351,139,25822,2,0,B|240:120,1,103.999995239258,0|0,1:0|0:0,0:0:0:0:
87,197,26339,1,0,0:0:0:0:
139,134,26511,2,0,P|136:106|128:81,1,51.999997619629,0|0,1:0|0:0,0:0:0:0:
196,237,26856,2,0,P|182:267|179:300,1,51.999997619629
321,159,27201,2,0,P|320:108|281:62,1,103.999995239258,0|0,1:0|0:0,0:0:0:0:
352,304,27891,6,0,B|445:319|445:319|429:293|427:258,1,155.999992858887,0|0,1:0|0:0,0:0:0:0:
485,181,28580,6,0,P|498:148|500:126,1,51.999997619629,0|0,1:0|0:0,0:0:0:0:
451,62,28925,1,0,0:0:0:0:
370,78,29098,1,0,0:0:0:0:
232,21,29270,1,0,1:0:0:0:
228,25,29960,1,0,1:0:0:0:
224,29,30649,6,0,P|230:110|166:139,1,155.999992858887,0|0,1:0|0:0,0:0:0:0:
104,195,31339,6,0,L|99:252,1,51.999997619629,0|0,1:0|0:0,0:0:0:0:
216,332,31684,2,0,L|210:277,1,51.999997619629
258,210,32029,1,0,1:0:0:0:
264,206,32718,1,0,1:0:0:0:
359,183,33063,1,0,0:0:0:0:
439,245,33408,6,0,P|438:308|354:338,1,155.999992858887,4|0,1:0|0:0,0:0:0:0:
285,304,34098,6,0,L|221:314,1,51.999997619629,0|0,1:0|0:0,0:0:0:0:
158,285,34442,1,0,0:0:0:0:
197,131,34615,1,0,0:0:0:0:
237,201,34787,2,0,P|263:212|293:213,1,51.999997619629,0|0,1:0|0:0,0:0:0:0:
352,164,35132,1,0,0:0:0:0:
338,87,35305,1,0,0:0:0:0:
418,222,35477,2,0,L|411:276,1,51.999997619629,0|0,1:0|0:0,0:0:0:0:
266,326,35822,2,0,P|241:315|200:311,1,51.999997619629
110,345,36167,6,0,P|165:322|180:232,1,155.999992858887,0|0,1:0|0:0,0:0:0:0:
66,169,36856,2,0,P|91:181|117:185,1,51.999997619629,0|0,1:0|0:0,0:0:0:0:
280,111,37201,2,0,P|251:114|226:123,1,51.999997619629
339,166,37546,1,0,1:0:0:0:
375,28,37718,1,0,0:0:0:0:
435,147,37891,2,0,L|430:203,1,51.999997619629
377,266,38236,1,0,1:0:0:0:
224,219,38408,1,0,0:0:0:0:
346,161,38580,2,0,L|352:106,1,51.999997619629
215,27,38925,6,0,P|230:78|157:147,1,155.999992858887,0|0,1:0|0:0,0:0:0:0:
84,121,39615,6,0,P|74:94|71:68,1,51.999997619629,0|0,1:0|0:0,0:0:0:0:
165,146,39960,1,0,0:0:0:0:
153,224,40132,1,0,0:0:0:0:
271,296,40305,2,0,L|265:244,1,51.999997619629,0|0,1:0|0:0,0:0:0:0:
407,175,40649,6,0,L|404:218,1,40
261,289,40994,6,0,L|255:237,1,51.999997619629,0|0,1:0|0:0,0:0:0:0:
397,177,41339,6,0,L|394:220,1,40
295,55,41684,2,0,P|226:41|172:104,1,155.999992858887,0|0,1:0|0:0,0:0:0:0:
217,167,42373,6,0,L|268:174,1,51.999997619629,0|0,1:0|0:0,0:0:0:0:
151,217,42718,1,0,0:0:0:0:
257,277,42891,1,0,0:0:0:0:
109,314,43063,2,0,P|84:312|56:300,1,51.999997619629,0|0,1:0|0:0,0:0:0:0:
213,163,43408,2,0,L|223:220,1,51.999997619629
292,99,43753,2,0,L|302:156,1,51.999997619629,0|0,1:0|0:0,0:0:0:0:
414,197,44098,2,0,P|438:161|436:102,1,103.999995239258,4|4,0:0|1:0,0:0:0:0:
69,55,55477,6,0,L|167:66,1,95.9999970703126,2|2,1:3|0:0,0:0:0:0:
195,144,55994,2,0,L|98:133,1,95.9999970703126,2|2,1:3|0:0,0:0:0:0:
55,261,56511,2,0,L|48:210,1,47.9999985351563,2|2,1:3|0:0,0:0:0:0:
114,326,56856,6,0,P|162:344|216:341,1,95.9999970703126,2|2,1:3|0:0,0:0:0:0:
259,283,57373,1,2,1:3:0:0:
221,124,57546,2,0,L|210:234,1,95.9999970703126,2|2,1:3|1:3,0:0:0:0:
259,283,58063,1,2,1:3:0:0:
113,200,58236,6,0,L|118:252,1,47.9999985351563,4|0,1:2|0:0,0:0:0:0:
29,166,58580,2,0,L|36:114,1,47.9999985351563,2|4,0:0|1:2,0:0:0:0:
88,63,58925,1,0,0:0:0:0:
161,46,59098,1,2,0:0:0:0:
229,81,59270,2,0,P|254:88|280:89,1,47.9999985351563,4|0,1:2|0:0,0:0:0:0:
425,135,59615,6,0,P|371:139|326:176,1,95.9999970703126,2|2,1:3|0:0,0:0:0:0:
509,284,60132,2,0,L|494:183,1,95.9999970703126,2|2,1:3|0:0,0:0:0:0:
448,339,60649,1,2,1:3:0:0:
293,307,60822,1,2,1:3:0:0:
409,270,60994,6,0,L|413:221,1,47.9999985351563,4|0,1:0|0:0,0:0:0:0:
349,174,61339,1,8,1:2:0:0:
272,194,61511,1,0,1:0:0:0:
272,194,61598,1,0,1:0:0:0:
272,194,61684,1,0,1:0:0:0:
208,138,61856,1,0,1:0:0:0:
263,76,62029,2,0,L|257:25,1,47.9999985351563,8|0,1:0|0:0,0:0:0:0:
128,126,62373,5,8,1:2:0:0:
128,126,62460,1,0,0:0:0:0:
128,126,62546,1,8,1:0:0:0:
4,171,62718,1,0,0:0:0:0:
25,249,62891,1,8,1:0:0:0:
25,249,62977,1,0,0:0:0:0:
25,249,63063,1,8,1:2:0:0:
154,200,63236,1,0,0:0:0:0:
212,253,63408,2,0,L|207:307,1,47.9999985351563,8|8,1:0|1:2,0:0:0:0:
271,345,63753,5,8,1:0:0:0:
284,341,63839,1,0,0:0:0:0:
297,337,63925,1,0,0:0:0:0:
310,333,64011,1,8,1:0:0:0:
324,329,64098,1,0,0:0:0:0:
361,192,64270,1,8,1:0:0:0:
385,271,64442,1,4,1:2:0:0:
422,134,64615,1,8,1:0:0:0:
281,177,64787,2,0,L|232:168,1,47.9999985351563,4|8,1:2|1:2,0:0:0:0:
82,286,65132,5,4,1:2:0:0:
122,138,65305,1,10,1:1:0:0:
166,258,65477,1,4,1:2:0:0:
39,181,65649,1,2,1:0:0:0:
237,103,65822,1,4,1:2:0:0:
141,342,65994,1,2,1:0:0:0:
52,224,66167,1,4,1:2:0:0:
269,273,66339,1,10,1:0:0:0:
59,216,66511,6,0,L|51:124,1,80,4|0,1:0|0:0,0:0:0:0:
130,266,66856,1,2,0:0:0:0:
281,186,67029,1,0,0:0:0:0:
144,139,67201,1,4,1:2:0:0:
193,319,67373,1,0,0:0:0:0:
281,186,67546,2,0,L|360:193,1,80,0|0,1:0|0:0,0:0:0:0:
442,149,67891,5,0,1:0:0:0:
257,98,68063,1,2,0:0:0:0:
235,260,68236,1,0,0:0:0:0:
343,76,68408,1,2,0:0:0:0:
192,164,68580,1,4,1:2:0:0:
257,98,68753,1,2,0:0:0:0:
347,252,68925,2,0,P|344:293|330:328,1,80,0|0,1:0|0:0,0:0:0:0:
277,192,69270,5,0,1:0:0:0:
484,271,69442,1,0,1:0:0:0:
248,356,69615,2,0,L|165:349,1,80,4|0,1:2|1:0,0:0:0:0:
118,175,69960,1,2,1:3:0:0:
80,102,70132,1,2,1:3:0:0:
67,248,70305,2,0,L|-24:265,1,80,0|2,1:0|0:0,0:0:0:0:
124,178,70649,5,0,1:0:0:0:
97,347,70822,1,0,1:0:0:0:
213,254,70994,1,4,1:2:0:0:
36,174,71167,1,2,1:3:0:0:
217,120,71339,2,0,P|230:85|230:34,1,80,2|0,1:0|0:0,0:0:0:0:
318,278,71684,2,0,P|326:320|353:360,1,80,4|0,1:2|0:0,0:0:0:0:
358,200,72029,5,0,1:0:0:0:
236,325,72201,1,0,0:0:0:0:
424,292,72373,1,2,0:0:0:0:
273,206,72546,1,0,0:0:0:0:
429,136,72718,2,0,L|511:149,1,80,4|0,1:2|0:0,0:0:0:0:
384,63,73063,1,0,1:0:0:0:
234,94,73236,1,0,0:0:0:0:
358,200,73408,6,0,P|356:240|342:278,1,80,0|2,1:0|0:0,0:0:0:0:
284,159,73753,1,0,0:0:0:0:
446,204,73925,1,2,0:0:0:0:
463,42,74098,2,0,L|480:122,1,80,4|2,1:2|0:0,0:0:0:0:
380,14,74442,1,0,1:0:0:0:
308,65,74615,1,0,0:0:0:0:
169,20,74787,5,0,1:0:0:0:
207,217,74960,1,4,1:2:0:0:
308,65,75132,1,0,0:0:0:0:
221,100,75305,1,0,1:0:0:0:
430,171,75477,2,0,P|428:211|413:248,1,80,4|0,1:2|0:0,0:0:0:0:
372,108,75822,1,0,1:0:0:0:
511,166,75994,1,4,1:2:0:0:
332,276,76167,5,0,1:0:0:0:
288,132,76339,1,4,1:2:0:0:
269,214,76511,1,0,0:0:0:0:
372,108,76684,1,0,1:0:0:0:
248,298,76856,2,0,L|156:306,1,80,4|0,1:2|0:0,0:0:0:0:
372,108,77201,2,0,L|456:118,1,80,0|0,1:0|0:0,0:0:0:0:
288,40,77546,5,4,1:0:0:0:
200,96,77718,1,0,0:0:0:0:
248,296,77891,1,2,0:0:0:0:
140,232,78063,1,0,0:0:0:0:
320,180,78236,2,0,L|407:189,1,80,4|0,1:2|0:0,0:0:0:0:
140,232,78580,2,0,L|53:242,1,80,2|2,0:0|0:0,0:0:0:0:
132,96,78925,5,0,1:0:0:0:
204,168,79098,1,0,0:0:0:0:
40,128,79270,1,2,0:0:0:0:
100,16,79442,1,0,1:0:0:0:
229,101,79615,2,0,P|268:103|317:85,1,80,4|0,1:2|0:0,0:0:0:0:
435,177,79960,2,0,P|398:158|347:157,1,80,2|0,0:0|1:0,0:0:0:0:
256,20,80305,5,0,1:0:0:0:
356,44,80477,1,4,1:2:0:0:
208,168,80649,1,0,0:0:0:0:
132,96,80822,1,0,1:0:0:0:
304,120,80994,1,4,1:2:0:0:
244,248,81167,1,0,0:0:0:0:
224,92,81339,2,0,P|252:52|292:36,1,80,0|4,1:0|1:2,0:0:0:0:
384,144,81684,6,0,P|356:184|316:200,1,80,0|4,1:0|1:2,0:0:0:0:
224,92,82029,1,0,1:0:0:0:
356,44,82201,1,4,1:2:0:0:
208,176,82373,2,0,L|120:172,1,80,2|0,1:0|0:0,0:0:0:0:
4,304,82718,2,0,L|92:300,1,80,0|0,1:0|0:0,0:0:0:0:
244,252,83063,5,4,1:0:0:0:
220,352,83236,1,0,0:0:0:0:
336,240,83408,1,2,0:0:0:0:
208,176,83580,1,0,0:0:0:0:
308,320,83753,2,0,P|348:324|400:296,1,80,4|0,1:2|0:0,0:0:0:0:
168,244,84098,2,0,P|128:240|76:268,1,80
208,176,84442,5,0,1:0:0:0:
244,272,84615,1,0,0:0:0:0:
100,148,84787,1,2,0:0:0:0:
180,84,84960,1,0,0:0:0:0:
104,288,85132,2,0,L|24:294,1,80,4|0,1:2|0:0,0:0:0:0:
208,176,85477,2,0,L|304:180,1,80,2|2,0:0|0:0,0:0:0:0:
360,340,85822,5,0,1:0:0:0:
268,292,85994,1,4,1:2:0:0:
448,256,86167,1,0,0:0:0:0:
440,360,86339,1,0,1:0:0:0:
368,204,86511,2,0,L|372:104,1,80,4|0,1:2|0:0,0:0:0:0:
220,44,86856,2,0,L|223:123,1,80,0|4,1:0|1:2,0:0:0:0:
368,204,87201,5,0,1:0:0:0:
284,268,87373,1,0,1:0:0:0:
336,96,87546,1,4,1:2:0:0:
336,96,87891,1,8,0:0:0:0:
432,60,88063,1,8,0:0:0:0:
368,204,88236,1,8,0:0:0:0:
280,152,88408,1,4,0:2:0:0:
352,308,88580,6,0,P|400:312|436:300,1,80,4|0,1:0|0:0,0:0:0:0:
260,260,88925,2,0,P|212:256|176:268,1,80,2|0,0:0|0:0,0:0:0:0:
60,344,89270,1,4,1:2:0:0:
20,248,89442,1,0,0:0:0:0:
140,160,89615,1,2,0:0:0:0:
120,260,89787,1,0,0:0:0:0:
44,116,89960,6,0,P|40:72|48:32,1,80,0|0,1:0|0:0,0:0:0:0:
192,8,90305,2,0,P|196:52|188:92,1,80,2|0,0:0|0:0,0:0:0:0:
272,148,90649,2,0,L|356:144,2,80,4|0|2,1:2|0:0|0:0,0:0:0:0:
140,160,91167,1,0,0:0:0:0:
212,273,91339,5,0,1:0:0:0:
191,47,91511,1,0,1:0:0:0:
348,68,91684,2,0,L|432:64,1,80,0|0,1:0|1:0,0:0:0:0:
272,148,92029,1,4,1:2:0:0:
360,208,92201,1,0,0:0:0:0:
260,60,92373,1,0,1:0:0:0:
184,152,92546,1,4,1:2:0:0:
400,136,92718,6,0,P|432:168|440:216,1,80,0|0,1:0|1:0,0:0:0:0:
320,280,93063,2,0,P|288:248|280:200,1,80,2|0,0:0|1:0,0:0:0:0:
348,76,93408,1,4,1:2:0:0:
360,208,93580,1,0,0:0:0:0:
224,128,93753,1,0,1:0:0:0:
78,193,93925,1,0,0:0:0:0:
224,273,94098,5,4,1:0:0:0:
119,99,94270,1,0,0:0:0:0:
160,364,94442,2,0,P|200:348|240:348,1,80,2|0,0:0|0:0,0:0:0:0:
360,208,94787,1,4,1:2:0:0:
380,312,94960,1,0,0:0:0:0:
252,200,95132,1,2,0:0:0:0:
332,132,95305,1,0,0:0:0:0:
288,300,95477,5,0,1:0:0:0:
192,260,95649,1,0,0:0:0:0:
360,208,95822,1,2,0:0:0:0:
256,124,95994,1,0,0:0:0:0:
216,336,96167,1,4,1:2:0:0:
360,284,96339,2,0,P|404:280|444:292,2,80,0|2|2,0:0|0:0|0:0,0:0:0:0:
216,336,96856,5,0,1:0:0:0:
256,124,97029,1,4,1:2:0:0:
360,208,97201,1,0,0:0:0:0:
140,216,97373,1,0,1:0:0:0:
16,140,97546,1,4,1:2:0:0:
0,244,97718,1,0,0:0:0:0:
148,128,97891,2,0,L|236:132,1,80,0|4,1:0|1:2,0:0:0:0:
396,236,98236,5,8,0:0:0:0:
340,40,98408,1,8,0:0:0:0:
256,124,98580,1,2,0:0:0:0:
428,128,98753,1,8,0:0:0:0:
268,232,98925,2,0,P|196:200|176:108,1,160,4|0,1:2|1:0,0:0:0:0:
196,24,99442,1,0,0:0:0:0:
100,204,99615,6,0,P|48:208|12:196,1,80,4|0,1:0|0:0,0:0:0:0:
264,140,99960,2,0,P|316:136|352:148,1,80,2|0,0:0|0:0,0:0:0:0:
400,316,100305,1,4,1:2:0:0:
460,232,100477,1,0,0:0:0:0:
296,276,100649,1,2,0:0:0:0:
360,196,100822,1,0,0:0:0:0:
324,368,100994,6,0,P|272:372|240:356,1,80,0|0,1:0|0:0,0:0:0:0:
80,283,101339,2,0,P|119:277|156:290,1,80,2|0,0:0|0:0,0:0:0:0:
87,192,101684,2,0,P|48:197|11:184,2,80,4|0|2,1:2|0:0|0:0,0:0:0:0:
216,104,102201,5,2,0:0:0:0:
84,64,102373,1,0,1:0:0:0:
224,244,102546,1,0,1:0:0:0:
440,180,102718,2,0,L|436:264,1,80,0|0,1:0|1:0,0:0:0:0:
284,328,103063,1,4,1:2:0:0:
316,228,103236,1,0,0:0:0:0:
400,356,103408,1,0,1:0:0:0:
232,252,103580,1,0,0:0:0:0:
384,132,103753,6,0,L|380:44,1,80,0|0,1:0|1:0,0:0:0:0:
196,24,104098,2,0,L|192:103,1,80,0|0,1:0|1:0,0:0:0:0:
380,52,104442,1,4,1:2:0:0:
308,128,104615,1,0,0:0:0:0:
468,180,104787,1,4,1:2:0:0:
476,76,104960,1,0,0:0:0:0:
368,208,105132,5,4,1:0:0:0:
460,340,105305,1,0,0:0:0:0:
324,348,105477,2,0,P|308:304|272:276,1,80,2|0,0:0|0:0,0:0:0:0:
96,304,105822,1,4,1:2:0:0:
136,208,105994,1,0,0:0:0:0:
200,368,106167,1,2,0:0:0:0:
228,268,106339,1,0,0:0:0:0:
60,232,106511,5,0,1:0:0:0:
104,136,106684,1,0,0:0:0:0:
164,304,106856,1,2,0:0:0:0:
40,356,107029,1,0,0:0:0:0:
136,208,107201,1,4,1:2:0:0:
228,268,107373,2,0,P|272:272|312:264,2,80,0|2|2,0:0|0:0|0:0,0:0:0:0:
348,184,107891,5,0,1:0:0:0:
456,352,108063,1,4,1:2:0:0:
306,265,108236,1,0,0:0:0:0:
476,192,108408,2,0,P|460:148|468:100,1,80,0|4,1:0|1:2,0:0:0:0:
360,88,108753,1,0,0:0:0:0:
308,264,108925,1,0,1:0:0:0:
408,240,109098,1,0,1:0:0:0:
264,144,109270,6,0,P|224:148|184:180,1,80,0|0,1:0|1:0,0:0:0:0:
396,156,109615,2,0,P|436:152|476:120,1,80,4|0,1:2|0:0,0:0:0:0:
324,220,109960,2,0,P|328:260|360:300,1,80,4|0,1:2|0:0,0:0:0:0:
332,88,110305,2,0,P|328:47|296:7,1,80,0|0,1:0|1:0,0:0:0:0:
264,161,110649,5,4,1:0:0:0:
257,174,111339,2,0,P|214:190|132:110,1,155.999992858887,4|0,1:0|0:0,0:0:0:0:
51,92,112029,2,0,L|38:152,2,51.999997619629,4|0|0,1:0|0:0|0:0,0:0:0:0:
108,315,112718,2,0,L|88:202,1,103.999995239258,4|0,1:0|0:0,0:0:0:0:
233,262,113408,6,0,P|293:238|297:137,1,155.999992858887,4|0,1:0|0:0,0:0:0:0:
238,91,114098,2,0,L|176:103,1,51.999997619629,4|0,1:0|0:0,0:0:0:0:
313,31,114442,2,0,L|375:43,1,51.999997619629
422,141,114787,2,0,P|394:185|387:240,2,103.999995239258,4|0|4,1:0|0:0|1:0,0:0:0:0:
285,186,115822,1,0,0:0:0:0:
157,93,116167,6,0,P|66:110|36:170,1,155.999992858887,4|0,1:0|0:0,0:0:0:0:
93,235,116856,2,0,L|71:339,1,103.999995239258,4|0,1:0|0:0,0:0:0:0:
145,381,117373,1,0,0:0:0:0:
210,328,117546,2,0,L|186:162,1,155.999992858887,4|0,1:0|0:0,0:0:0:0:
309,109,118236,2,0,P|354:132|406:130,1,103.999995239258,4|0,1:0|0:0,0:0:0:0:
482,86,118753,1,0,0:0:0:0:
404,213,118925,6,0,P|397:242|397:273,1,51.999997619629,4|0,1:0|0:0,0:0:0:0:
322,358,119270,2,0,P|322:330|315:304,1,51.999997619629
225,219,119615,2,0,P|154:213|97:281,1,155.999992858887,4|0,1:0|0:0,0:0:0:0:
184,299,120305,1,4,1:0:0:0:
266,144,120649,2,0,L|322:134,1,51.999997619629
199,94,120994,2,0,L|88:76,1,103.999995239258,4|2,1:0|0:0,0:0:0:0:
247,26,121511,1,2,0:0:0:0:
314,70,121684,6,0,P|343:69|368:63,1,51.999997619629,4|2,1:0|0:0,0:0:0:0:
428,14,122029,1,2,0:2:0:0:
453,173,122201,1,0,0:0:0:0:
378,143,122373,1,4,1:0:0:0:
497,85,122546,1,2,0:0:0:0:
378,143,122718,2,0,P|371:170|373:203,1,51.999997619629,2|0,0:0|0:0,0:0:0:0:
248,302,123063,2,0,P|276:264|274:208,1,103.999995239258,4|2,1:0|0:0,0:0:0:0:
198,176,123580,1,2,0:0:0:0:
320,126,123753,2,0,L|328:69,1,51.999997619629,4|0,1:0|0:0,0:0:0:0:
220,29,124098,2,0,L|230:86,1,51.999997619629,2|2,0:0|0:0,0:0:0:0:
64,192,124442,6,0,P|135:134|128:76,1,155.999992858887,4|2,1:0|0:0,0:0:0:0:
64,192,125132,2,0,L|56:252,1,51.999997619629,4|0,1:0|0:0,0:0:0:0:
102,315,125477,1,2,0:0:0:0:
174,201,125649,1,0,0:0:0:0:
212,273,125822,2,0,P|237:281|269:283,1,51.999997619629,4|0,1:0|0:0,0:0:0:0:
389,192,126167,2,0,P|436:172|493:170,1,103.999995239258,0|4,0:0|1:0,0:0:0:0:
226,119,126856,2,0,P|227:95|238:64,1,51.999997619629,2|2,0:0|0:0,0:0:0:0:
279,241,127201,6,0,P|225:291|141:267,1,155.999992858887,4|2,1:0|0:0,0:0:0:0:
113,203,127891,1,4,1:0:0:0:
89,333,128063,1,0,0:0:0:0:
113,203,128236,2,0,L|168:194,1,51.999997619629,2|2,0:0|0:0,0:0:0:0:
39,157,128580,1,4,1:0:0:0:
39,157,129270,1,4,1:0:0:0:
111,90,129615,1,2,0:0:0:0:
215,121,129960,6,0,P|269:117|318:86,1,103.999995239258,4|2,1:0|0:0,0:0:0:0:
354,17,130477,1,2,0:0:0:0:
434,59,130649,2,0,L|446:113,1,51.999997619629,4|0,1:0|0:0,0:0:0:0:
359,207,130994,2,0,L|371:153,1,51.999997619629,2|2,0:0|0:0,0:0:0:0:
444,241,131339,2,0,L|470:349,1,103.999995239258,4|2,1:0|0:0,0:0:0:0:
257,270,132029,2,0,L|283:162,1,103.999995239258,4|2,1:0|0:0,0:0:0:0:
245,96,132546,1,2,0:0:0:0:
120,127,132718,1,4,1:0:0:0:
96,329,143753,6,0,P|96:286|130:234,1,103.999995239258,8|0,1:2|0:0,0:0:0:0:
176,356,144270,2,0,P|124:360|79:336,1,103.999995239258,8|0,1:2|0:0,0:0:0:0:
211,247,144787,2,0,P|226:270|232:298,1,51.999997619629,8|8,1:2|1:2,0:0:0:0:
334,211,145132,6,0,L|357:110,1,103.999995239258,12|0,1:2|0:0,0:0:0:0:
303,42,145649,2,0,L|378:112,1,103.999995239258,8|0,1:2|0:0,0:0:0:0:
230,168,146167,2,0,L|220:107,1,51.999997619629,8|8,1:2|1:2,0:0:0:0:
60,79,146511,6,0,L|54:133,2,51.999997619629,12|0|0,1:2|0:0|0:0,0:0:0:0:
107,196,147029,2,0,L|113:250,2,51.999997619629,12|0|12,1:2|0:0|1:2,0:0:0:0:
162,128,147546,1,8,1:1:0:0:
25,213,147718,1,0,0:0:0:0:
196,208,147891,6,0,P|219:215|250:216,1,51.999997619629,12|0,1:2|0:0,0:0:0:0:
364,128,148236,2,0,P|338:128|313:136,1,51.999997619629,0|12,0:0|1:2,0:0:0:0:
445,163,148580,2,0,P|468:129|470:61,1,103.999995239258,8|8,1:2|1:2,0:0:0:0:
402,23,149098,1,8,1:2:0:0:
268,84,149270,5,6,1:0:0:0:
191,57,149442,1,0,0:0:0:0:
191,57,149529,1,8,1:2:0:0:
191,57,149615,1,8,1:2:0:0:
131,172,149787,2,0,L|138:231,1,51.999997619629,2|0,1:0|0:0,0:0:0:0:
139,241,150046,1,8,1:2:0:0:
141,258,150132,1,8,1:2:0:0:
210,306,150305,1,2,1:0:0:0:
66,354,150477,1,8,1:2:0:0:
210,306,150649,5,2,1:0:0:0:
289,341,150822,1,0,0:0:0:0:
289,341,150908,1,8,1:2:0:0:
289,341,150994,1,8,1:2:0:0:
316,220,151167,1,2,1:0:0:0:
391,256,151339,2,0,L|399:295,2,25.9999988098145,0|8|8,0:0|1:2|1:2,0:0:0:0:
457,158,151684,1,2,1:0:0:0:
460,140,151770,1,8,1:2:0:0:
463,122,151856,1,0,0:0:0:0:
466,104,151942,1,8,1:2:0:0:
469,85,152029,5,6,1:0:0:0:
401,33,152201,1,2,0:1:0:0:
281,102,152373,2,0,L|294:162,1,51.999997619629,12|2,1:2|0:1,0:0:0:0:
231,212,152718,1,2,1:0:0:0:
98,178,152891,1,8,1:2:0:0:
98,178,152977,1,8,1:2:0:0:
98,178,153063,1,4,1:2:0:0:
177,143,153236,1,8,0:1:0:0:
129,306,153408,5,6,1:0:0:0:
231,212,153580,1,4,1:2:0:0:
98,178,153753,1,12,1:2:0:0:
222,306,153925,1,8,1:0:0:0:
177,143,154098,1,6,1:0:0:0:
51,260,154270,1,12,1:2:0:0:
297,266,154442,1,12,1:2:0:0:
55,342,154615,1,4,1:3:0:0:
231,212,154787,6,0,L|240:120,1,80,6|0,1:0|0:0,0:0:0:0:
400,48,155132,1,8,1:2:0:0:
300,16,155305,1,0,0:0:0:0:
376,144,155477,2,0,P|424:144|468:116,1,80,4|2,1:2|1:0,0:0:0:0:
292,104,155822,2,0,P|248:112|208:148,1,80,8|2,1:2|0:1,0:0:0:0:
192,304,156167,5,6,1:0:0:0:
264,232,156339,1,0,0:0:0:0:
92,256,156511,1,8,1:2:0:0:
100,360,156684,1,2,1:0:0:0:
168,188,156856,1,4,1:2:0:0:
68,152,157029,1,8,1:2:0:0:
192,304,157201,2,0,P|228:328|284:332,1,80,8|2,1:2|1:1,0:0:0:0:
488,248,157546,6,0,P|400:236|340:280,1,160,6|8,1:0|1:2,0:0:0:0:
428,340,158063,1,2,1:0:0:0:
456,132,158236,1,4,1:2:0:0:
360,172,158408,1,2,1:0:0:0:
428,340,158580,2,0,P|472:356|520:348,1,80,8|2,1:2|1:0,0:0:0:0:
332,272,158925,6,0,P|288:280|252:312,1,80,6|4,1:0|1:2,0:0:0:0:
332,378,159270,1,2,1:0:0:0:
428,340,159442,1,4,1:2:0:0:
272,204,159615,2,0,P|228:204|180:184,1,80,2|0,1:0|0:0,0:0:0:0:
72,72,159960,2,0,P|110:82|143:125,1,80,8|0,1:2|1:0,0:0:0:0:
104,272,160305,5,4,1:0:0:0:
36,192,160477,1,0,0:0:0:0:
216,240,160649,1,8,1:2:0:0:
184,340,160822,1,0,0:1:0:0:
140,168,160994,2,0,L|144:80,1,80,4|2,1:2|0:1,0:0:0:0:
296,32,161339,2,0,L|292:124,1,80,8|2,1:2|0:1,0:0:0:0:
216,240,161684,5,6,1:0:0:0:
140,168,161856,1,0,0:0:0:0:
324,196,162029,1,8,1:2:0:0:
304,296,162201,1,2,1:0:0:0:
232,132,162373,2,0,P|204:92|156:72,1,80,0|8,0:0|1:2,0:0:0:0:
324,196,162718,2,0,P|364:196|420:168,1,80,8|2,1:2|1:0,0:0:0:0:
216,240,163063,6,0,P|128:232|64:304,1,160,6|8,1:0|1:2,0:0:0:0:
164,332,163580,1,2,1:0:0:0:
232,132,163753,1,0,0:0:0:0:
132,156,163925,1,2,1:0:0:0:
324,196,164098,2,0,P|368:192|412:164,1,80,8|2,1:2|1:0,0:0:0:0:
316,280,164442,6,0,P|272:280|232:300,1,80,6|8,1:0|1:2,0:0:0:0:
296,384,164787,1,8,1:2:0:0:
396,348,164960,1,2,0:1:0:0:
216,360,165132,2,0,P|172:364|136:356,1,80,4|0,1:2|1:0,0:0:0:0:
0,240,165477,2,0,P|44:236|80:244,1,80,12|0,1:2|1:0,0:0:0:0:
288,180,165822,6,0,P|256:248|180:272,1,160,6|8,1:0|1:2,0:0:0:0:
188,168,166339,1,0,0:0:0:0:
360,236,166511,2,0,P|408:232|452:208,1,80,4|2,1:2|1:0,0:0:0:0:
360,68,166856,2,0,P|316:47|266:46,1,80,8|2,1:2|0:1,0:0:0:0:
188,168,167201,5,2,1:0:0:0:
288,180,167373,1,0,0:0:0:0:
152,64,167546,1,8,1:2:0:0:
84,140,167718,1,2,0:1:0:0:
256,80,167891,2,0,L|337:89,1,80,0|8,1:0|1:2,0:0:0:0:
476,224,168236,2,0,L|387:238,1,80,8|2,1:2|1:0,0:0:0:0:
256,364,168580,5,6,1:0:0:0:
156,340,168753,1,0,0:0:0:0:
304,216,168925,1,8,1:2:0:0:
380,288,169098,1,2,1:0:0:0:
208,264,169270,1,4,1:2:0:0:
268,136,169442,1,2,1:0:0:0:
288,292,169615,2,0,P|260:332|220:348,1,80,8|2,1:2|1:0,0:0:0:0:
128,240,169960,6,0,P|156:200|196:184,1,80,4|2,1:2|1:0,0:0:0:0:
288,292,170305,1,8,1:2:0:0:
156,340,170477,1,4,1:2:0:0:
304,208,170649,2,0,L|392:212,1,80,2|0,1:0|1:0,0:0:0:0:
508,80,170994,2,0,L|420:84,1,80,8|0,1:2|1:0,0:0:0:0:
268,132,171339,5,6,1:0:0:0:
292,32,171511,1,0,0:0:0:0:
176,144,171684,1,8,1:2:0:0:
304,208,171856,1,0,0:0:0:0:
204,64,172029,2,0,P|164:60|112:88,1,80,4|2,1:2|1:0,0:0:0:0:
344,140,172373,2,0,P|384:144|436:116,1,80,8|2,1:2|0:1,0:0:0:0:
304,208,172718,5,2,1:0:0:0:
268,112,172891,1,0,0:0:0:0:
412,236,173063,1,8,1:2:0:0:
332,300,173236,1,2,0:1:0:0:
408,96,173408,2,0,L|488:90,1,80,4|2,1:2|1:0,0:0:0:0:
304,208,173753,2,0,L|208:204,1,80,8|2,1:2|1:0,0:0:0:0:
152,44,174098,5,2,1:0:0:0:
244,92,174270,1,4,1:2:0:0:
64,128,174442,1,8,1:2:0:0:
72,24,174615,1,2,1:0:0:0:
144,180,174787,2,0,L|140:280,1,80,4|2,1:2|1:0,0:0:0:0:
292,340,175132,2,0,L|289:261,1,80,8|2,1:2|1:0,0:0:0:0:
404,128,175477,5,2,1:0:0:0:
442,224,175649,1,4,1:2:0:0:
287,123,175822,1,8,1:2:0:0:
345,37,175994,1,2,1:0:0:0:
346,218,176167,1,4,1:2:0:0:
242,211,176339,1,2,1:0:0:0:
404,128,176511,2,0,L|492:124,1,80,8|8,1:2|1:2,0:0:0:0:
287,123,176856,6,0,P|239:119|203:131,1,80,4|0,1:0|0:0,0:0:0:0:
123,271,177201,2,0,P|170:262|202:241,1,80,8|0,1:2|0:0,0:0:0:0:
171,75,177546,1,0,0:0:0:0:
107,159,177718,1,0,1:0:0:0:
287,123,177891,1,8,1:2:0:0:
267,23,178063,1,0,0:0:0:0:
208,184,178236,6,0,P|204:228|212:268,1,80,0|0,1:0|0:0,0:0:0:0:
360,300,178580,2,0,P|364:256|356:216,1,80,8|0,1:2|0:0,0:0:0:0:
224,368,178925,2,0,L|140:372,2,80,0|0|8,0:0|1:0|1:2,0:0:0:0:
357,221,179442,1,8,0:0:0:0:
432,336,179615,5,2,1:0:0:0:
216,244,179787,1,0,0:0:0:0:
92,360,179960,2,0,L|8:364,1,80,8|2,1:2|0:1,0:0:0:0:
144,212,180305,1,0,0:0:0:0:
56,152,180477,1,2,1:1:0:0:
156,300,180649,1,8,1:2:0:0:
232,208,180822,1,2,0:1:0:0:
64,280,180994,6,0,P|32:248|24:200,1,80,2|0,1:0|0:0,0:0:0:0:
196,100,181339,2,0,P|228:132|236:180,1,80,8|2,1:2|0:1,0:0:0:0:
156,300,181684,1,0,1:0:0:0:
196,100,181856,1,0,1:0:0:0:
262,246,182029,1,8,1:2:0:0:
93,183,182201,1,4,0:0:0:0:
296,75,182373,1,4,1:0:0:0:
262,246,182546,1,0,0:0:0:0:
345,207,182718,6,0,L|428:219,1,80,8|0,1:2|0:0,0:0:0:0:
152,176,183063,1,0,0:0:0:0:
132,72,183236,1,0,1:0:0:0:
260,184,183408,1,8,1:2:0:0:
180,252,183580,1,0,0:0:0:0:
224,84,183753,5,0,1:0:0:0:
320,124,183925,1,0,0:0:0:0:
152,176,184098,1,8,1:2:0:0:
256,260,184270,1,0,0:0:0:0:
296,48,184442,1,0,0:0:0:0:
152,100,184615,2,0,P|108:104|68:92,2,80,0|8|8,1:0|1:2|0:0,0:0:0:0:
296,48,185132,6,0,P|376:40|436:88,1,160,6|8,1:0|1:2,0:0:0:0:
372,168,185649,1,2,1:0:0:0:
496,244,185822,1,0,0:0:0:0:
512,140,185994,1,2,1:0:0:0:
364,256,186167,2,0,P|322:257|272:248,1,80,8|2,1:2|0:1,0:0:0:0:
120,200,186511,6,0,P|172:196|212:204,1,80,4|2,1:2|0:1,0:0:0:0:
104,328,186856,2,0,P|60:332|24:324,1,80,12|2,1:2|0:1,0:0:0:0:
120,200,187201,1,2,1:0:0:0:
64,49,187373,1,8,1:2:0:0:
234,128,187546,1,8,1:2:0:0:
41,184,187718,1,0,1:0:0:0:
195,253,187891,6,0,L|210:340,1,80,4|0,1:0|0:0,0:0:0:0:
120,200,188236,1,8,1:2:0:0:
98,284,188408,1,0,0:0:0:0:
284,206,188580,1,0,0:0:0:0:
241,43,188753,1,0,1:0:0:0:
361,160,188925,1,8,1:2:0:0:
172,141,189098,1,0,0:0:0:0:
353,72,189270,6,0,P|366:34|365:-9,1,80,0|0,1:0|0:0,0:0:0:0:
434,218,189615,2,0,P|433:257|446:295,1,80,8|0,1:2|0:0,0:0:0:0:
361,160,189960,1,0,0:0:0:0:
182,220,190132,1,0,1:0:0:0:
284,110,190305,1,8,1:2:0:0:
236,288,190477,1,8,1:2:0:0:
44,227,190649,6,0,L|31:137,1,80,2|0,1:0|0:0,0:0:0:0:
154,330,190994,1,8,1:2:0:0:
207,141,191167,1,2,0:1:0:0:
312,257,191339,1,0,1:2:0:0:
120,168,191511,1,2,1:0:0:0:
60,327,191684,1,8,1:2:0:0:
120,168,191856,1,2,1:0:0:0:
184,236,192029,6,0,L|274:246,1,80,2|0,1:0|0:0,0:0:0:0:
472,164,192373,2,0,L|382:174,1,80,8|2,1:2|0:1,0:0:0:0:
319,121,192718,1,4,1:2:0:0:
370,307,192891,1,2,0:1:0:0:
457,323,193063,1,12,1:2:0:0:
237,362,193236,1,0,1:0:0:0:
427,239,193408,6,0,L|506:230,1,80,4|0,1:0|0:0,0:0:0:0:
319,121,193753,2,0,L|239:129,1,80,8|0,1:2|0:0,0:0:0:0:
377,52,194098,1,0,0:0:0:0:
341,232,194270,1,0,1:0:0:0:
511,181,194442,1,8,1:2:0:0:
319,121,194615,1,0,0:0:0:0:
419,277,194787,6,0,P|417:318|402:357,1,80,0|0,1:0|0:0,0:0:0:0:
264,194,195132,1,8,1:2:0:0:
437,163,195305,1,0,0:0:0:0:
234,280,195477,1,0,0:0:0:0:
197,76,195649,1,0,1:0:0:0:
115,240,195822,2,0,P|72:238|34:219,1,80,8|8,1:2|1:2,0:0:0:0:
197,76,196167,6,0,P|280:78|311:153,1,160,6|8,1:0|1:2,0:0:0:0:
273,223,196684,1,2,1:0:0:0:
395,105,196856,2,0,L|481:120,1,80,0|2,0:0|1:0,0:0:0:0:
349,32,197201,1,8,1:2:0:0:
394,218,197373,1,8,1:2:0:0:
232,146,197546,5,4,1:2:0:0:
184,333,197718,1,2,0:1:0:0:
356,301,197891,1,12,1:2:0:0:
143,253,198063,1,2,1:0:0:0:
305,185,198236,1,8,1:2:0:0:
96,138,198408,1,2,1:2:0:0:
96,138,198494,1,2,1:2:0:0:
96,138,198580,1,10,1:2:0:0:
184,333,198753,1,2,1:2:0:0:
269,61,198925,6,0,L|358:51,1,80,4|0,1:0|0:0,0:0:0:0:
219,135,199270,1,8,1:2:0:0:
403,196,199442,2,0,P|417:236|417:280,1,80
264,353,199787,1,0,1:0:0:0:
211,281,199960,2,0,L|225:200,1,80,8|0,1:2|0:0,0:0:0:0:
72,345,200305,5,4,1:2:0:0:
110,148,200477,2,0,L|124:229,1,80,0|8,0:0|1:2,0:0:0:0:
264,353,200822,2,0,P|337:315|333:234,1,160,4|0,1:2|1:0,0:0:0:0:
186,199,201339,1,8,1:2:0:0:
363,146,201511,1,8,1:2:0:0:
446,181,201684,6,0,L|463:265,1,80,4|0,1:0|0:0,0:0:0:0:
357,62,202029,1,8,1:2:0:0:
308,225,202201,1,0,0:0:0:0:
444,96,202373,1,0,0:0:0:0:
268,137,202546,2,0,P|227:133|185:112,1,80,0|8,1:0|1:2,0:0:0:0:
145,38,202891,1,0,0:0:0:0:
61,212,203063,6,0,L|73:295,1,80,4|0,1:2|0:0,0:0:0:0:
240,331,203408,1,8,1:2:0:0:
153,184,203580,2,0,L|165:101,1,80,2|0,0:1|0:0,0:0:0:0:
212,255,203925,1,4,1:2:0:0:
81,128,204098,1,8,1:2:0:0:
22,287,204270,1,2,1:0:0:0:
81,128,204442,6,0,P|75:87|55:45,1,80,4|0,1:0|0:0,0:0:0:0:
29,203,204787,1,8,1:2:0:0:
176,127,204960,1,0,0:0:0:0:
237,188,205132,2,0,L|319:197,1,80,0|0,0:0|1:0,0:0:0:0:
207,52,205477,1,8,1:2:0:0:
156,211,205649,1,0,0:0:0:0:
315,109,205822,6,0,L|397:103,1,80,4|0,1:2|0:0,0:0:0:0:
463,161,206167,1,8,1:2:0:0:
373,318,206339,2,0,L|207:294,1,160,4|0,1:2|1:0,0:0:0:0:
281,94,206856,1,8,1:2:0:0:
113,148,207029,1,8,1:2:0:0:
313,213,207201,6,0,L|397:194,1,80,4|0,1:0|0:0,0:0:0:0:
229,178,207546,1,8,1:2:0:0:
171,330,207718,1,0,0:0:0:0:
113,148,207891,1,0,0:0:0:0:
81,228,208063,1,0,1:0:0:0:
21,71,208236,1,8,1:2:0:0:
193,112,208408,1,0,0:0:0:0:
243,39,208580,6,0,L|329:28,1,80,4|0,1:2|0:0,0:0:0:0:
441,180,208925,1,8,1:2:0:0:
371,233,209098,2,0,P|308:233|257:152,1,160,2|4,0:1|1:2,0:0:0:0:
441,180,209615,2,0,L|533:199,1,80,8|2,1:2|1:0,0:0:0:0:
373,322,209960,5,4,1:0:0:0:
344,153,210132,1,0,0:0:0:0:
185,239,210305,2,0,P|144:234|108:214,1,80,8|0,1:2|0:0,0:0:0:0:
79,52,210649,1,0,0:0:0:0:
131,123,210822,2,0,L|216:111,1,80,0|8,1:0|1:2,0:0:0:0:
75,286,211167,1,0,0:0:0:0:
245,319,211339,5,4,1:2:0:0:
206,156,211511,1,0,0:0:0:0:
155,353,211684,1,8,1:2:0:0:
281,227,211856,2,0,P|361:233|397:299,1,160,4|0,1:2|1:0,0:0:0:0:
424,99,212373,2,0,L|438:178,1,80,8|8,1:2|1:2,0:0:0:0:
341,66,212718,5,4,1:0:0:0:
281,227,212891,1,0,0:0:0:0:
228,93,213063,1,8,1:2:0:0:
362,168,213236,1,0,0:0:0:0:
171,247,213408,2,0,L|84:236,1,80,0|0,0:0|1:0,0:0:0:0:
217,172,213753,1,8,1:2:0:0:
253,359,213925,1,0,0:0:0:0:
355,245,214098,6,0,L|439:259,1,80,4|0,1:2|0:0,0:0:0:0:
274,278,214442,1,8,1:2:0:0:
331,72,214615,1,2,0:1:0:0:
369,153,214787,1,0,0:0:0:0:
155,124,214960,1,4,1:2:0:0:
331,72,215132,1,8,1:2:0:0:
155,124,215305,1,2,1:0:0:0:
202,198,215477,6,0,P|240:211|285:212,1,80,4|0,1:0|0:0,0:0:0:0:
133,344,215822,2,0,P|93:345|55:358,1,80,8|0,1:2|0:0,0:0:0:0:
221,382,216167,1,0,0:0:0:0:
279,212,216339,2,0,P|356:217|400:281,1,160,4|0,1:2|0:0,0:0:0:0:
228,289,216856,6,0,L|141:268,1,80,0|0,1:0|0:0,0:0:0:0:
300,343,217201,1,4,1:2:0:0:
216,147,217373,1,0,0:0:0:0:
134,179,217546,1,0,0:0:0:0:
336,265,217718,1,4,1:2:0:0:
421,143,217891,2,0,P|417:103|398:62,1,80,8|8,1:2|1:2,0:0:0:0:
143,21,218236,6,0,P|76:67|80:143,1,160,4|8,1:0|1:2,0:0:0:0:
271,187,218753,1,0,0:0:0:0:
325,116,218925,2,0,P|360:104|403:101,1,80,0|0,0:0|1:0,0:0:0:0:
174,282,219270,2,0,P|134:279|96:266,1,80,8|0,1:2|0:0,0:0:0:0:
67,183,219615,5,0,1:0:0:0:
35,369,219787,1,4,1:2:0:0:
194,197,219960,1,8,1:2:0:0:
0,243,220132,1,4,1:2:0:0:
244,347,220305,1,4,1:2:0:0:
173,102,220477,1,8,1:2:0:0:
104,314,220649,1,8,1:2:0:0:
392,232,220822,1,4,1:2:0:0:
67,183,220994,1,4,1:0:0:0:
