osu file format v14

[General]
AudioFilename: tidalwave.mp3
AudioLeadIn: 0
PreviewTime: 154436
Countdown: 0
SampleSet: Soft
StackLeniency: 0.7
Mode: 0
LetterboxInBreaks: 0
EpilepsyWarning: 1
WidescreenStoryboard: 1

[Editor]
Bookmarks: 299,22373,44436,66511,88574,110643,132712,154781,176850,198919,220988
DistanceSpacing: 0.5
BeatDivisor: 4
GridSize: 4
TimelineZoom: 1

[Metadata]
Title:Tidal Wave (feat. Alpines)
TitleUnicode:Tidal Wave (feat. Alpines)
Artist:Sub Focus
ArtistUnicode:Sub Focus
Creator:ExCellRaD
Version:Extra
Source:
Tags:
BeatmapID:681495
BeatmapSetID:304164

[Difficulty]
HPDrainRate:7.3
CircleSize:4.3
OverallDifficulty:8.3
ApproachRate:9.3
SliderMultiplier:2
SliderTickRate:1

[Events]
//Background and Video events
0,0,"Tidal Wave.jpg",0,0
//Break Periods
2,110843,118365
//Storyboard Layer 0 (Background)
//Storyboard Layer 1 (Fail)
//Storyboard Layer 2 (Pass)
//Storyboard Layer 3 (Foreground)
//Storyboard Sound Samples

[TimingPoints]
299,344.827586206897,4,2,0,50,1,0
22367,-142.857142857143,4,2,0,50,0,0
44436,-200,4,2,0,40,0,0
49954,-153.846153846154,4,2,0,55,0,0
55471,-125,4,2,1,70,0,0
62367,-125,4,2,1,60,0,0
63747,-111.111111111111,4,2,1,50,0,0
65126,-100,4,2,0,40,0,0
66505,-83.3333333333333,4,1,1,85,0,1
88574,-90.9090909090909,4,1,1,80,0,1
110643,-125,4,2,0,60,0,0
132712,-166.666666666666,4,2,0,60,0,0
138230,-125,4,2,0,70,0,0
143747,-100,4,2,1,70,0,0
149264,-100,4,2,1,60,0,0
150643,-90.9090909090909,4,2,1,50,0,0
152023,-83.3333333333333,4,2,0,40,0,0
153402,-76.9230769230769,4,2,0,30,0,0
154781,-71.4285714285714,4,1,1,100,0,1
176850,-76.9230769230769,4,1,1,95,0,1
198919,-100,4,2,1,85,0,1
217540,-83.3333333333333,4,2,1,90,0,1
220988,-100,4,1,0,100,0,0

[HitObjects]
256,192,30643,12,0,32712,0:0:0:0:
450,181,33402,6,0,B|430:105|336:125|336:125|253:143|235:59,1,279.999991455078
152,148,34436,6,8,L|88:116,1,69.9999978637696
120,256,34781,1,0,0:0:0:0:
231,288,34955,1,0,0:0:0:0:
200,216,35127,1,0,0:0:0:0:
328,152,35299,2,0,B|404:196|456:136|456:136|484:200,1,209.999993591309,8|0,0:0|0:0,0:0:0:0:
388,319,36161,6,0,B|340:294|323:317|323:317|304:338|264:317|264:317|223:290|198:316|198:316|178:335|123:312|123:312,1,279.999991455078
281,201,37196,1,0,0:0:0:0:
100,189,37540,2,0,P|78:124|96:56,2,139.999995727539,0|8|0,0:0|0:0|0:0,0:0:0:0:
219,300,38575,1,0,0:0:0:0:
413,64,38920,6,0,B|385:106|385:106|358:74|358:74|346:115|346:115|318:86|318:86|263:58|212:102,2,279.999991455078
288,212,40644,5,0,0:0:0:0:
317,308,40989,1,0,0:0:0:0:
374,178,41334,1,0,0:0:0:0:
191,311,41678,6,0,B|144:274|160:250|160:250|175:226|135:200|135:200|100:169|126:146|126:146|144:128|90:60,2,279.999991455078
282,115,43402,5,0,0:0:0:0:
246,213,43747,1,0,0:0:0:0:
381,127,44092,1,0,0:0:0:0:
104,293,44436,6,0,P|176:277|201:240,1,100
212,65,45126,1,0,0:0:0:0:
340,113,45471,1,0,0:0:0:0:
340,113,45816,2,0,B|373:145|328:176|328:176|348:208|394:206,2,150
89,86,47195,6,0,L|156:66,4,50
374,137,48230,1,0,0:0:0:0:
390,304,48574,6,0,B|348:276|326:302|326:302|298:326|269:302|269:302|238:317,1,150
272,58,49264,1,0,0:0:0:0:
101,131,49609,1,0,0:0:0:0:
116,235,49954,6,0,P|90:260|73:289,1,64.9999970245363
186,269,50299,2,0,P|178:304|157:332,1,64.9999970245363
221,125,50643,1,0,0:0:0:0:
349,205,50988,2,0,L|419:188,4,64.9999970245363
290,294,52023,2,0,L|251:240,2,64.9999970245363
88,325,52712,6,0,B|145:286|102:256|102:256|66:229|124:191|124:191|166:164|115:122,1,259.999988098145
280,54,53747,2,0,L|234:104,4,64.9999970245363
371,139,54781,2,0,P|392:164|425:178,1,64.9999970245363
332,204,55126,2,0,P|328:240|316:267,1,64.9999970245363
412,69,55471,6,0,P|372:61|327:80,2,80,8|0|0,0:0|0:0|0:0,0:0:0:0:
438,167,55988,1,8,0:0:0:0:
355,274,56161,2,0,P|311:232|304:209,1,80
213,272,56505,2,0,P|270:291|295:319,1,80,8|0,0:0|0:0,0:0:0:0:
237,203,56850,6,0,P|260:159|283:134,2,80,8|0|0,0:0|0:0|0:0,0:0:0:0:
80,153,57367,2,0,P|120:190|131:227,2,80,8|0|0,0:0|0:0|0:0,0:0:0:0:
175,61,57885,1,8,0:0:0:0:
175,61,58057,1,8,0:0:0:0:
175,61,58230,6,0,P|229:75|266:70,2,80,8|0|0,0:0|0:0|0:0,0:0:0:0:
96,118,58747,1,8,0:0:0:0:
157,190,58919,2,0,P|204:177|249:174,1,80
151,276,59264,2,0,P|97:245|82:217,1,80,8|0,0:0|0:0,0:0:0:0:
228,250,59609,6,0,P|241:299|233:342,2,80,8|0|0,0:0|0:0|0:0,0:0:0:0:
394,230,60126,2,0,P|354:205|300:204,2,80,8|0|0,0:0|0:0|0:0,0:0:0:0:
386,73,60643,1,8,0:0:0:0:
386,73,60816,1,8,0:0:0:0:
200,82,60988,6,0,P|233:100|243:122,4,40,8|0|0|0|0,0:0|0:0|0:0|0:0|0:0,0:0:0:0:
96,204,61505,2,0,P|76:174|80:154,4,40,8|0|0|0|0,0:0|0:0|0:0|0:0|0:0,0:0:0:0:
238,283,62023,1,8,0:0:0:0:
253,270,62109,1,0,0:0:0:0:
267,255,62195,1,0,0:0:0:0:
279,239,62281,1,0,0:0:0:0:
289,221,62367,6,0,P|295:186|293:168,4,40,8|0|0|0|0,0:0|0:0|0:0|0:0|0:0,0:0:0:0:
356,76,62885,2,0,P|385:96|391:116,4,40,8|0|0|0|0,0:0|0:0|0:0|0:0|0:0,0:0:0:0:
209,49,63402,2,0,L|189:87,1,40,8|0,0:0|0:0,0:0:0:0:
134,119,63574,2,0,L|121:179,1,40,8|0,0:0|0:0,0:0:0:0:
128,233,63747,5,8,0:0:0:0:
238,292,63919,2,0,P|266:312|297:316,2,44.999998626709
332,230,64264,1,8,0:0:0:0:
326,118,64436,1,0,0:0:0:0:
326,118,64523,1,0,0:0:0:0:
326,118,64609,1,0,0:0:0:0:
128,128,64781,1,8,0:0:0:0:
228,60,64954,1,8,0:0:0:0:
247,157,65126,6,6,L|328:73,1,100,6|2,0:0|0:0,0:0:0:0:
376,307,65471,1,2,0:0:0:0:
442,126,65643,1,2,0:0:0:0:
250,284,65816,5,6,0:0:0:0:
225,273,65902,1,0,0:0:0:0:
198,254,65988,1,2,0:0:0:0:
178,223,66074,1,0,0:0:0:0:
166,191,66161,1,6,0:0:0:0:
168,148,66247,1,0,0:0:0:0:
180,108,66333,1,6,0:0:0:0:
212,72,66419,1,0,0:0:0:0:
256,48,66505,6,0,P|329:57|386:53,1,119.999996337891,4|0,0:0|0:0,0:0:0:0:
346,230,66850,2,0,P|382:169|421:126,1,119.999996337891
150,301,67195,1,8,0:0:0:0:
318,118,67367,1,0,0:0:0:0:
273,144,67453,1,0,0:0:0:0:
226,166,67540,1,0,0:0:0:0:
456,52,67712,1,0,0:0:0:0:
446,250,67885,6,0,P|414:197|393:134,1,119.999996337891,4|0,0:0|0:0,0:0:0:0:
300,322,68230,1,0,0:0:0:0:
272,300,68316,1,0,0:0:0:0:
245,279,68402,1,0,0:0:0:0:
125,44,68574,2,0,B|159:64|185:42|185:42|215:22|239:38,1,119.999996337891,8|0,0:0|0:0,0:0:0:0:
80,144,68919,1,0,0:0:0:0:
70,172,69005,1,0,0:0:0:0:
65,201,69092,1,0,0:0:0:0:
69,230,69178,1,0,0:0:0:0:
81,257,69264,6,4,L|209:301,1,119.999996337891
263,102,69609,2,0,P|197:130|149:169,1,119.999996337891
451,61,69954,2,0,L|423:121,1,59.9999981689454,8|0,0:0|0:0,0:0:0:0:
366,157,70126,2,0,P|394:180|443:188,1,59.9999981689454
307,229,70299,2,0,P|280:206|251:196,1,59.9999981689454
203,308,70471,2,0,L|248:258,1,59.9999981689454
159,128,70643,6,4,L|115:257,1,119.999996337891
387,76,70988,1,0,0:0:0:0:
387,76,71074,1,0,0:0:0:0:
387,76,71161,1,0,0:0:0:0:
279,299,71333,2,0,P|300:260|324:247,3,59.9999981689454,8|0|0|0,0:0|0:0|0:0|0:0,0:0:0:0:
350,240,71678,1,0,0:0:0:0:
387,208,71764,1,0,0:0:0:0:
402,158,71850,1,0,0:0:0:0:
393,98,71936,1,0,0:0:0:0:
370,62,72023,6,0,P|295:85|240:87,1,119.999996337891,4|0,0:0|0:0,0:0:0:0:
143,216,72367,2,0,P|147:135|131:84,1,119.999996337891
382,299,72712,1,8,0:0:0:0:
165,302,72885,1,0,0:0:0:0:
203,329,72971,1,0,0:0:0:0:
250,337,73057,1,0,0:0:0:0:
74,190,73230,1,0,0:0:0:0:
248,100,73402,6,4,P|202:166|169:201,1,119.999996337891,4|0,0:0|0:0,0:0:0:0:
407,194,73747,1,0,0:0:0:0:
418,168,73833,1,0,0:0:0:0:
431,142,73919,1,0,0:0:0:0:
134,238,74092,2,0,B|172:218|193:247|193:247|220:276|261:255,1,119.999996337891,8|0,0:0|0:0,0:0:0:0:
157,40,74436,1,0,0:0:0:0:
136,59,74523,1,0,0:0:0:0:
127,87,74609,1,0,0:0:0:0:
129,116,74695,1,0,0:0:0:0:
141,143,74781,6,4,L|206:243,1,119.999996337891
267,94,75126,1,0,0:0:0:0:
410,123,75299,2,0,L|364:192,1,59.9999981689454,4|0,0:0|0:0,0:0:0:0:
282,327,75471,1,8,0:0:0:0:
112,255,75643,1,0,0:0:0:0:
105,54,75816,1,0,0:0:0:0:
140,80,75902,1,0,0:0:0:0:
168,120,75988,1,0,0:0:0:0:
244,233,76161,6,4,L|310:116,1,119.999996337891
67,169,76505,1,0,0:0:0:0:
67,169,76592,1,0,0:0:0:0:
67,169,76678,1,0,0:0:0:0:
279,64,76850,2,8,L|237:22,1,59.9999981689454,8|0,0:0|0:0,0:0:0:0:
361,92,77023,2,0,L|310:124,1,59.9999981689454
449,86,77195,1,0,0:0:0:0:
424,115,77281,1,0,0:0:0:0:
413,156,77367,1,0,0:0:0:0:
419,207,77454,1,0,0:0:0:0:
430,250,77540,6,0,P|368:292|306:304,1,119.999996337891,4|0,0:0|0:0,0:0:0:0:
248,112,77885,2,0,P|270:197|257:239,1,119.999996337891
80,44,78230,1,8,0:0:0:0:
124,258,78402,1,0,0:0:0:0:
97,222,78488,1,0,0:0:0:0:
92,176,78574,1,0,0:0:0:0:
283,302,78747,1,0,0:0:0:0:
413,156,78919,6,0,P|378:228|377:273,1,119.999996337891,4|0,0:0|0:0,0:0:0:0:
223,50,79264,1,0,0:0:0:0:
266,74,79350,1,0,0:0:0:0:
314,73,79436,1,0,0:0:0:0:
80,304,79609,2,0,B|103:331|139:307|139:307|172:287|194:317,1,119.999996337891,8|0,0:0|0:0,0:0:0:0:
416,264,79954,1,0,0:0:0:0:
377,279,80040,1,0,0:0:0:0:
336,269,80126,1,0,0:0:0:0:
319,230,80212,1,0,0:0:0:0:
330,189,80299,6,4,L|399:91,1,119.999996337891
169,85,80643,2,0,P|122:128|103:185,1,119.999996337891,0|4,0:0|0:0,0:0:0:0:
394,59,80988,2,0,L|326:52,1,59.9999981689454,8|0,0:0|0:0,0:0:0:0:
256,122,81161,2,0,L|311:178,1,59.9999981689454
246,239,81333,2,0,L|180:223,1,59.9999981689454
90,234,81505,2,0,L|60:287,1,59.9999981689454
73,143,81678,6,0,L|184:200,1,119.999996337891
260,31,82023,1,0,0:0:0:0:
260,31,82109,1,0,0:0:0:0:
260,31,82195,1,0,0:0:0:0:
426,211,82367,2,0,P|436:246|408:269,3,59.9999981689454,8|0|0|0,0:0|0:0|0:0|0:0,0:0:0:0:
396,287,82712,1,0,0:0:0:0:
353,290,82799,1,0,0:0:0:0:
313,275,82885,1,0,0:0:0:0:
289,240,82971,1,0,0:0:0:0:
282,198,83057,6,0,P|262:146|210:102,1,119.999996337891,4|0,0:0|0:0,0:0:0:0:
83,276,83402,2,0,P|153:244|191:199,1,119.999996337891
458,190,83747,1,8,0:0:0:0:
258,83,83919,1,0,0:0:0:0:
303,86,84005,1,0,0:0:0:0:
349,77,84092,1,0,0:0:0:0:
110,44,84264,1,0,0:0:0:0:
160,253,84436,6,0,P|204:201|220:140,1,119.999996337891,4|0,0:0|0:0,0:0:0:0:
397,322,84781,1,0,0:0:0:0:
368,282,84867,1,0,0:0:0:0:
327,253,84954,1,0,0:0:0:0:
371,33,85126,2,0,B|382:64|341:78|341:78|304:93|319:125,1,119.999996337891,8|0,0:0|0:0,0:0:0:0:
78,192,85471,1,0,0:0:0:0:
106,205,85557,1,0,0:0:0:0:
139,218,85643,1,0,0:0:0:0:
167,230,85730,1,0,0:0:0:0:
201,239,85816,6,4,L|315:195,1,119.999996337891
120,34,86161,2,0,P|170:77|238:91,1,119.999996337891,0|4,0:0|0:0,0:0:0:0:
458,225,86505,1,8,0:0:0:0:
300,71,86678,1,0,0:0:0:0:
342,80,86764,1,0,0:0:0:0:
385,59,86850,1,0,0:0:0:0:
167,146,87023,1,0,0:0:0:0:
101,304,87195,6,0,L|227:275,1,119.999996337891
463,220,87540,1,8,0:0:0:0:
232,183,87712,1,0,0:0:0:0:
74,36,87885,2,8,B|112:36|112:71|112:71|113:102|161:102,1,119.999996337891,8|8,0:0|0:0,0:0:0:0:
400,45,88230,1,0,0:0:0:0:
364,79,88316,1,0,0:0:0:0:
327,113,88402,1,0,0:0:0:0:
291,144,88488,1,0,0:0:0:0:
253,173,88574,6,4,P|205:201|245:225,1,110.000003356934,4|0,0:0|0:0,0:0:0:0:
424,104,88919,2,0,P|464:92|428:60,1,110.000003356934
152,64,89264,1,8,0:0:0:0:
136,284,89436,1,0,0:0:0:0:
116,244,89523,1,0,0:0:0:0:
124,196,89609,1,0,0:0:0:0:
320,328,89781,1,0,0:0:0:0:
332,56,89954,6,0,B|336:92|336:92|340:124|311:123|311:123|282:122|280:164|280:164|280:200|245:193|245:193|216:184,1,220.000006713867
440,228,90471,1,0,0:0:0:0:
144,300,90643,2,0,P|200:312|272:296,1,110.000003356934,8|0,0:0|0:0,0:0:0:0:
383,138,90988,2,0,L|363:194,1,55.0000016784668
227,154,91161,2,0,L|281:155,1,55.0000016784668
312,232,91333,6,0,P|344:296|396:292,2,110.000003356934,4|4|0,0:0|0:0|0:0,0:0:0:0:
96,202,91850,2,0,P|131:183|167:178,1,55.0000016784668,4|0,0:0|0:0,0:0:0:0:
392,79,92023,1,8,0:0:0:0:
216,59,92195,1,0,0:0:0:0:
331,233,92367,1,0,0:0:0:0:
72,92,92540,2,0,P|104:96|136:84,1,55.0000016784668
228,40,92712,6,0,P|248:104|280:132,2,110.000003356934,4|4|0,0:0|0:0|0:0,0:0:0:0:
152,304,93230,1,4,0:0:0:0:
128,260,93316,1,0,0:0:0:0:
128,208,93402,2,0,P|192:184|276:192,1,110.000003356934,8|0,0:0|0:0,0:0:0:0:
464,220,93747,1,4,0:0:0:0:
440,248,93833,1,0,0:0:0:0:
402,269,93919,1,0,0:0:0:0:
360,272,94005,1,0,0:0:0:0:
316,262,94092,6,0,B|253:212|265:178|265:178|295:117|360:192|363:99,1,220.000006713867,4|0,0:0|0:0,0:0:0:0:
136,66,94609,1,0,0:0:0:0:
283,334,94781,1,8,0:0:0:0:
118,187,94954,1,0,0:0:0:0:
133,228,95040,1,0,0:0:0:0:
170,259,95126,1,0,0:0:0:0:
394,279,95299,1,0,0:0:0:0:
295,39,95471,6,0,P|243:53|281:85,1,110.000003356934,4|0,0:0|0:0,0:0:0:0:
390,164,95816,2,0,P|414:197|361:195,1,110.000003356934
89,81,96161,1,8,0:0:0:0:
184,302,96333,1,0,0:0:0:0:
170,259,96419,1,0,0:0:0:0:
184,217,96505,1,0,0:0:0:0:
327,99,96678,1,0,0:0:0:0:
390,309,96850,6,0,P|337:288|301:251,2,110.000003356934,4|4|0,0:0|0:0|0:0,0:0:0:0:
284,60,97367,1,4,0:0:0:0:
260,100,97454,1,0,0:0:0:0:
227,130,97540,1,8,0:0:0:0:
113,299,97712,1,0,0:0:0:0:
346,159,97885,1,0,0:0:0:0:
86,165,98057,1,0,0:0:0:0:
43,142,98143,1,0,0:0:0:0:
40,93,98230,6,0,P|88:53|159:49,2,110.000003356934,4|4|0,0:0|0:0|0:0,0:0:0:0:
234,221,98747,1,0,0:0:0:0:
203,224,98833,1,0,0:0:0:0:
176,227,98919,2,8,P|129:238|58:297,1,110.000003356934,8|0,0:0|0:0,0:0:0:0:
389,84,99264,1,4,0:0:0:0:
371,122,99350,1,0,0:0:0:0:
368,165,99436,1,0,0:0:0:0:
378,207,99523,1,0,0:0:0:0:
398,241,99609,6,0,P|425:279|378:265,1,110.000003356934,4|0,0:0|0:0,0:0:0:0:
184,182,99954,2,0,P|203:223|223:170,1,110.000003356934
456,39,100299,1,8,0:0:0:0:
246,105,100471,1,0,0:0:0:0:
272,66,100557,1,0,0:0:0:0:
310,37,100643,1,0,0:0:0:0:
233,249,100816,1,0,0:0:0:0:
119,72,100988,6,0,B|97:86|97:86|74:101|115:122|115:122|142:147|107:171|107:171|86:185|109:213|109:213|133:236,1,220.000006713867,4|0,0:0|0:0,0:0:0:0:
317,129,101505,1,0,0:0:0:0:
70,319,101678,2,0,P|147:338|197:339,1,110.000003356934,8|0,0:0|0:0,0:0:0:0:
392,240,102023,1,0,0:0:0:0:
360,272,102109,1,0,0:0:0:0:
344,316,102195,1,0,0:0:0:0:
420,81,102367,6,0,P|442:137|446:191,2,110.000003356934,4|4|0,0:0|0:0|0:0,0:0:0:0:
152,67,102885,1,4,0:0:0:0:
195,93,102971,1,0,0:0:0:0:
246,102,103057,1,8,0:0:0:0:
128,298,103230,1,0,0:0:0:0:
337,160,103402,1,0,0:0:0:0:
88,160,103574,2,0,P|128:180|152:185,1,55.0000016784668
248,225,103747,6,0,P|297:267|312:319,2,110.000003356934,4|4|0,0:0|0:0|0:0,0:0:0:0:
437,111,104264,1,4,0:0:0:0:
393,90,104350,1,0,0:0:0:0:
345,73,104436,2,0,P|269:64|218:66,1,110.000003356934,8|0,0:0|0:0,0:0:0:0:
76,296,104781,1,4,0:0:0:0:
120,280,104867,1,0,0:0:0:0:
152,248,104954,1,0,0:0:0:0:
180,208,105040,1,0,0:0:0:0:
204,168,105126,6,0,P|245:134|229:177,1,110.000003356934,4|0,0:0|0:0,0:0:0:0:
437,206,105471,2,0,P|395:218|438:244,1,110.000003356934
237,35,105816,1,8,0:0:0:0:
114,199,105988,1,0,0:0:0:0:
96,155,106074,1,0,0:0:0:0:
93,110,106161,1,0,0:0:0:0:
236,275,106333,1,0,0:0:0:0:
349,87,106505,6,0,P|291:136|278:177,1,110.000003356934,4|0,0:0|0:0,0:0:0:0:
424,332,106850,2,0,P|367:256|319:249,1,110.000003356934
79,234,107195,1,8,0:0:0:0:
204,53,107367,1,0,0:0:0:0:
224,95,107454,1,0,0:0:0:0:
260,133,107540,1,0,0:0:0:0:
456,231,107712,1,0,0:0:0:0:
349,50,107885,6,0,P|402:89|421:138,2,110.000003356934,4|4|0,0:0|0:0|0:0,0:0:0:0:
119,138,108402,1,4,0:0:0:0:
119,138,108488,1,0,0:0:0:0:
119,138,108574,2,0,L|210:209,1,110.000003356934,8|0,0:0|0:0,0:0:0:0:
385,333,108919,1,0,0:0:0:0:
398,104,109264,6,4,L|297:51,1,110.000003356934
80,197,109609,1,0,0:0:0:0:
315,314,109781,1,4,0:0:0:0:
297,57,109954,5,8,0:0:0:0:
245,70,110040,1,0,0:0:0:0:
219,111,110126,1,0,0:0:0:0:
229,148,110212,1,0,0:0:0:0:
259,182,110299,1,4,0:0:0:0:
275,230,110385,1,0,0:0:0:0:
250,271,110471,1,0,0:0:0:0:
213,300,110557,1,0,0:0:0:0:
169,297,110643,1,0,0:0:0:0:
256,192,118919,12,0,120988,0:0:0:0:
216,85,121678,6,0,L|123:111,4,80
216,180,122540,1,0,0:0:0:0:
408,248,122712,5,0,0:0:0:0:
376,160,122885,1,0,0:0:0:0:
392,48,123057,2,0,P|316:88|219:99,1,160
94,100,123574,1,0,0:0:0:0:
129,253,124092,1,0,0:0:0:0:
264,316,124436,6,0,B|278:319|278:319|277:306|277:306|289:315|289:315|288:302|288:302|300:311|300:311|300:298|300:298|311:307|311:307|311:294|311:294|323:302|323:302|322:290|322:290|334:298|334:298|334:286|334:286|345:294|345:294|345:282|345:282|356:290|356:290|356:278|356:278|368:286|368:286|367:273|367:273|379:282|379:282|379:268|379:268|390:278|390:278|385:263|385:263|400:270|400:270|386:254|386:254|404:256|404:256|387:245|387:245|403:243|403:243|387:232|387:232|398:228|398:228|382:221|382:221|394:217|394:217|378:210|378:210|390:206|390:206|374:199|374:199|380:188|380:188,1,480
356,112,125643,1,0,0:0:0:0:
90,120,125816,2,0,L|169:94,1,80
242,70,126161,1,0,0:0:0:0:
389,219,126505,1,0,0:0:0:0:
173,268,126850,1,0,0:0:0:0:
159,69,127195,6,0,B|152:95|178:105|178:105|221:127|199:158|199:158|173:187|206:201|206:201|251:216|230:249|230:249|199:280|232:303|232:303|263:323,2,320
346,197,128919,1,0,0:0:0:0:
294,40,129264,1,0,0:0:0:0:
145,181,129609,1,0,0:0:0:0:
244,262,129954,6,0,L|329:232,6,80
248,156,131161,1,0,0:0:0:0:
104,102,131333,6,0,L|147:176,6,80
200,108,132540,1,0,0:0:0:0:
294,78,132712,6,0,P|335:101|370:95,2,59.9999981689454
432,100,133230,1,0,0:0:0:0:
352,216,133402,1,0,0:0:0:0:
184,320,133747,5,0,0:0:0:0:
116,194,134092,2,0,B|123:192|123:192|145:175|145:175|136:197|136:197|149:181|190:175|190:175|200:145|241:128,1,179.999994506836
287,32,134781,1,0,0:0:0:0:
384,144,135126,6,0,B|371:155|371:155|403:161|403:161|375:171|375:171|404:177|404:177|386:184|386:184|341:191|329:216|329:216|266:222,1,239.999992675781
131,262,135988,2,0,L|99:198,2,59.9999981689454
285,220,136505,1,0,0:0:0:0:
170,115,136850,6,0,B|185:74|232:78|232:78|249:147|311:115|311:115,1,179.999994506836
410,76,137540,1,0,0:0:0:0:
363,263,137885,1,0,0:0:0:0:
147,317,138230,6,0,L|64:286,1,80
105,204,138574,2,0,L|190:207,1,80
217,114,138919,2,0,P|172:109|134:86,1,80
211,33,139264,5,0,0:0:0:0:
211,33,139609,2,0,B|248:25|248:25|241:44|241:44|260:31|260:31|256:47|256:47|301:89|357:67|357:67|377:113,1,240
449,32,140299,1,0,0:0:0:0:
412,227,140643,6,0,B|351:299|267:271|267:271|191:248|119:328,1,320
97,162,141678,2,0,L|159:221,1,80
320,207,142023,2,0,L|218:199,1,80
143,58,142367,6,0,P|237:62|162:138,1,240
104,121,143057,1,0,0:0:0:0:
278,189,143402,1,0,0:0:0:0:
420,41,143747,6,0,P|364:47|318:71,2,100,8|0|0,0:0|0:0|0:0,0:0:0:0:
439,169,144264,1,8,0:0:0:0:
343,254,144437,2,0,P|299:212|290:175,1,100,0|0,0:0|0:0,0:0:0:0:
204,263,144781,2,0,P|261:282|294:316,1,100,8|0,0:0|0:0,0:0:0:0:
212,70,145126,6,0,P|207:125|219:167,2,100,8|0|0,0:0|0:0|0:0,0:0:0:0:
127,168,145643,2,0,P|98:114|67:88,2,100,8|0|0,0:0|0:0|0:0,0:0:0:0:
294,110,146161,1,8,0:0:0:0:
294,110,146333,1,8,0:0:0:0:
294,110,146505,6,0,P|349:151|391:165,2,100,8|0|0,0:0|0:0|0:0,0:0:0:0:
347,255,147023,1,8,0:0:0:0:
192,287,147195,2,0,P|227:234|259:217,1,100
158,106,147540,2,0,P|165:168|150:204,1,100,8|0,0:0|0:0,0:0:0:0:
76,286,147885,6,0,P|129:335|179:343,2,100,8|0|0,0:0|0:0|0:0,0:0:0:0:
168,177,148402,2,0,P|178:226|148:280,2,100,8|0|0,0:0|0:0|0:0,0:0:0:0:
325,117,148919,1,8,0:0:0:0:
325,117,149092,1,8,0:0:0:0:
325,117,149264,6,0,P|374:121|386:138,4,50,8|0|0|0|0,0:0|0:0|0:0|0:0|0:0,0:0:0:0:
164,250,149781,5,8,0:0:0:0:
164,250,149867,1,0,0:0:0:0:
164,250,149954,1,0,0:0:0:0:
164,250,150040,1,0,0:0:0:0:
164,250,150126,1,0,0:0:0:0:
140,40,150299,6,0,L|191:47,1,50,8|0,0:0|0:0,0:0:0:0:
172,156,150471,2,0,L|129:128,1,50
252,108,150643,6,0,P|261:87|258:45,4,55.0000016784668,8|0|0|0|0,0:0|0:0|0:0|0:0|0:0,0:0:0:0:
327,255,151161,5,8,0:0:0:0:
349,237,151247,1,0,0:0:0:0:
370,219,151333,1,0,0:0:0:0:
390,200,151419,1,0,0:0:0:0:
412,184,151505,1,0,0:0:0:0:
328,36,151678,6,0,L|289:84,1,55.0000016784668,8|0,0:0|0:0,0:0:0:0:
259,178,151850,2,0,L|199:159,1,55.0000016784668,8|0,0:0|0:0,0:0:0:0:
103,231,152023,6,0,L|151:277,1,59.9999981689454,8|0,0:0|0:0,0:0:0:0:
206,320,152195,1,0,0:0:0:0:
139,97,152367,1,0,0:0:0:0:
306,85,152540,6,0,L|365:125,1,59.9999981689454,8|0,0:0|0:0,0:0:0:0:
439,173,152712,1,0,0:0:0:0:
316,337,152885,1,0,0:0:0:0:
158,171,153057,5,8,0:0:0:0:
190,200,153143,1,0,0:0:0:0:
231,227,153230,1,0,0:0:0:0:
281,251,153316,1,0,0:0:0:0:
337,260,153402,6,0,L|444:180,1,129.999994049073
263,33,153747,1,0,0:0:0:0:
195,308,153919,1,0,0:0:0:0:
449,209,154092,5,8,0:0:0:0:
412,192,154178,1,0,0:0:0:0:
370,168,154264,1,8,0:0:0:0:
319,166,154350,1,0,0:0:0:0:
277,191,154436,1,4,0:0:0:0:
224,207,154523,1,0,0:0:0:0:
168,196,154609,1,4,0:0:0:0:
126,155,154695,1,0,0:0:0:0:
73,76,154781,6,0,P|140:124|212:147,1,139.999995727539,4|0,0:0|0:0,0:0:0:0:
440,124,155126,2,0,P|370:181|352:240,1,139.999995727539,8|0,0:0|0:0,0:0:0:0:
119,223,155471,1,0,0:0:0:0:
369,310,155643,1,4,0:0:0:0:
325,333,155730,1,0,0:0:0:0:
276,325,155816,1,8,0:0:0:0:
361,111,155988,1,0,0:0:0:0:
148,34,156161,6,0,P|213:69|262:127,1,139.999995727539,4|0,0:0|0:0,0:0:0:0:
170,298,156505,1,8,0:0:0:0:
135,305,156592,1,0,0:0:0:0:
105,314,156678,1,0,0:0:0:0:
407,231,156850,2,0,P|343:191|312:129,1,139.999995727539,0|4,0:0|0:0,0:0:0:0:
457,45,157195,1,8,0:0:0:0:
422,88,157281,1,0,0:0:0:0:
379,121,157367,1,4,0:0:0:0:
327,136,157454,1,0,0:0:0:0:
276,141,157540,6,0,B|254:140|254:140|238:120|238:120|215:112|215:112|211:91|211:91|196:73|196:73|199:48|199:48|194:28,1,139.999995727539,4|0,0:0|0:0,0:0:0:0:
54,302,157885,2,8,L|76:231,1,69.9999978637696,8|0,0:0|0:0,0:0:0:0:
192,298,158057,2,0,L|260:337,1,69.9999978637696
153,153,158230,2,0,L|202:223,1,69.9999978637696
359,254,158402,2,0,L|279:259,1,69.9999978637696,4|0,0:0|0:0,0:0:0:0:
441,187,158574,1,8,0:0:0:0:
273,40,158747,1,0,0:0:0:0:
67,129,158919,6,0,P|146:123|223:142,1,139.999995727539,4|0,0:0|0:0,0:0:0:0:
443,283,159264,2,0,P|330:286|281:266,1,139.999995727539,8|0,0:0|0:0,0:0:0:0:
116,64,159609,1,0,0:0:0:0:
163,62,159695,1,0,0:0:0:0:
207,77,159781,1,4,0:0:0:0:
242,109,159867,1,0,0:0:0:0:
270,146,159954,1,8,0:0:0:0:
294,187,160040,1,0,0:0:0:0:
328,219,160126,1,4,0:0:0:0:
376,222,160212,1,0,0:0:0:0:
412,104,160299,6,0,P|440:200|432:256,1,139.999995727539,4|0,0:0|0:0,0:0:0:0:
120,244,160643,2,0,P|200:236|252:184,1,139.999995727539,8|0,0:0|0:0,0:0:0:0:
86,38,160988,1,0,0:0:0:0:
360,148,161161,1,4,0:0:0:0:
320,112,161247,1,0,0:0:0:0:
304,64,161333,1,8,0:0:0:0:
429,311,161505,1,0,0:0:0:0:
148,304,161678,6,0,P|213:268|284:263,1,139.999995727539,4|0,0:0|0:0,0:0:0:0:
463,35,162023,1,8,0:0:0:0:
448,46,162109,1,0,0:0:0:0:
430,57,162195,1,0,0:0:0:0:
346,268,162367,1,0,0:0:0:0:
210,41,162540,1,4,0:0:0:0:
455,198,162712,1,8,0:0:0:0:
406,173,162799,1,0,0:0:0:0:
351,159,162885,1,4,0:0:0:0:
297,164,162971,1,0,0:0:0:0:
246,179,163057,6,0,P|221:191|137:272,1,139.999995727539,4|0,0:0|0:0,0:0:0:0:
340,61,163402,1,8,0:0:0:0:
150,180,163574,1,0,0:0:0:0:
414,290,163747,2,0,P|341:231|340:167,1,139.999995727539,0|4,0:0|0:0,0:0:0:0:
210,87,164092,1,8,0:0:0:0:
264,128,164178,1,0,0:0:0:0:
331,139,164264,1,0,0:0:0:0:
151,293,164436,6,0,P|253:280|313:287,1,139.999995727539,4|0,0:0|0:0,0:0:0:0:
366,50,164781,2,0,P|288:95|257:139,1,139.999995727539,8|0,0:0|0:0,0:0:0:0:
465,150,165126,1,0,0:0:0:0:
417,155,165212,1,0,0:0:0:0:
376,185,165299,1,4,0:0:0:0:
345,220,165385,1,0,0:0:0:0:
311,251,165471,1,8,0:0:0:0:
259,262,165557,1,0,0:0:0:0:
214,246,165643,1,4,0:0:0:0:
178,205,165730,1,0,0:0:0:0:
143,86,165816,6,0,P|198:131|275:159,1,139.999995727539,4|0,0:0|0:0,0:0:0:0:
88,303,166161,2,0,P|57:218|66:146,1,139.999995727539,8|0,0:0|0:0,0:0:0:0:
290,91,166505,1,0,0:0:0:0:
201,301,166678,1,4,0:0:0:0:
241,331,166764,1,0,0:0:0:0:
295,341,166850,1,8,0:0:0:0:
136,131,167023,1,0,0:0:0:0:
407,138,167195,6,0,P|339:98|296:46,1,139.999995727539,4|0,0:0|0:0,0:0:0:0:
363,282,167540,1,8,0:0:0:0:
392,271,167626,1,0,0:0:0:0:
422,264,167712,1,0,0:0:0:0:
161,218,167885,2,0,P|215:252|271:314,1,139.999995727539,0|4,0:0|0:0,0:0:0:0:
269,53,168230,1,8,0:0:0:0:
227,62,168316,1,0,0:0:0:0:
219,106,168402,1,4,0:0:0:0:
179,122,168488,1,0,0:0:0:0:
166,171,168574,6,0,B|164:188|164:188|157:201|157:201|164:213|164:213|157:225|157:225|165:237|165:237|163:248|163:248|174:255|174:255|179:268|179:268|193:271|193:271|203:277|203:277|216:273,1,139.999995727539,4|0,0:0|0:0,0:0:0:0:
462,147,168919,2,0,L|431:77,1,69.9999978637696,8|0,0:0|0:0,0:0:0:0:
321,226,169092,2,0,L|378:265,1,69.9999978637696
321,72,169264,2,0,L|258:150,1,69.9999978637696
208,269,169436,2,0,L|150:206,1,69.9999978637696,4|0,0:0|0:0,0:0:0:0:
108,72,169609,1,8,0:0:0:0:
287,286,169781,1,0,0:0:0:0:
419,131,169954,6,0,P|392:208|396:277,1,139.999995727539,4|0,0:0|0:0,0:0:0:0:
148,126,170299,2,0,P|236:149|305:201,1,139.999995727539,8|0,0:0|0:0,0:0:0:0:
109,291,170643,2,0,L|162:336,1,69.9999978637696
346,305,170816,2,0,L|266:325,1,69.9999978637696,4|0,0:0|0:0,0:0:0:0:
166,239,170988,1,8,0:0:0:0:
185,189,171074,1,0,0:0:0:0:
217,149,171161,1,0,0:0:0:0:
268,125,171247,1,0,0:0:0:0:
348,164,171333,6,0,P|366:93|364:20,1,139.999995727539,4|0,0:0|0:0,0:0:0:0:
96,108,171678,2,0,P|172:116|240:152,1,139.999995727539,8|0,0:0|0:0,0:0:0:0:
424,280,172023,1,0,0:0:0:0:
154,265,172195,1,4,0:0:0:0:
196,235,172281,1,0,0:0:0:0:
251,230,172367,1,8,0:0:0:0:
232,40,172540,1,0,0:0:0:0:
380,224,172712,6,0,P|412:128|436:100,1,139.999995727539,4|0,0:0|0:0,0:0:0:0:
147,86,173057,1,8,0:0:0:0:
169,70,173143,1,0,0:0:0:0:
193,55,173230,1,0,0:0:0:0:
103,295,173402,2,0,P|136:234|196:198,1,139.999995727539,0|4,0:0|0:0,0:0:0:0:
414,84,173747,1,8,0:0:0:0:
399,121,173833,1,0,0:0:0:0:
371,158,173919,1,4,0:0:0:0:
324,172,174005,1,0,0:0:0:0:
270,177,174092,6,0,P|198:164|106:188,1,139.999995727539,4|0,0:0|0:0,0:0:0:0:
313,66,174436,1,8,0:0:0:0:
172,309,174609,1,0,0:0:0:0:
206,164,174781,2,0,P|285:185|344:239,1,139.999995727539,0|4,0:0|0:0,0:0:0:0:
421,36,175126,1,8,0:0:0:0:
366,78,175212,1,0,0:0:0:0:
326,135,175299,1,0,0:0:0:0:
208,270,175471,6,0,P|322:258|368:266,1,139.999995727539,4|0,0:0|0:0,0:0:0:0:
256,48,175816,2,0,P|218:117|159:152,1,139.999995727539,8|0,0:0|0:0,0:0:0:0:
408,284,176161,1,0,0:0:0:0:
363,273,176247,1,0,0:0:0:0:
326,243,176333,1,4,0:0:0:0:
313,193,176419,1,0,0:0:0:0:
293,148,176505,1,8,0:0:0:0:
253,119,176592,1,0,0:0:0:0:
204,113,176678,1,4,0:0:0:0:
158,131,176764,1,0,0:0:0:0:
128,167,176850,6,0,L|58:285,1,129.999994049073,4|0,0:0|0:0,0:0:0:0:
250,188,177195,2,0,L|320:59,1,129.999994049073,8|0,0:0|0:0,0:0:0:0:
292,319,177540,1,0,0:0:0:0:
440,116,177712,1,4,0:0:0:0:
408,148,177799,1,0,0:0:0:0:
362,159,177885,1,8,0:0:0:0:
139,84,178057,1,0,0:0:0:0:
62,266,178230,6,0,B|126:196|169:276|169:276|236:246,1,194.999991073609,4|0,0:0|0:0,0:0:0:0:
311,208,178574,1,8,0:0:0:0:
109,89,178747,1,0,0:0:0:0:
326,59,178919,2,0,P|254:99|227:142,1,129.999994049073,0|4,0:0|0:0,0:0:0:0:
118,292,179264,2,0,L|171:332,1,64.9999970245363,8|0,0:0|0:0,0:0:0:0:
293,235,179436,2,0,L|253:291,1,64.9999970245363,4|0,0:0|0:0,0:0:0:0:
411,214,179609,6,0,P|420:290|301:313,1,194.999991073609,4|0,0:0|0:0,0:0:0:0:
215,278,179954,1,8,0:0:0:0:
254,47,180126,1,0,0:0:0:0:
206,59,180212,1,0,0:0:0:0:
165,85,180299,1,0,0:0:0:0:
182,302,180471,1,4,0:0:0:0:
366,110,180643,2,0,P|306:155|249:179,1,129.999994049073,8|0,0:0|0:0,0:0:0:0:
87,76,180988,6,0,B|134:135|72:183|72:183|134:235,1,194.999991073609,4|0,0:0|0:0,0:0:0:0:
198,282,181333,1,8,0:0:0:0:
337,87,181506,1,0,0:0:0:0:
343,118,181592,1,0,0:0:0:0:
346,144,181678,2,0,P|322:216|360:292,1,129.999994049073,0|4,0:0|0:0,0:0:0:0:
107,303,182023,1,8,0:0:0:0:
119,254,182109,1,0,0:0:0:0:
146,214,182195,1,4,0:0:0:0:
185,182,182281,1,0,0:0:0:0:
273,188,182367,6,0,P|337:206|453:188,1,129.999994049073,4|0,0:0|0:0,0:0:0:0:
180,44,182712,2,0,P|121:106|98:150,1,129.999994049073,8|0,0:0|0:0,0:0:0:0:
261,324,183057,1,0,0:0:0:0:
366,87,183230,1,4,0:0:0:0:
332,123,183316,1,0,0:0:0:0:
318,167,183402,1,8,0:0:0:0:
87,47,183574,1,0,0:0:0:0:
138,273,183747,6,0,P|182:238|242:167,1,129.999994049073,4|0,0:0|0:0,0:0:0:0:
458,104,184092,1,8,0:0:0:0:
401,294,184264,1,0,0:0:0:0:
374,268,184350,1,0,0:0:0:0:
346,243,184436,2,0,P|282:227|219:249,1,129.999994049073,0|4,0:0|0:0,0:0:0:0:
138,40,184781,2,0,L|209:73,1,64.9999970245363,8|0,0:0|0:0,0:0:0:0:
262,155,184954,2,0,L|296:88,1,64.9999970245363,4|0,0:0|0:0,0:0:0:0:
408,170,185126,6,0,P|320:195|338:279,1,194.999991073609,4|0,0:0|0:0,0:0:0:0:
403,335,185471,1,8,0:0:0:0:
164,249,185643,1,0,0:0:0:0:
208,229,185730,1,0,0:0:0:0:
228,186,185816,1,0,0:0:0:0:
89,90,185988,1,4,0:0:0:0:
374,56,186161,2,0,P|304:70|252:108,1,129.999994049073,8|0,0:0|0:0,0:0:0:0:
76,253,186505,6,0,P|134:311|129:208,1,194.999991073609,4|0,0:0|0:0,0:0:0:0:
267,55,186850,2,0,P|189:74|110:157,1,194.999991073609,8|0,0:0|0:0,0:0:0:0:
330,265,187195,2,0,B|271:238|271:238|345:195,1,129.999994049073,0|4,0:0|0:0,0:0:0:0:
443,72,187540,1,8,0:0:0:0:
396,72,187626,1,0,0:0:0:0:
351,83,187712,1,4,0:0:0:0:
308,105,187799,1,0,0:0:0:0:
228,139,187885,6,0,P|138:117|94:81,1,129.999994049073,4|0,0:0|0:0,0:0:0:0:
272,299,188230,2,0,P|301:203|338:162,1,129.999994049073,8|0,0:0|0:0,0:0:0:0:
128,303,188574,1,0,0:0:0:0:
401,192,188747,1,4,0:0:0:0:
352,191,188833,1,0,0:0:0:0:
306,172,188919,1,8,0:0:0:0:
132,70,189092,1,0,0:0:0:0:
391,45,189264,6,0,B|297:50|318:129|318:129|259:160,1,194.999991073609
184,202,189608,1,8,0:0:0:0:
326,296,189781,1,0,0:0:0:0:
133,59,189953,2,0,P|172:112|232:142,1,129.999994049073
422,179,190298,2,8,L|462:232,1,64.9999970245363
343,240,190470,2,0,L|276:219,1,64.9999970245363
185,290,190643,6,0,P|92:315|111:246,1,194.999991073609,4|0,0:0|0:0,0:0:0:0:
147,182,190988,1,8,0:0:0:0:
380,71,191161,1,0,0:0:0:0:
340,97,191247,1,0,0:0:0:0:
291,105,191333,1,0,0:0:0:0:
62,143,191505,1,4,0:0:0:0:
283,313,191678,2,0,P|279:243|312:188,1,129.999994049073,8|0,0:0|0:0,0:0:0:0:
136,37,192023,6,0,B|237:45|178:123|178:123|232:169,1,194.999991073609,4|0,0:0|0:0,0:0:0:0:
294,206,192367,1,8,0:0:0:0:
102,308,192540,1,0,0:0:0:0:
103,278,192626,1,0,0:0:0:0:
116,247,192712,2,0,P|165:187|224:154,1,129.999994049073,0|4,0:0|0:0,0:0:0:0:
460,73,193057,1,8,0:0:0:0:
422,98,193143,1,0,0:0:0:0:
431,139,193230,1,4,0:0:0:0:
391,167,193316,1,0,0:0:0:0:
384,212,193402,6,0,P|337:267|282:299,1,129.999994049073,4|0,0:0|0:0,0:0:0:0:
175,54,193747,2,0,P|237:95|269:154,1,129.999994049073,8|0,0:0|0:0,0:0:0:0:
44,192,194092,1,0,0:0:0:0:
288,291,194264,1,4,0:0:0:0:
237,306,194350,1,0,0:0:0:0:
198,335,194436,1,8,0:0:0:0:
310,99,194609,1,0,0:0:0:0:
68,116,194781,6,0,P|163:129|201:150,1,129.999994049073,4|0,0:0|0:0,0:0:0:0:
416,259,195126,1,8,0:0:0:0:
143,266,195298,1,0,0:0:0:0:
192,248,195385,1,0,0:0:0:0:
228,210,195471,2,0,P|268:164|303:81,1,129.999994049073,0|4,0:0|0:0,0:0:0:0:
119,51,195816,1,8,0:0:0:0:
148,58,195902,1,0,0:0:0:0:
179,66,195988,1,4,0:0:0:0:
211,75,196074,1,0,0:0:0:0:
247,86,196161,6,0,B|330:118|365:61|365:61|430:118,1,194.999991073609,4|0,0:0|0:0,0:0:0:0:
463,165,196505,1,8,0:0:0:0:
211,314,196678,1,0,0:0:0:0:
201,121,197023,6,0,L|133:233,1,129.999994049073,4|8,0:0|0:0,0:0:0:0:
357,37,197540,2,0,P|317:98|396:217,1,194.999991073609,4|0,0:0|0:0,0:0:0:0:
473,263,197885,2,0,P|404:317|280:261,1,194.999991073609,8|0,0:0|0:0,0:0:0:0:
196,174,198230,1,0,0:0:0:0:
77,100,198402,6,8,P|102:62|134:52,2,64.9999970245363
159,267,198747,1,8,0:0:0:0:
215,64,198919,6,0,L|319:105,1,100
76,200,199264,6,0,P|74:267|115:296,1,100,8|0,0:0|0:0,0:0:0:0:
270,323,199781,1,0,0:0:0:0:
190,138,199954,1,8,0:0:0:0:
424,108,200299,6,0,P|388:160|345:185,1,100
184,272,200643,1,8,0:0:0:0:
201,75,201161,6,0,P|156:60|106:76,2,100,0|8|0,0:0|0:0|0:0,0:0:0:0:
256,120,201678,1,0,0:0:0:0:
132,304,202023,6,0,P|190:330|239:332,1,100,8|0,0:0|0:0,0:0:0:0:
363,105,202540,1,0,0:0:0:0:
166,190,202712,1,8,0:0:0:0:
391,277,203057,6,0,P|347:254|289:260,1,100
232,92,203402,2,0,L|195:129,1,50,8|0,0:0|0:0,0:0:0:0:
156,180,203574,1,0,0:0:0:0:
452,216,203919,5,0,0:0:0:0:
370,68,204092,2,0,L|433:146,1,100,8|0,0:0|0:0,0:0:0:0:
500,160,204436,1,0,0:0:0:0:
220,107,204781,6,0,P|153:114|107:69,1,100,8|0,0:0|0:0,0:0:0:0:
151,301,205299,1,0,0:0:0:0:
301,209,205471,1,8,0:0:0:0:
416,60,205816,6,0,P|380:120|380:160,1,100
424,316,206161,1,8,0:0:0:0:
224,236,206678,6,0,L|180:144,2,100,0|8|0,0:0|0:0|0:0,0:0:0:0:
288,284,207195,1,0,0:0:0:0:
404,60,207540,6,0,P|352:80|344:132,1,100,8|0,0:0|0:0,0:0:0:0:
388,264,208057,1,0,0:0:0:0:
188,96,208230,1,8,0:0:0:0:
72,168,208574,6,0,P|136:224|148:280,1,100
304,184,208919,2,0,L|256:240,1,50,8|0,0:0|0:0,0:0:0:0:
220,280,209092,1,0,0:0:0:0:
384,76,209436,5,0,0:0:0:0:
344,280,209608,1,8,0:0:0:0:
290,93,209781,2,0,P|350:69|406:89,1,100
124,256,210299,6,0,P|144:200|144:160,1,100,8|0,0:0|0:0,0:0:0:0:
128,48,210816,1,0,0:0:0:0:
272,224,210988,1,8,0:0:0:0:
416,164,211333,6,0,P|356:132|308:128,1,100
140,144,211678,1,8,0:0:0:0:
292,308,212195,6,0,P|352:332|380:312,2,100,0|8|0,0:0|0:0|0:0,0:0:0:0:
236,256,212712,1,0,0:0:0:0:
260,108,213057,6,0,P|200:84|172:56,1,100,8|0,0:0|0:0,0:0:0:0:
344,56,213574,1,0,0:0:0:0:
160,168,213747,1,8,0:0:0:0:
416,196,214092,6,0,B|416:260|336:264,1,100
124,232,214436,2,0,L|172:252,1,50,8|0,0:0|0:0,0:0:0:0:
232,280,214609,1,0,0:0:0:0:
168,68,214954,5,0,0:0:0:0:
336,84,215126,2,0,L|232:120,1,100,8|0,0:0|0:0,0:0:0:0:
168,152,215471,1,0,0:0:0:0:
380,316,215816,6,0,P|352:264|364:224,1,100,8|0,0:0|0:0,0:0:0:0:
232,272,216333,1,0,0:0:0:0:
352,128,216505,1,8,0:0:0:0:
96,84,216850,6,0,P|136:128|148:172,1,100
208,328,217195,1,8,0:0:0:0:
384,80,217712,5,0,0:0:0:0:
264,300,217885,2,0,P|339:290|376:256,1,119.999996337891,8|0,0:0|0:0,0:0:0:0:
264,104,218230,1,0,0:0:0:0:
80,312,218574,1,8,0:0:0:0:
128,220,218747,1,0,0:0:0:0:
88,56,219092,6,0,B|90:90|128:100|128:100|138:75|120:40,1,119.999996337891,0|8,0:0|0:0,0:0:0:0:
400,104,219609,6,0,L|296:176,1,119.999996337891
72,176,219954,1,8,0:0:0:0:
344,320,220126,1,0,0:0:0:0:
84,276,220299,2,8,P|136:232|160:160,1,119.999996337891
392,180,220643,2,0,P|336:204|304:260,1,119.999996337891
256,64,220988,1,4,0:1:0:0:
