osu file format v9

[General]
AudioFilename: Musouka.mp3
AudioLeadIn: 1555
PreviewTime: 50461
Countdown: 0
SampleSet: Normal
StackLeniency: 0.7
Mode: 0
LetterboxInBreaks: 1

[Editor]
Bookmarks: 44768
DistanceSpacing: 1
BeatDivisor: 2
GridSize: 8

[Metadata]
Title:Musouka
Artist:Suara
Creator:taNa_Coppola
Version:Easy
Source:Utawarerumono
Tags:Anime

[Difficulty]
HPDrainRate:2
CircleSize:3
OverallDifficulty:3
ApproachRate:3
SliderMultiplier:1.1
SliderTickRate:1

[Events]
//Background and Video events
0,0,"BG.jpg"
//Break Periods
2,14826,20349
2,79294,84817
//Storyboard Layer 0 (Background)
//Storyboard Layer 1 (Fail)
//Storyboard Layer 2 (Pass)
//Storyboard Layer 3 (Foreground)
//Storyboard Sound Samples
//Background Colour Transformations
3,100,163,162,255

[TimingPoints]
300,447.761194029851,4,1,0,61,1,0

[Colours]
Combo1 : 128,255,0
Combo2 : 255,255,0
Combo3 : 0,128,192

[HitObjects]
136,128,300,1,0
248,112,747,1,8
352,88,1195,2,0,B|424:96|448:168,1,110,0|8
440,200,1866,1,0
448,256,2090,6,0,B|344:320|224:312|120:264,1,330,0|8
152,160,3881,1,0
264,160,4329,1,8
152,160,4776,1,0
264,160,5224,1,8
376,160,5672,5,0
480,120,6120,2,0,B|480:40,2,55,8|0|0
480,232,7015,2,0,B|400:336,1,110,8|0
336,240,7910,2,0,B|256:240,1,55,8|0
192,304,8582,2,0,B|112:320|56:272|72:192,1,165
120,128,9701,6,0,B|120:56,2,55,8|0|0
216,80,10596,5,8
328,80,11044,1,0
272,176,11492,1,8
272,176,11940,2,0,B|272:304,2,110,0|8|0
256,192,13059,12,0,14626
304,88,21789,6,0,B|424:88,2,110,0|8|0
192,72,23132,2,0,B|120:80|128:88,1,55,8|0
96,112,23580,6,0,B|48:192|88:304|152:352|256:336,1,330,0|8
256,232,25370,1,0
256,120,25818,1,8
344,56,26266,2,0,B|456:56|456:56|456:136,1,165
456,160,27161,6,0,B|488:264|392:328|360:368|224:336,1,330,0|8
160,280,28952,1,0
80,208,29400,1,8
80,96,29847,1,0
176,48,30295,2,0,B|256:32,1,55,8|0
264,80,30743,6,0,B|384:80,2,110,0|8|0
264,192,32086,2,0,B|144:192,1,110,8|0
96,288,32981,2,0,B|216:288,1,110,8|0
304,328,33877,2,0,B|376:344|448:320,1,110,8|0
256,104,35220,6,0,B|256:224,2,110,0|8|0
152,72,36563,2,0,B|88:40|40:104|40:184|104:224,1,220,8|8
192,168,37906,1,0
304,168,38354,1,8
416,168,38801,1,0
416,168,39249,1,8
424,280,39697,6,0,B|256:344|80:272,1,330,0|8
64,240,41264,2,0,B|32:200|64:160,1,55
216,80,42830,6,0,B|96:80,2,110,8|0|8
328,80,44174,2,0,B|448:80,2,110,0|8|0
280,176,45517,2,0,B|280:304,2,110,8|0|8
256,192,46860,12,8,49994
88,120,50441,6,0,B|120:64|192:56,1,110,4|8
288,64,51337,2,0,B|368:64|392:144,1,110,0|8
456,192,52232,2,0,B|232:192,2,220
400,288,54471,1,8
288,288,54918,1,0
176,288,55366,2,0,B|136:296|104:240,1,55,8|0
112,216,55814,5,0
112,104,56261,2,0,B|104:72|144:56,2,55,8|0|0
224,112,57157,2,8,B|464:144,1,220
464,192,58276,2,0,B|512:248|440:312,1,110
408,312,58947,2,0,B|296:312,1,110,8|0
256,208,59843,6,0,B|256:136,2,55,8|0|0
224,312,60738,2,0,B|128:344|64:256,1,165,8|0
56,216,61634,2,0,B|16:152|72:80,2,110,8|0|8
152,160,62977,6,0,B|384:160,1,220
480,160,64320,1,8
392,96,64767,6,0,B|392:24,2,55,0|0|8
280,96,65663,2,0,B|280:32,2,55,0|0|8
168,96,66558,2,0,B|96:48|32:112,1,110,0|8
56,144,67230,6,0,B|48:264,1,110
144,304,68125,2,0,B|240:344|328:312,1,165,0|8
400,264,69244,1,0
344,168,69692,2,0,B|344:56,2,110,8|0|8
232,184,71035,1,0
136,112,71483,6,0,B|208:48|320:56|432:120,1,275,8|0
416,208,73050,1,0
360,208,73274,1,8
304,208,73498,2,0,B|192:208,1,110
136,208,74169,2,0,B|136:272,2,55,8|0|0
136,96,75064,5,8
136,96,75512,1,0
136,96,75960,1,8
248,96,76408,1,0
304,96,76631,1,0
360,96,76855,2,0,B|408:40,2,55,8|0|0
352,208,77751,5,4
256,192,77974,12,0,79094
256,72,86257,5,0
256,184,86705,1,8
256,296,87152,1,0
144,296,87600,2,0,B|80:264|80:200,1,110,8|0
344,64,88943,5,0
432,128,89391,1,8
344,192,89838,1,0
256,128,90286,2,0,B|144:128,2,110,8|0|8
256,128,91629,1,0
88,72,92972,5,8
24,160,93420,1,0
88,248,93868,1,8
24,160,94315,1,0
136,160,94763,2,0,B|256:160,2,110,8|0|8
200,248,96106,5,0
200,248,96554,1,8
296,304,97001,2,0,B|352:328|416:296,1,110,0|8
432,192,97897,1,0
432,192,98345,1,8
432,80,98792,2,0,B|432:32|336:24,1,110,0|8
184,56,99911,6,0,B|112:64,1,55,0|8
40,128,100583,1,0
128,192,101031,2,0,B|128:312,2,110,8|0|8
240,192,102374,1,0
352,192,102822,6,0,B|352:320,2,110,8|0|8
456,152,104165,2,0,B|376:56|240:56|152:64,1,330,0|8
80,144,105955,1,0
120,248,106403,2,8,B|256:336|368:280,1,220
384,200,107746,5,0
280,232,108194,2,0,B|280:344,2,110,8|0|8
176,192,109537,1,0
72,152,109985,2,0,B|72:40,2,110,8|0|8
256,192,111328,12,8,114462
408,104,114909,6,0,B|336:72|280:80,1,110,0|8
248,72,115581,1,0
192,72,115805,2,0,B|112:72|72:120,1,110,0|8
24,192,116700,1,0
88,280,117148,6,0,B|8:360,2,110,8|0|8
192,312,118491,1,0
304,312,118939,2,0,B|360:280|424:328,1,110,8|0
464,224,119834,1,8
456,112,120282,5,0
352,72,120729,2,8,B|240:32|128:80,1,220
208,160,122072,2,0,B|208:280,1,110,0|8
320,288,122968,2,0,B|320:160,1,110,0|8
216,208,123863,1,0
152,120,124311,6,0,B|64:184|144:320,2,220,8|8|8
264,112,126549,5,0
376,112,126997,1,8
432,112,127221,2,0,B|472:120|480:168,1,55
424,240,127892,2,0,B|312:240,2,110,8|0|8
336,336,129235,5,4
224,336,129683,1,8
120,304,130131,1,0
80,200,130579,1,8
120,96,131026,5,0
216,40,131474,1,8
328,40,131922,2,0,B|408:40|432:104,1,110,0|8
400,192,132817,5,0
344,192,133041,1,0
288,192,133265,1,8
176,192,133712,2,0,B|160:248|192:304,2,110,0|8|0
256,120,135056,6,0,B|256:48,2,55,8|0|0
336,192,135951,1,8
408,280,136399,1,0
296,272,136846,2,0,B|168:312|72:264,1,220,8|8
88,160,138189,6,0,B|32:160,2,55,0|0|8
88,48,139085,2,0,B|200:48,1,110,0|8
304,56,139980,5,0
392,120,140428,2,0,B|464:208|416:336,3,220,8|8|8|8
320,272,143562,5,4
