osu file format v5

[General]
AudioFilename: Utawarerumono_-_Musouka.mp3
AudioLeadIn: 0
PreviewTime: -1
Countdown: 1
SampleSet: Normal
StackLeniency: 0.7
Mode: 0

[Metadata]
Title:Musouka
Artist:Suara
Creator:eirrol
Version:Hard
Source:
Tags:

[Difficulty]
HPDrainRate:6
CircleSize:5
OverallDifficulty:4
SliderMultiplier:1.6
SliderTickRate:1

[Events]
//Background and Video events
0,0,"844edf3065889589a8018e50.png"
//Break Periods
2,79283,85197
2,115104,128182
2,164134,178331
//Storyboard Layer 0 (Background)
//Storyboard Layer 1 (Failing)
//Storyboard Layer 2 (Passing)
//Storyboard Layer 3 (Foreground)
//Storyboard Sound Samples
//Background Colour Transformations
3,100,163,162,255

[TimingPoints]
21795,447.761194029851,4,1,0,100

[Colours]
Combo1 : 255,255,0
Combo2 : 5,240,5
Combo3 : 139,252,209
Combo4 : 221,4,4

[HitObjects]
344,128,14630,1,0
296,168,14854,1,0
248,128,15078,1,0
192,160,15302,1,0
184,288,15750,2,0,B|255:347|360:288,1,160
392,192,16645,1,0
336,216,16869,1,0
272,224,17093,1,0
112,120,17765,5,0
152,168,17989,1,0
176,112,18212,1,0
208,160,18436,1,0
264,128,18660,1,0
288,72,18884,2,0,B|438:216|304:360,2,320
256,184,21123,5,0
256,120,21347,1,4
424,280,21795,6,0,B|328:280,2,80
424,216,22466,1,0
424,152,22690,1,0
320,80,23138,1,0
320,80,23362,1,0
152,168,24033,5,0
152,168,24257,1,0
256,232,24705,5,0
256,168,24929,1,0
256,104,25153,1,0
256,40,25377,2,0,B|152:40,3,80
168,104,26272,1,0
168,168,26496,1,0
168,288,26944,1,0
352,280,27615,5,0
352,280,27839,1,0
104,280,28735,6,0,B|200:280,2,80
104,216,29406,1,0
88,160,29630,1,0
152,160,29854,1,0
272,168,30302,1,0
272,168,30526,1,0
456,168,31198,1,0
456,168,31421,1,4
344,216,31869,5,0
280,248,32093,1,0
304,304,32317,1,0
248,328,32541,1,0
120,336,32989,1,0
120,336,33212,1,0
120,336,33436,1,0
128,208,33884,2,0,B|138:143|208:152,1,80
280,216,34556,1,4
384,288,35003,1,4
264,312,35451,5,0
216,272,35675,1,0
176,224,35899,1,0
144,168,36123,2,0,B|220:162|169:67|304:72,3,160
264,200,37914,2,0,B|340:206|289:301|424:296,1,160
448,272,38586,1,0
408,88,39257,5,0
344,96,39481,1,0
280,104,39705,1,0
160,128,40153,5,0
96,144,40377,1,0
160,248,40824,5,0
216,272,41048,1,0
272,296,41272,1,0
456,248,41944,5,0
424,192,42168,1,4
256,112,42839,5,0
256,112,43063,1,0
264,176,43287,2,0,B|272:248|176:248|160:240,1,133.333333333333
200,184,43959,2,0,B|105:135|96:280,1,160
96,312,44630,1,0
312,184,45078,6,0,B|304:256|400:256|416:248,1,133.333333333333
376,192,45750,2,0,B|471:143|480:288,1,160
480,320,46421,1,4
352,312,46869,5,0
312,264,47093,1,0
248,272,47317,1,0
272,216,47541,1,0
192,120,47989,6,0,B|88:120,3,80
112,184,48884,1,0
112,248,49108,1,0
112,312,49332,1,0
216,240,49780,1,4
400,272,50451,5,0
336,272,50675,1,0
360,216,50899,1,0
344,152,51123,1,0
288,120,51347,1,0
200,208,51795,5,0
200,208,52018,1,0
176,152,52242,1,0
192,88,52466,1,0
312,120,52914,2,0,B|468:200|496:32,1,240
432,56,53809,5,0
432,56,54033,1,0
432,56,54257,1,0
432,56,54481,1,0
432,56,54705,1,0
432,56,54929,5,4
392,176,55376,1,0
392,240,55600,1,0
392,304,55824,1,0
272,280,56272,2,0,B|217:288|216:368,1,80
32,328,57168,6,0,B|115:386|208:304,2,160
80,288,58287,2,0,B|32:224|96:104,1,160
136,104,58959,1,0
184,64,59183,1,0
240,80,59406,2,0,B|408:80,2,160
352,128,60750,1,0
408,152,60974,1,0
408,216,61197,5,4
296,264,61645,1,0
184,200,62093,1,4
128,240,62317,1,0
152,296,62541,1,0
216,296,62765,1,0
296,208,63212,1,0
272,152,63436,1,0
328,120,63660,1,0
392,128,63884,1,0
416,248,64332,1,4
288,256,64780,5,0
280,192,65003,1,0
216,184,65227,1,0
152,208,65451,1,0
104,248,65675,1,0
200,328,66123,1,0
200,328,66347,1,0
200,328,66571,2,0,B|376:328,3,160
408,288,68138,5,0
344,264,68361,1,0
312,208,68585,1,0
344,160,68809,1,0
392,128,69033,1,0
440,96,69257,1,0
328,64,69705,1,0
328,64,69929,1,0
328,64,70153,2,0,B|152:64,3,160
168,64,71720,5,0
168,120,71944,2,0,B|39:132|128:256,1,160
152,184,72615,2,0,B|193:296|64:280,1,160
96,224,73287,2,0,B|2:202|24:352,1,160
80,288,73959,2,0,B|160:352|320:320,1,240
256,192,75078,12,4,79108
96,256,86272,6,0,B|101:360|248:336,1,160
272,336,86944,1,0
336,336,87168,1,0
416,280,87615,1,0
416,216,87839,1,4
40,176,89183,5,0
40,112,89406,1,0
88,72,89630,1,0
152,64,89854,2,0,B|272:56|272:168,1,160
264,208,90526,1,0
304,256,90750,1,0
344,208,90974,1,0
384,256,91197,1,0
432,216,91421,1,4
360,40,92093,5,0
312,80,92317,1,0
264,40,92541,1,0
208,72,92765,1,0
176,192,93212,5,0
216,240,93436,1,0
256,192,93660,1,0
288,240,93884,1,0
328,192,94108,1,0
392,192,94332,1,0
288,120,94780,2,0,B|291:29|176:32,1,160
264,328,96347,5,0
264,328,96459,1,0
264,328,96571,1,0
264,264,96795,1,0
264,200,97018,1,0
224,152,97242,1,0
280,120,97466,1,0
336,96,97690,1,0
392,112,97914,1,0
376,232,98362,1,4
376,296,98586,1,4
8,344,99929,6,0,B|8:160,1,160
48,136,100600,1,0
168,136,101048,1,0
168,136,101272,1,0
272,72,101720,1,0
296,128,101944,1,0
336,176,102168,1,0
368,120,102392,1,0
400,168,102615,1,0
432,112,102839,1,0
432,48,103063,1,0
272,144,103735,5,0
272,144,103959,1,0
280,208,104183,2,0,B|416:208|352:312,1,160
304,272,104854,2,0,B|235:328|128:272,1,160
168,224,105526,2,0,B|104:184|40:208|16:256,1,160
272,72,107317,5,0
304,120,107541,1,0
344,168,107765,1,0
296,248,108100,1,0
200,248,108436,1,0
96,184,108884,1,0
152,168,109108,1,0
264,120,109556,5,0
176,80,109892,1,0
216,168,110227,1,0
264,272,110675,1,0
216,232,110899,1,0
104,296,111347,5,0
200,296,111571,1,0
296,296,111795,1,0
392,296,112018,1,0
392,104,112466,5,0
392,104,112690,1,0
392,104,112914,1,0
256,192,113138,12,0,114929
376,88,129257,6,0,B|296:24|192:88,1,160
144,120,129929,1,0
80,192,130153,1,0
240,296,130600,1,0
160,248,130824,1,0
224,176,131048,2,0,B|296:100|392:184,1,160
424,200,131720,1,0
256,296,132615,5,0
256,296,132839,1,0
96,192,133287,1,0
96,192,133511,1,0
256,104,133959,1,0
256,104,134183,1,0
432,184,134630,5,0
336,192,134854,1,0
240,184,135078,1,0
184,264,135302,1,0
272,288,135526,1,0
272,288,135638,1,0
272,288,135750,1,0
272,288,135862,1,0
272,288,135974,1,0
336,104,136421,6,0,B|286:128|237:71|168:120,1,160
120,184,137093,1,0
264,304,137541,1,0
360,304,137765,1,0
456,304,137989,1,0
424,208,138212,2,0,B|338:215|411:132|272:136,1,160
200,184,138884,1,0
120,232,139108,1,0
48,32,139556,1,0
48,32,139780,1,0
120,96,140003,5,0
272,208,140451,1,0
432,312,140899,1,0
336,312,141123,1,0
240,312,141347,1,0
48,312,141795,1,0
336,56,142690,1,4
256,232,143138,1,0
256,232,143362,1,0
256,232,143586,5,0
40,40,144257,1,0
328,40,144929,1,0
416,312,145600,1,0
128,320,146272,1,0
72,136,146720,5,0
240,224,147168,1,0
456,40,147839,1,0
344,152,148511,1,0
480,288,148959,6,0,B|430:368|326:367|232:312,1,240
144,264,150078,1,0
192,216,150302,1,0
144,168,150526,1,0
176,104,150750,5,0
232,144,150974,1,0
280,96,151197,1,0
328,144,151421,1,0
376,192,151645,1,0
328,240,151869,1,0
264,256,152093,1,0
200,288,152317,1,0
144,248,152541,1,0
72,240,152765,1,0
72,304,152989,1,0
136,312,153212,1,0
184,264,153436,1,0
224,208,153660,1,0
256,144,153884,1,0
288,80,154108,1,0
336,128,154332,5,0
328,264,154780,1,0
280,312,155003,1,0
280,312,155115,1,0
280,312,155227,1,0
144,312,155675,5,0
144,240,155899,1,0
152,168,156123,1,0
152,136,156235,1,0
168,104,156347,1,0
184,72,156459,1,0
216,64,156571,1,0
248,64,156683,1,0
280,80,156795,1,0
296,104,156906,1,0
304,136,157018,5,0
304,184,157130,1,0
304,216,157242,1,0
304,248,157354,1,0
304,280,157466,1,0
176,328,157914,5,0
152,264,158138,1,0
224,216,158362,1,0
224,216,158474,1,0
224,216,158586,1,0
200,152,158809,1,0
200,152,158921,1,0
200,152,159033,1,0
176,88,159257,1,0
176,88,159369,1,0
176,88,159481,1,0
240,80,159705,1,0
240,80,159817,1,0
240,80,159929,1,0
304,112,160153,1,0
304,112,160265,1,0
304,112,160377,1,0
392,216,160824,5,0
344,264,161048,1,0
312,200,161272,1,0
272,256,161496,5,0
229,169,161832,1,0
120,152,162168,1,0
136,288,162615,5,0
200,288,162839,1,0
216,224,163063,1,0
280,192,163287,1,0
374,208,163623,1,4
370,303,163959,1,4
376,72,179406,6,0,B|304:24|245:121|136:48,1,240
145,53,180302,5,0
144,176,180750,1,0
144,176,180974,1,0
144,176,181197,1,0
248,248,181645,1,0
248,248,181869,1,0
248,248,182093,1,0
248,248,182317,1,0
384,200,182765,5,0
368,320,183212,1,0
368,320,183324,1,0
368,320,183436,1,0
368,320,183548,1,0
368,320,183660,1,0
304,320,183884,5,0
176,288,184332,1,0
176,160,184780,1,0
288,104,185227,5,0
288,104,185451,1,0
288,104,185675,1,0
392,176,186123,2,0,B|488:176,1,80
376,336,187018,6,0,B|376:224,2,80
248,336,187914,2,0,B|136:336,1,80
280,280,188586,2,0,B|168:280,1,80
192,152,189257,1,0
152,200,189481,1,0
152,200,189593,1,0
152,200,189705,1,0
96,168,189929,1,0
120,112,190153,1,0
240,80,190600,6,0,B|128:80,2,80
312,184,191496,1,0
360,304,191944,2,0,B|240:304,3,80
152,280,193063,2,0,B|80:160|140:92|392:32,1,400
424,152,194630,5,0
384,200,194854,1,0
328,160,195078,1,0
288,208,195302,1,0
248,160,195526,1,0
144,240,195974,1,0
120,176,196197,1,0
104,112,196421,1,0
160,128,196645,1,0
264,64,197093,1,0
392,72,197541,5,0
392,72,197653,1,0
392,72,197765,1,0
400,200,198212,5,0
336,216,198436,1,0
280,192,198660,1,0
216,208,198884,1,0
200,144,199108,2,0,B|24:144,4,160
256,248,201347,5,0
256,248,201571,1,0
256,184,201795,1,0
312,72,202242,1,0
248,72,202466,1,0
120,64,202914,1,0
120,128,203138,1,0
120,192,203362,1,0
160,240,203586,1,0
272,296,204033,1,0
272,232,204257,1,0
272,168,204481,1,0
352,64,204929,5,0
352,128,205153,1,0
352,192,205377,1,0
456,264,205824,1,0
448,136,206272,1,0
440,72,206496,1,0
384,40,206720,1,0
320,32,206944,1,0
200,64,207392,1,0
160,112,207615,1,0
144,176,207839,1,0
144,240,208063,1,0
272,232,208511,1,0
272,232,208623,1,0
272,232,208735,1,0
328,296,208959,6,0,B|432:248|440:69|288:16,1,320
200,56,210302,6,0,B|96:104|88:283|240:336,1,320
264,336,211421,1,4
408,216,212093,6,0,B|262:307|80:208,1,320
96,96,213436,6,0,B|242:5|424:104,1,320
424,216,214780,1,4
424,216,215003,1,4
272,328,215675,6,0,B|152:328,1,80
192,264,216123,2,0,B|296:264,1,80
272,200,216571,2,0,B|168:200,1,80
64,176,217242,2,4,B|64:344,1,160
128,328,217914,1,0
192,328,218138,1,0
192,328,218250,1,0
192,328,218362,5,0
192,264,218586,1,0
224,208,218809,1,0
288,96,219257,5,0
376,184,219705,1,0
328,304,220153,1,0
256,200,220600,5,4
256,200,220824,5,4
256,200,221048,5,4
256,200,221272,5,4
256,192,222168,12,4,225078
