osu file format v5

[General]
AudioFilename: Utawarerumono_-_Musouka.mp3
AudioLeadIn: 0
PreviewTime: -1
Countdown: 1
SampleSet: Normal
StackLeniency: 0.7
Mode: 0

[Metadata]
Title:Musouka
Artist:Suara
Creator:eirrol
Version:Easy
Source:
Tags:

[Difficulty]
HPDrainRate:2
CircleSize:4
OverallDifficulty:0
SliderMultiplier:1.3
SliderTickRate:2

[Events]
//Background and Video events
0,0,"844edf3065889589a8018e50.png"
//Break Periods
//Storyboard Layer 0 (Background)
//Storyboard Layer 1 (Failing)
//Storyboard Layer 2 (Passing)
//Storyboard Layer 3 (Foreground)
//Storyboard Sound Samples
//Background Colour Transformations
3,100,163,162,255

[TimingPoints]
21795,447.761194029851,4,1,0,100

[Colours]
Combo1 : 255,255,0
Combo2 : 5,240,5
Combo3 : 139,252,209
Combo4 : 221,4,4

[HitObjects]
256,192,14606,12,4,19756
80,112,21771,2,0,B|168:24|352:56,1,260
360,96,23138,1,0
360,96,23362,1,0
368,272,24705,6,0,B|277:328|168:264,2,195
256,224,26944,1,4
256,80,28063,1,0
256,80,28287,1,0
168,64,28959,6,0,B|44:108|40:222|104:280,1,260
152,216,30302,1,0
152,216,30526,1,0
288,296,31421,5,4
264,184,32093,5,0
264,128,32541,1,0
320,120,32989,1,0
328,56,33436,1,0
216,56,34332,5,0
160,72,34780,1,0
120,112,35227,1,0
136,224,36123,6,4,B|214:178|344:232,3,195
368,176,38586,1,0
288,128,39257,5,0
232,128,39705,1,0
152,168,40377,1,0
144,312,41496,1,0
256,280,42392,1,4
168,192,43287,6,0,B|209:91|344:112,1,195
392,112,44406,1,0
392,112,44630,1,0
392,168,45078,6,0,B|392:283|272:304,1,195
224,312,46197,1,0
224,312,46421,1,0
176,272,46869,6,0,B|72:168|216:24|464:80,1,455
440,112,48660,1,0
440,168,49108,1,4
440,168,49332,1,4
440,224,49780,1,4
368,280,50451,6,0,B|277:331|176:280,1,195
160,256,51347,1,0
128,208,51795,5,0
152,152,52242,1,0
240,144,52914,1,0
312,232,53809,5,0
328,256,54033,1,0
440,248,54929,1,0
440,192,55377,1,0
440,168,55600,1,0
368,112,56272,1,0
336,104,56496,1,0
248,80,57168,6,0,B|160:48|40:88,1,195
64,136,58287,1,0
64,200,58735,5,0
64,224,58959,1,0
64,248,59183,1,0
64,280,59406,1,0
56,312,59630,1,0
80,336,59854,1,0
112,336,60078,1,0
136,336,60302,1,0
248,328,61197,6,0,B|248:56,1,260
192,88,62541,1,0
232,128,62989,1,0
272,160,63436,1,0
312,200,63884,1,0
352,232,64332,1,4
320,272,64756,6,0,B|112:272,1,195
136,232,65675,1,0
136,176,66123,1,0
136,176,66347,1,0
248,176,67242,1,4
136,80,68362,6,0,B|256:56|400:80,1,260
384,136,69705,1,0
384,136,69929,1,0
384,136,70153,1,0
384,192,70600,1,0
384,192,70824,1,0
296,200,71496,6,0,B|16:192,1,260
56,240,72615,1,0
80,296,73063,1,0
80,296,73287,1,0
136,296,73735,1,0
192,296,74183,1,0
248,296,74630,1,0
256,192,75078,12,4,79556
