osu file format v14

[General]
AudioFilename: M.MP3
AudioLeadIn: 0
PreviewTime: -1
Countdown: 1
SampleSet: Soft
StackLeniency: 0.7
Mode: 0
LetterboxInBreaks: 1
WidescreenStoryboard: 1

[Editor]
DistanceSpacing: 1
BeatDivisor: 2
GridSize: 4
TimelineZoom: 1

[Metadata]
Title:Musouka (TV Size)
TitleUnicode:Musouka (TV Size)
Artist:Suara
ArtistUnicode:Suara
Creator:Joshiraku
Version:Normal
Source:
Tags:
BeatmapID:723164
BeatmapSetID:322677

[Difficulty]
HPDrainRate:4
CircleSize:2
OverallDifficulty:4
ApproachRate:6
SliderMultiplier:1.5
SliderTickRate:1

[Events]
//Background and Video events
0,0,"utawarerumono-dark-1655861-1920x1200.jpg",0,0
//Break Periods
2,38110,43577
//Storyboard Layer 0 (Background)
//Storyboard Layer 1 (Fail)
//Storyboard Layer 2 (Pass)
//Storyboard Layer 3 (Foreground)
//Storyboard Sound Samples

[TimingPoints]
2090,447.761194029851,4,2,0,60,1,0

[Colours]
Combo1 : 0,64,64
Combo2 : 0,64,64
Combo3 : 64,0,128
Combo4 : 0,0,0

[HitObjects]
72,56,16418,6,0,P|136:52|256:156,2,225,4|2|0,0:0|0:0|1:0,0:0:0:0:
32,200,18209,2,0,P|48:256|140:280,1,150,2|0,0:0|1:0,0:0:0:0:
256,208,19104,2,0,L|416:224,1,150,2|0,0:0|1:0,0:0:0:0:
472,356,20000,5,4,0:0:0:0:
256,192,20448,12,0,23134,1:0:0:0:
56,52,23582,6,0,P|128:44|240:92,1,150,4|0,0:0|1:0,0:0:0:0:
256,204,24478,2,0,P|304:272|420:204,2,225,2|2|0,0:0|0:0|1:0,0:0:0:0:
364,100,26269,1,2,0:0:0:0:
508,60,26716,1,0,1:0:0:0:
508,212,27164,6,0,P|484:304|432:352,1,150,2|0,0:0|1:0,0:0:0:0:
296,332,28060,2,0,P|216:312|56:368,2,225,2|2|0,0:0|0:0|1:0,0:0:0:0:
352,192,29851,1,2,0:0:0:0:
268,68,30298,1,0,1:0:0:0:
120,36,30746,6,0,B|40:40|40:40|-8:104,1,150,4|0,0:0|1:0,0:0:0:0:
92,212,31642,2,0,P|120:256|-4:316,2,225,2|2|0,0:0|0:0|1:0,0:0:0:0:
200,108,33433,2,0,P|256:104|260:196,1,150,2|0,0:0|1:0,0:0:0:0:
236,328,34328,5,2,0:0:0:0:
384,348,34776,1,0,1:0:0:0:
452,216,35224,2,0,P|464:148|360:16,2,225,2|2|0,0:0|0:0|1:0,0:0:0:0:
304,224,37015,2,0,P|216:216|100:240,2,150,2|0|4,0:0|1:0|0:0,0:0:0:0:
448,48,44627,5,0,1:0:0:0:
316,116,45075,2,0,P|232:124|156:268,2,225,4|2|0,0:0|0:0|1:0,0:0:0:0:
244,248,46866,2,0,P|164:328|64:232,2,225,4|2|0,0:0|0:0|1:0,0:0:0:0:
132,148,48657,5,4,0:0:0:0:
208,20,49104,1,0,1:0:0:0:
336,96,49552,2,0,P|376:168|472:144,1,150,4|0,0:0|1:0,0:0:0:0:
480,28,50448,5,4,0:0:0:0:
256,192,50895,12,4,52239,0:0:0:0:
256,44,52687,5,0,1:0:0:0:
236,192,53134,1,2,0:0:0:0:
104,260,53582,1,0,1:0:0:0:
32,128,54030,2,0,P|88:84|232:124,2,225,2|2|0,0:0|0:0|1:0,0:0:0:0:
80,272,55821,5,4,0:0:0:0:
224,312,56269,1,0,1:0:0:0:
368,352,56716,2,0,P|368:264|404:168,1,150,2|0,0:0|1:0,0:0:0:0:
468,80,57612,2,0,P|392:60|224:112,2,225,2|2|2,0:0|0:0|1:0,0:0:0:0:
488,228,59403,6,0,P|412:288|324:200,2,225,4|2|0,0:0|0:0|1:0,0:0:0:0:
428,92,61194,1,2,0:0:0:0:
280,80,61642,2,0,L|192:52,2,75,0|0|2,1:0|0:0|0:0,0:0:0:0:
256,228,62537,6,0,P|256:316|176:348,1,150,0|4,1:0|0:0,0:0:0:0:
60,347,63433,2,0,P|5:299|14:227,1,150,0|2,1:0|0:0,0:0:0:0:
128,128,64328,1,0,1:0:0:0:
260,60,64776,1,2,0:0:0:0:
360,172,65224,2,0,P|404:240|516:272,2,150,0|2|0,1:0|0:0|1:0,0:0:0:0:
448,52,66567,5,4,0:0:0:0:
300,28,67015,1,0,1:0:0:0:
152,56,67463,2,0,P|84:104|56:196,1,150,2|0,0:0|1:0,0:0:0:0:
116,300,68358,2,0,L|388:280,2,225,2|2|0,0:0|0:0|1:0,0:0:0:0:
64,52,70149,5,4,0:0:0:0:
212,28,70597,1,0,1:0:0:0:
360,56,71045,2,0,P|428:104|456:196,1,150,2|0,0:0|1:0,0:0:0:0:
396,300,71940,2,0,L|124:280,2,225,2|2|0,0:0|0:0|1:0,0:0:0:0:
476,172,73731,6,0,P|488:104|444:28,1,150,4|0,0:0|1:0,0:0:0:0:
304,72,74627,2,0,P|220:88|116:52,1,150,2|0,0:0|1:0,0:0:0:0:
16,32,75522,1,2,0:0:0:0:
32,180,75970,2,0,L|8:288,2,75,0|0|2,1:0|0:0|0:0,0:0:0:0:
164,248,76866,5,0,1:0:0:0:
256,368,77313,1,4,0:0:0:0:
256,192,77761,12,4,80895,0:0:0:0:
