osu file format v13

[General]
AudioFilename: music.mp3
AudioLeadIn: 0
PreviewTime: 131686
Countdown: 0
SampleSet: Soft
StackLeniency: 0.7
Mode: 0
LetterboxInBreaks: 0
WidescreenStoryboard: 1

[Editor]
DistanceSpacing: 1.3
BeatDivisor: 8
GridSize: 4
TimelineZoom: 1

[Metadata]
Title:Kimi ga Tame
TitleUnicode:キミガタメ
Artist:Suara
ArtistUnicode:Suara
Creator:hoshisorakiseki
Version:Utaware
Source:うたわれるもの
Tags:Utawarerumono
BeatmapID:403009
BeatmapSetID:165648

[Difficulty]
HPDrainRate:5
CircleSize:5
OverallDifficulty:7.5
ApproachRate:7.5
SliderMultiplier:2
SliderTickRate:1

[Events]
//Background and Video events
0,0,"bkg.jpg",0,0
//Break Periods
2,30666,32627
//Storyboard Layer 0 (Background)
//Storyboard Layer 1 (Fail)
//Storyboard Layer 2 (Pass)
//Storyboard Layer 3 (Foreground)
//Storyboard Sound Samples
//Background Colour Transformations
3,100,163,162,255

[TimingPoints]
5909,800,4,2,1,50,1,0
27509,1052.63157894737,4,2,1,50,1,0
33452,750,4,2,1,50,1,0
56702,-100,4,2,2,50,0,0
132452,-100,4,2,1,70,0,1
154952,-100,4,2,1,70,0,0
219452,-100,4,2,1,70,0,1
241952,-100,4,2,1,50,0,0
267452,-100,4,2,2,70,0,0
294452,-66.6666666666667,4,2,1,70,0,1
316952,-66.6666666666667,4,2,1,70,0,0
318452,-50,4,2,1,70,0,1
340952,-100,4,2,1,50,0,0
342452,764.331210191083,4,2,2,50,1,0
350200,750,4,2,1,50,1,0

[HitObjects]
152,128,5909,5,2,0:0:0:0:
240,224,6309,1,0,0:0:0:0:
280,100,6709,1,2,0:0:0:0:
400,328,7509,2,0,P|432:284|428:236,1,100,2|0,0:0|0:0,0:0:0:0:
344,256,8309,1,2,0:0:0:0:
176,316,9109,6,0,P|120:268|128:124,1,200,2|2,0:0|0:0,0:0:0:0:
192,216,10309,1,0,0:0:0:0:
172,84,10509,1,0,0:0:0:0:
52,140,10709,1,2,0:0:0:0:
320,72,11509,1,2,0:0:0:0:
312,176,11909,6,0,L|280:224,2,50,0|0|2,0:0|0:0|0:0,0:0:0:0:
212,324,12709,2,0,P|168:292|152:240,1,100,0|2,0:0|0:0,0:0:0:0:
136,196,13509,1,0,0:0:0:0:
244,232,13909,2,0,P|244:172|224:120,2,100,2|0|2,0:0|0:0|0:0,0:0:0:0:
136,196,15109,1,0,0:0:0:0:
324,168,15509,5,4,0:0:0:0:
376,208,16309,1,4,0:0:0:0:
428,248,17109,1,4,0:0:0:0:
256,312,17909,2,0,P|308:284|336:244,1,100
244,212,18709,5,2,0:0:0:0:
136,112,19109,1,0,0:0:0:0:
92,252,19509,1,2,0:0:0:0:
424,132,20309,2,0,P|384:96|336:80,2,100,2|0|2,0:0|0:0|0:0,0:0:0:0:
328,200,21909,5,2,0:0:0:0:
428,72,22309,1,0,0:0:0:0:
228,328,22709,1,2,0:0:0:0:
184,184,23109,2,0,L|144:140,2,50,0|0|2,0:0|0:0|0:0,0:0:0:0:
72,44,24309,1,2,0:0:0:0:
332,216,24709,2,0,L|300:172,1,50
408,240,25109,6,0,P|364:288|324:296,2,100,2|0|2,0:0|0:0|0:0,0:0:0:0:
236,248,26309,2,0,P|184:188|172:132,2,100,0|2|0,0:0|0:0|0:0,0:0:0:0:
256,192,27509,12,4,28561,0:0:0:0:
172,176,33452,6,0,L|112:128,1,50
236,216,33827,1,0,0:0:0:0:
300,252,34014,2,0,L|360:284,1,50,0|8,0:0|0:0,0:0:0:0:
424,192,34577,2,0,P|444:172|452:144,2,50
348,108,35139,2,0,L|396:144,1,50
296,64,35514,1,0,0:0:0:0:
496,208,35702,1,8,0:0:0:0:
268,300,36077,1,0,0:0:0:0:
268,300,36264,1,0,0:0:0:0:
176,336,36452,5,0,0:0:0:0:
252,184,36827,2,0,L|220:240,1,50
304,92,37202,2,0,L|360:124,2,50,8|0|0,0:0|0:0|0:0,0:0:0:0:
464,176,37764,1,0,0:0:0:0:
284,272,37952,2,0,L|320:232,1,50,0|0,0:0|0:0,0:0:0:0:
220,348,38327,1,0,0:0:0:0:
116,240,38514,1,0,0:0:0:0:
44,108,38702,2,0,L|44:52,2,50,8|0|0,0:0|0:0|0:0,0:0:0:0:
248,164,39264,5,0,0:0:0:0:
248,164,39358,1,0,0:0:0:0:
248,164,39452,1,0,0:0:0:0:
116,192,39639,2,0,L|184:176,2,50
244,300,40202,2,0,L|308:280,1,50,8|0,0:0|0:0,0:0:0:0:
368,136,40577,2,0,L|312:152,1,50
160,152,40952,2,0,L|116:124,2,50
48,72,41514,1,0,0:0:0:0:
236,200,41702,1,8,0:0:0:0:
12,280,42077,1,0,0:0:0:0:
360,320,42452,6,0,P|424:292|452:256,1,100
360,216,43014,1,0,0:0:0:0:
240,156,43202,2,0,L|256:104,1,50,8|0,0:0|0:0,0:0:0:0:
272,48,43577,1,0,0:0:0:0:
240,156,43764,1,0,0:0:0:0:
176,160,43952,2,0,L|164:104,1,50
152,52,44327,1,0,0:0:0:0:
176,160,44514,1,0,0:0:0:0:
120,192,44702,2,0,L|88:140,1,50,8|0,0:0|0:0,0:0:0:0:
60,100,45077,1,0,0:0:0:0:
120,192,45264,1,0,0:0:0:0:
120,216,45358,1,0,0:0:0:0:
108,240,45452,5,0,0:0:0:0:
332,312,45827,1,0,0:0:0:0:
424,216,46014,1,0,0:0:0:0:
304,188,46202,2,0,L|344:224,1,50,8|0,0:0|0:0,0:0:0:0:
240,136,46577,1,0,0:0:0:0:
416,304,46764,1,0,0:0:0:0:
376,156,46952,2,0,L|380:104,1,50
296,268,47327,2,0,L|244:308,1,50
240,136,47702,2,0,P|208:92|144:76,2,100,8|0|0,0:0|0:0|0:0,0:0:0:0:
128,208,48827,6,0,L|180:152,1,50
184,252,49202,1,8,0:0:0:0:
72,164,49389,1,0,0:0:0:0:
60,284,49577,2,0,L|20:320,1,50
184,164,49952,1,0,0:0:0:0:
184,340,50139,1,0,0:0:0:0:
340,256,50327,1,0,0:0:0:0:
184,164,50514,1,0,0:0:0:0:
340,256,50702,1,8,0:0:0:0:
320,132,51264,5,0,0:0:0:0:
312,124,51358,1,0,0:0:0:0:
304,116,51452,2,0,L|256:92,1,50
224,176,51827,1,0,0:0:0:0:
168,144,52014,1,0,0:0:0:0:
184,252,52202,2,0,L|228:280,1,50,8|0,0:0|0:0,0:0:0:0:
296,224,52577,1,0,0:0:0:0:
352,256,52764,1,0,0:0:0:0:
376,160,52952,2,0,L|416:124,1,50
216,296,53327,2,0,L|172:332,1,50
192,108,53702,1,8,0:0:0:0:
92,136,53889,1,0,0:0:0:0:
192,108,54077,1,0,0:0:0:0:
256,192,54452,12,4,55952,0:0:0:0:
144,100,56702,5,0,0:0:0:0:
72,280,57077,1,0,0:0:0:0:
256,252,57452,2,0,B|216:212|216:212|216:156,1,100,8|0,0:0|0:0,0:0:0:0:
316,168,58014,2,0,L|316:112,1,50,0|8,0:0|0:0,0:0:0:0:
36,208,58577,1,0,0:0:0:0:
176,136,58764,2,0,L|104:176,1,50,0|8,0:0|0:0,0:0:0:0:
172,268,59327,2,0,L|124:204,1,50
64,96,59702,1,8,0:0:0:0:
336,296,60077,2,0,P|372:248|384:200,1,100,0|8,0:0|0:0,0:0:0:0:
312,168,60827,5,0,0:0:0:0:
384,212,61014,1,0,0:0:0:0:
452,264,61202,1,8,0:0:0:0:
296,332,61577,1,0,0:0:0:0:
116,212,61952,2,0,L|72:248,1,50
336,116,62327,2,0,L|396:108,1,50
156,24,62702,1,8,0:0:0:0:
36,140,63077,2,0,P|76:128|120:80,1,100,0|8,0:0|0:0,0:0:0:0:
208,128,63827,5,0,0:0:0:0:
32,40,64014,2,0,L|80:68,1,50,0|8,0:0|0:0,0:0:0:0:
36,244,64577,2,0,P|76:256|120:304,2,100,0|8|0,0:0|0:0|0:0,0:0:0:0:
224,208,65514,1,0,0:0:0:0:
320,132,65702,2,0,L|392:208,1,100,8|0,0:0|0:0,0:0:0:0:
244,24,66452,1,8,0:0:0:0:
112,320,66827,6,0,L|168:280,1,50
240,224,67202,2,0,B|196:180|220:132,1,100,8|0,0:0|0:0,0:0:0:0:
288,88,67952,1,8,0:0:0:0:
372,88,68139,1,0,0:0:0:0:
408,164,68327,1,0,0:0:0:0:
340,216,68514,1,0,0:0:0:0:
268,168,68702,1,8,0:0:0:0:
336,148,69077,1,0,0:0:0:0:
424,248,69264,1,0,0:0:0:0:
184,288,69452,6,0,P|240:296|296:248,1,100,8|0,0:0|0:0,0:0:0:0:
244,196,70014,1,0,0:0:0:0:
220,184,70202,2,0,P|164:176|108:224,2,100,8|0|8,0:0|0:0|0:0,0:0:0:0:
92,264,71139,1,0,0:0:0:0:
184,288,71327,2,0,L|208:344,2,50,0|0|8,0:0|0:0|0:0,0:0:0:0:
236,188,72077,6,0,P|272:144|272:80,1,100,0|8,0:0|0:0,0:0:0:0:
184,108,72827,1,0,0:0:0:0:
340,164,73014,1,0,0:0:0:0:
212,272,73202,2,0,P|152:272|112:288,1,100,8|0,0:0|0:0,0:0:0:0:
272,216,73952,1,8,0:0:0:0:
204,120,74139,1,0,0:0:0:0:
316,160,74327,1,0,0:0:0:0:
204,192,74514,1,0,0:0:0:0:
272,96,74702,1,8,0:0:0:0:
52,320,75077,6,0,L|48:264,2,50,0|0|8,0:0|0:0|0:0,0:0:0:0:
212,240,75827,1,0,0:0:0:0:
52,320,76014,1,0,0:0:0:0:
60,136,76202,1,8,0:0:0:0:
224,96,76577,2,0,P|172:88|144:48,2,100,0|8|0,0:0|0:0|0:0,0:0:0:0:
324,104,77514,1,0,0:0:0:0:
144,52,77702,2,0,P|108:112|64:120,1,100,8|0,0:0|0:0,0:0:0:0:
148,304,78452,6,0,P|216:308|256:296,1,100,8|0,0:0|0:0,0:0:0:0:
316,240,79014,1,0,0:0:0:0:
148,304,79202,2,0,P|84:276|60:248,1,100,8|0,0:0|0:0,0:0:0:0:
148,204,79952,2,0,L|180:156,1,50,8|0,0:0|0:0,0:0:0:0:
260,32,80327,2,0,L|232:80,1,50
148,204,80702,5,12,0:0:0:0:
132,268,81077,1,4,0:0:0:0:
112,328,81452,1,12,0:0:0:0:
352,300,81827,2,0,L|284:268,1,50
412,320,82202,1,8,0:0:0:0:
328,192,82577,2,0,P|280:136|272:68,1,100,0|8,0:0|0:0,0:0:0:0:
310,27,83139,1,0,0:0:0:0:
368,104,83327,1,0,0:0:0:0:
328,192,83514,1,0,0:0:0:0:
368,104,83702,2,0,P|340:48|300:24,2,100,8|0|8,0:0|0:0|0:0,0:0:0:0:
144,156,84827,6,0,L|172:108,1,50
104,204,85202,2,0,P|56:244|-12:232,1,100,8|0,0:0|0:0,0:0:0:0:
28,152,85952,1,8,0:0:0:0:
24,248,86139,1,0,0:0:0:0:
28,152,86327,2,0,L|24:96,1,50
96,296,86702,2,0,P|148:328|204:336,2,100,12|4|12,0:0|0:0|0:0,0:0:0:0:
208,204,87827,5,0,0:0:0:0:
260,172,88014,1,0,0:0:0:0:
320,168,88202,2,0,B|320:120|320:120|296:64,2,100,8|0|8,0:0|0:0|0:0,0:0:0:0:
299,72,89139,1,0,0:0:0:0:
380,168,89327,1,0,0:0:0:0:
260,172,89514,1,0,0:0:0:0:
440,168,89702,2,0,B|440:220|440:220|412:264,1,100,8|0,0:0|0:0,0:0:0:0:
104,320,90452,6,0,P|72:272|76:224,1,100,8|0,0:0|0:0,0:0:0:0:
128,152,91014,1,0,0:0:0:0:
168,248,91202,2,0,P|168:180|124:140,1,100,8|0,0:0|0:0,0:0:0:0:
80,108,91952,2,0,L|124:64,1,50,8|0,0:0|0:0,0:0:0:0:
264,204,92327,2,0,L|232:248,1,50
172,156,92702,1,8,0:0:0:0:
360,332,93077,6,0,B|396:288|452:312,2,100,0|8|0,0:0|0:0|0:0,0:0:0:0:
240,348,94014,1,0,0:0:0:0:
248,216,94202,2,0,B|176:208|152:252,1,100,8|0,0:0|0:0,0:0:0:0:
184,92,94952,2,0,L|228:52,1,50,8|0,0:0|0:0,0:0:0:0:
132,136,95327,1,0,0:0:0:0:
84,180,95514,1,0,0:0:0:0:
184,92,95702,1,8,0:0:0:0:
396,324,96077,6,0,L|440:284,2,50,0|0|8,0:0|0:0|0:0,0:0:0:0:
376,104,96827,2,0,L|436:140,1,50
288,192,97202,1,8,0:0:0:0:
124,136,97577,1,0,0:0:0:0:
104,308,97952,1,8,0:0:0:0:
188,248,98139,1,0,0:0:0:0:
276,308,98327,1,0,0:0:0:0:
360,248,98514,1,0,0:0:0:0:
272,172,98702,2,0,B|272:104|272:104|224:76,2,100,8|0|8,0:0|0:0|0:0,0:0:0:0:
92,172,99827,6,0,L|160:172,1,50
272,172,100202,1,8,0:0:0:0:
24,172,100577,1,0,0:0:0:0:
160,172,100952,1,8,0:0:0:0:
216,228,101139,1,0,0:0:0:0:
304,324,101327,2,0,L|368:324,2,50,0|0|8,0:0|0:0|0:0,0:0:0:0:
240,324,102077,2,0,P|184:324|136:280,1,100,0|8,0:0|0:0,0:0:0:0:
216,228,102827,5,0,0:0:0:0:
216,228,103014,1,0,0:0:0:0:
76,120,103202,1,8,0:0:0:0:
240,68,103577,1,0,0:0:0:0:
336,176,103952,2,0,L|384:148,1,50,8|0,0:0|0:0,0:0:0:0:
272,208,104327,1,0,0:0:0:0:
440,120,104514,1,0,0:0:0:0:
412,220,104702,2,0,L|360:248,1,50,8|0,0:0|0:0,0:0:0:0:
300,276,105077,5,0,0:0:0:0:
480,188,105264,1,0,0:0:0:0:
312,88,105452,1,8,0:0:0:0:
372,180,105827,1,0,0:0:0:0:
372,180,106014,1,0,0:0:0:0:
372,180,106202,1,8,0:0:0:0:
340,132,106577,1,0,0:0:0:0:
428,184,106765,1,0,0:0:0:0:
336,228,106952,1,8,0:0:0:0:
128,208,107327,6,0,L|188:196,1,50
232,188,107702,1,8,0:0:0:0:
208,76,108077,2,0,L|280:64,1,50
392,48,108452,1,8,0:0:0:0:
332,212,108827,2,0,L|320:156,2,50,0|0|8,0:0|0:0|0:0,0:0:0:0:
348,304,109577,2,0,L|360:368,2,50,0|0|8,0:0|0:0|0:0,0:0:0:0:
176,320,110327,6,0,P|96:324|60:288,2,100,0|8|0,0:0|0:0|0:0,0:0:0:0:
136,216,111452,2,0,P|136:156|100:92,1,100,8|0,0:0|0:0,0:0:0:0:
24,184,112014,1,0,0:0:0:0:
224,112,112202,1,8,0:0:0:0:
192,312,112577,2,0,L|248:324,1,50
116,296,112952,1,8,0:0:0:0:
348,280,113327,6,0,L|400:236,1,50
264,340,113702,1,8,0:0:0:0:
236,280,114077,1,0,0:0:0:0:
216,216,114452,1,8,0:0:0:0:
344,352,114827,1,0,0:0:0:0:
408,352,115014,1,0,0:0:0:0:
476,352,115202,2,0,P|476:296|416:296,1,100,8|0,0:0|0:0,0:0:0:0:
284,176,115952,2,0,L|336:196,1,50,8|0,0:0|0:0,0:0:0:0:
160,124,116327,2,0,L|224:152,1,50
32,80,116702,6,0,P|80:40|144:36,1,100,8|0,0:0|0:0,0:0:0:0:
116,132,117452,1,8,0:0:0:0:
120,264,117827,2,0,L|72:296,2,50,0|0|8,0:0|0:0|0:0,0:0:0:0:
240,192,118577,2,0,P|316:184|344:152,1,100,0|8,0:0|0:0,0:0:0:0:
240,192,119327,1,0,0:0:0:0:
331,170,119514,1,0,0:0:0:0:
264,104,119702,2,0,P|220:80|156:76,1,100,8|0,0:0|0:0,0:0:0:0:
264,104,120452,5,8,0:0:0:0:
171,74,120827,2,0,L|104:128,2,50,0|0|8,0:0|0:0|0:0,0:0:0:0:
40,204,121577,2,0,P|120:240|160:224,1,100,0|8,0:0|0:0,0:0:0:0:
112,144,122327,5,0,0:0:0:0:
60,324,122514,1,0,0:0:0:0:
232,276,122702,2,0,P|296:284|344:244,1,100,8|0,0:0|0:0,0:0:0:0:
272,192,123452,6,0,P|260:128|284:80,1,100,12|0,0:0|0:0,0:0:0:0:
352,144,124014,1,0,0:0:0:0:
436,96,124202,2,0,P|444:160|412:220,1,100,12|0,0:0|0:0,0:0:0:0:
352,236,124764,1,0,0:0:0:0:
352,332,124952,2,0,P|408:316|436:264,1,100,12|0,0:0|0:0,0:0:0:0:
352,236,125514,1,0,0:0:0:0:
352,144,125702,2,0,P|296:160|268:204,1,100,12|0,0:0|0:0,0:0:0:0:
256,192,126452,12,0,128702,0:0:0:0:
256,192,129077,5,0,0:0:0:0:
256,192,129452,12,0,131327,0:0:0:0:
164,161,131702,5,4,0:0:0:0:
132,180,131795,1,0,0:0:0:0:
95,173,131889,1,0,0:0:0:0:
70,144,131983,1,0,0:0:0:0:
70,107,132077,1,4,0:0:0:0:
95,78,132170,1,0,0:0:0:0:
132,72,132264,1,0,0:0:0:0:
164,90,132358,1,0,0:0:0:0:
177,126,132452,1,4,0:0:0:0:
348,148,132827,2,0,L|264:136,1,50
468,164,133202,5,8,0:0:0:0:
400,252,133577,1,0,0:0:0:0:
472,344,133952,1,0,0:0:0:0:
400,252,134139,1,0,0:0:0:0:
468,164,134327,1,0,0:0:0:0:
368,152,134514,2,0,L|320:132,1,50,0|8,0:0|0:0,0:0:0:0:
472,40,135077,1,0,0:0:0:0:
240,124,135452,5,0,0:0:0:0:
136,176,135639,2,0,P|124:120|136:68,1,100
232,236,136202,1,8,0:0:0:0:
336,276,136577,2,0,L|388:300,1,50
232,236,136952,1,0,0:0:0:0:
248,344,137139,2,0,L|272:288,1,50
248,344,137514,1,0,0:0:0:0:
320,176,137702,1,8,0:0:0:0:
72,208,138077,5,0,0:0:0:0:
176,136,138264,1,0,0:0:0:0:
176,136,138358,1,0,0:0:0:0:
176,136,138452,6,0,L|120:176,1,50
124,280,138827,2,0,L|176:328,1,50
276,252,139202,1,8,0:0:0:0:
388,108,139577,2,0,L|436:72,2,50
204,84,140327,2,0,L|260:108,1,50
192,188,140702,2,0,L|252:188,1,50,8|0,0:0|0:0,0:0:0:0:
196,292,141077,2,0,L|252:268,1,50
52,328,141452,5,4,0:0:0:0:
148,328,141639,1,0,0:0:0:0:
104,248,141827,1,0,0:0:0:0:
200,248,142014,1,0,0:0:0:0:
160,160,142202,2,0,L|104:160,1,50,12|0,0:0|0:0,0:0:0:0:
256,160,142577,2,0,L|312:160,1,50
212,72,142952,2,0,L|276:72,1,50,4|0,0:0|0:0,0:0:0:0:
120,72,143327,2,0,L|60:72,1,50
372,72,143702,6,0,P|408:116|460:120,1,100,12|4,0:0|0:0,0:0:0:0:
452,40,144264,2,0,L|476:24,2,25,0|0|4,0:0|0:0|0:0,0:0:0:0:
204,144,144827,2,0,L|128:112,1,50
172,232,145202,2,0,L|140:308,1,50,8|0,0:0|0:0,0:0:0:0:
260,264,145577,2,0,L|336:296,1,50
300,176,145952,2,0,L|332:100,1,50
160,124,146327,1,0,0:0:0:0:
156,276,146514,1,0,0:0:0:0:
304,284,146702,1,8,0:0:0:0:
300,176,147077,6,0,L|364:204,2,50
204,144,147639,1,0,0:0:0:0:
396,212,147827,1,0,0:0:0:0:
340,76,148014,1,0,0:0:0:0:
260,264,148202,1,8,0:0:0:0:
80,336,148577,2,0,L|40:296,1,50
192,320,148952,2,0,L|228:280,2,50
80,336,149514,1,0,0:0:0:0:
308,300,149702,1,8,0:0:0:0:
168,160,150077,5,0,0:0:0:0:
276,112,150264,1,0,0:0:0:0:
276,112,150358,1,0,0:0:0:0:
276,112,150452,1,0,0:0:0:0:
280,228,150639,1,0,0:0:0:0:
168,160,150827,2,0,L|100:116,1,50
108,264,151202,2,0,L|140:216,1,50,8|0,0:0|0:0,0:0:0:0:
236,60,151577,2,0,L|200:120,1,50
367,141,151952,5,0,0:0:0:0:
367,237,152139,1,0,0:0:0:0:
276,266,152327,1,0,0:0:0:0:
220,189,152515,1,0,0:0:0:0:
276,112,152702,1,8,0:0:0:0:
304,188,153077,1,0,0:0:0:0:
256,192,153452,12,4,154952,0:0:0:0:
172,156,156077,5,0,0:0:0:0:
360,64,156264,1,0,0:0:0:0:
360,268,156452,2,0,L|392:312,2,50
228,52,157014,2,0,L|260:104,1,50,0|8,0:0|0:0,0:0:0:0:
84,148,157389,1,0,0:0:0:0:
72,292,157577,2,0,P|116:320|180:296,1,100
136,224,158139,1,0,0:0:0:0:
204,160,158327,2,0,P|156:128|100:136,2,100,0|8|0,0:0|0:0|0:0,0:0:0:0:
396,276,159452,6,0,P|404:220|372:176,1,100
304,240,160014,1,0,0:0:0:0:
464,200,160202,1,8,0:0:0:0:
336,88,160389,2,0,L|308:44,1,50
120,140,160764,2,0,L|168:116,1,50
248,80,161139,1,0,0:0:0:0:
120,140,161327,2,0,L|72:172,1,50
248,80,161702,1,8,0:0:0:0:
212,296,162264,5,0,0:0:0:0:
236,300,162358,1,0,0:0:0:0:
260,304,162452,2,0,L|316:272,1,50
460,340,162827,2,0,L|408:276,2,50,0|0|8,0:0|0:0|0:0,0:0:0:0:
312,180,163389,2,0,L|364:236,2,50
168,216,163952,2,0,L|208:172,1,50
240,80,164327,2,0,L|228:128,1,50,0|0,0:0|0:0,0:0:0:0:
108,108,164702,1,8,0:0:0:0:
464,48,165077,1,0,0:0:0:0:
256,192,165452,12,4,166952,0:0:0:0:
112,260,167702,6,0,P|116:200|160:156,1,100,0|0,0:0|0:0,0:0:0:0:
224,240,168452,2,0,P|248:292|248:348,1,100
112,260,169014,2,0,L|44:280,1,50,0|8,0:0|0:0,0:0:0:0:
216,108,169577,1,0,0:0:0:0:
112,68,169764,1,0,0:0:0:0:
48,160,169952,6,0,L|24:108,1,50
32,40,170327,1,0,0:0:0:0:
48,160,170514,2,0,L|76:224,1,50,0|8,0:0|0:0,0:0:0:0:
264,264,171077,2,0,P|248:216|180:204,1,100
176,284,171827,1,0,0:0:0:0:
328,176,172014,1,0,0:0:0:0:
168,112,172202,2,0,P|132:72|140:8,1,100,8|0,0:0|0:0,0:0:0:0:
68,240,172952,5,0,0:0:0:0:
68,240,173139,1,0,0:0:0:0:
248,184,173327,1,0,0:0:0:0:
248,184,173514,1,0,0:0:0:0:
100,76,173702,2,0,P|152:44|208:40,2,100,8|0|0,0:0|0:0|0:0,0:0:0:0:
160,216,174827,2,0,L|136:164,2,50,0|0|8,0:0|0:0|0:0,0:0:0:0:
208,264,175577,5,0,0:0:0:0:
388,116,175952,2,0,L|416:72,1,50
372,296,176327,2,0,L|424:336,1,50
240,188,176702,2,0,P|180:144|140:132,2,100,8|0|0,0:0|0:0|0:0,0:0:0:0:
136,272,177827,5,0,0:0:0:0:
136,272,178014,2,0,L|108:348,1,50,0|8,0:0|0:0,0:0:0:0:
96,360,178577,1,0,0:0:0:0:
376,228,178952,2,0,L|436:204,2,50
164,144,179514,1,0,0:0:0:0:
376,228,179702,1,8,0:0:0:0:
348,44,180077,6,0,L|408:48,2,50
232,140,180827,2,0,L|288:92,1,50
152,208,181202,2,0,P|100:184|36:184,1,100,8|0,0:0|0:0,0:0:0:0:
80,280,181952,2,0,P|92:336|140:368,2,100,0|0|8,0:0|0:0|0:0,0:0:0:0:
220,256,183077,2,0,P|272:288|320:276,1,100
288,176,183827,5,0,0:0:0:0:
252,352,184014,1,0,0:0:0:0:
288,176,184202,2,0,P|344:180|388:252,1,100,8|0,0:0|0:0,0:0:0:0:
112,216,184952,2,0,L|168:196,1,50
272,88,185327,2,0,L|228:156,1,50
96,48,185702,5,8,0:0:0:0:
248,152,186077,2,0,P|191:94|156:88,1,100
136,216,186827,2,0,L|180:176,1,50
64,264,187202,2,0,B|76:308|76:308|120:360,1,100,8|0,0:0|0:0,0:0:0:0:
316,260,187952,6,0,L|368:272,1,50
360,104,188327,2,0,L|296:88,1,50
336,180,188702,1,8,0:0:0:0:
200,136,189077,1,0,0:0:0:0:
228,272,189452,6,0,P|168:296|120:288,1,100
228,272,190014,2,0,L|292:240,1,50,0|8,0:0|0:0,0:0:0:0:
72,264,190577,1,0,0:0:0:0:
336,124,190952,6,0,L|368:72,1,50
396,172,191327,2,0,L|444:136,1,50
424,240,191702,2,0,L|480:248,1,50,8|0,0:0|0:0,0:0:0:0:
284,244,192077,5,0,0:0:0:0:
216,288,192264,1,0,0:0:0:0:
156,336,192452,1,0,0:0:0:0:
156,336,192827,5,0,0:0:0:0:
216,288,193014,1,0,0:0:0:0:
284,244,193202,1,8,0:0:0:0:
156,336,193577,5,0,0:0:0:0:
96,284,193764,1,0,0:0:0:0:
44,232,193952,1,0,0:0:0:0:
168,148,194327,6,0,L|164:228,1,50
168,72,194702,1,8,0:0:0:0:
168,72,195077,2,0,L|168:8,1,50
164,200,195452,1,0,0:0:0:0:
280,136,195827,2,0,L|340:136,1,50
408,136,196202,1,8,0:0:0:0:
280,240,196577,2,0,L|200:240,1,50
180,184,196952,5,0,0:0:0:0:
103,209,197139,1,0,0:0:0:0:
55,144,197327,1,0,0:0:0:0:
103,79,197514,1,0,0:0:0:0:
180,104,197702,2,0,P|216:88|280:112,2,100,8|0|0,0:0|0:0|0:0,0:0:0:0:
260,252,198827,5,0,0:0:0:0:
76,276,199014,2,0,L|60:228,1,50,0|8,0:0|0:0,0:0:0:0:
120,192,199577,2,0,P|80:244|88:316,1,100
152,288,200139,2,0,L|224:300,1,50
356,284,200514,2,0,L|392:236,1,50,0|8,0:0|0:0,0:0:0:0:
396,72,201077,6,0,P|328:40|280:48,1,100
304,128,201827,1,0,0:0:0:0:
188,268,202014,1,0,0:0:0:0:
236,208,202202,2,0,P|208:160|140:132,1,100,8|0,0:0|0:0,0:0:0:0:
340,156,202952,2,0,L|364:108,1,50
244,104,203327,1,0,0:0:0:0:
184,64,203514,1,0,0:0:0:0:
176,208,203702,6,0,P|124:280|84:280,1,100,8|0,0:0|0:0,0:0:0:0:
280,268,204452,2,0,P|328:308|392:312,1,100
236,176,205014,2,0,L|216:120,1,50,0|8,0:0|0:0,0:0:0:0:
280,268,205577,1,0,0:0:0:0:
340,188,205952,6,0,L|372:140,2,50
220,232,206514,1,0,0:0:0:0:
464,136,206702,2,0,P|432:84|384:48,1,100,8|0,0:0|0:0,0:0:0:0:
220,104,207452,5,0,0:0:0:0:
104,164,207827,2,0,L|136:224,1,50
276,224,208202,2,0,P|228:276|232:332,1,100,8|0,0:0|0:0,0:0:0:0:
372,324,208952,6,0,L|324:312,1,50
424,276,209327,1,0,0:0:0:0:
468,220,209514,1,0,0:0:0:0:
468,220,209702,2,0,P|456:148|424:108,1,100,8|0,0:0|0:0,0:0:0:0:
360,200,210452,6,0,P|300:232|252:228,1,100,4|0,0:0|0:0,0:0:0:0:
360,200,211014,1,0,0:0:0:0:
224,304,211202,2,0,P|192:244|196:196,1,100,12|0,0:0|0:0,0:0:0:0:
224,304,211764,1,0,0:0:0:0:
120,148,211952,2,0,P|180:116|228:120,1,100,4|0,0:0|0:0,0:0:0:0:
120,148,212514,1,0,0:0:0:0:
276,48,212702,2,0,P|308:108|304:156,1,100,12|0,0:0|0:0,0:0:0:0:
276,48,213264,1,0,0:0:0:0:
256,192,213452,12,4,215702,0:0:0:0:
84,96,216077,5,0,0:0:0:0:
224,76,216452,1,2,0:0:0:0:
288,88,216639,1,0,0:0:0:0:
224,76,216827,1,2,0:0:0:0:
244,136,217014,1,0,0:0:0:0:
224,76,217202,1,2,0:0:0:0:
180,124,217389,1,0,0:0:0:0:
224,76,217577,1,2,0:0:0:0:
244,136,217764,1,0,0:0:0:0:
264,200,217952,2,0,P|296:204|328:224,1,50,2|0,0:0|0:0,0:0:0:0:
276,268,218327,2,0,P|272:308|256:320,1,50,2|0,0:0|0:0,0:0:0:0:
170,323,218702,6,0,L|137:355,1,25,4|0,0:0|0:0,0:0:0:0:
141,257,218889,2,0,L|105:264,1,25
135,185,219077,2,0,L|100:185,1,25,4|0,0:0|0:0,0:0:0:0:
152,113,219264,2,0,L|118:100,1,25
188,51,219452,1,4,0:0:0:0:
341,182,219827,1,0,0:0:0:0:
168,278,220014,2,0,L|118:308,1,50,0|8,0:0|0:0,0:0:0:0:
316,83,220577,6,0,P|368:89|416:116,1,100
341,182,221139,2,0,L|320:236,1,50
144,264,221514,2,0,L|72:232,1,50,0|8,0:0|0:0,0:0:0:0:
316,84,222077,1,0,0:0:0:0:
184,120,222452,6,0,P|136:96|80:104,1,100
112,236,223014,2,0,L|120:184,1,50,0|8,0:0|0:0,0:0:0:0:
280,320,223577,2,0,L|276:248,1,50
356,184,223952,1,0,0:0:0:0:
256,136,224139,1,0,0:0:0:0:
392,108,224327,1,0,0:0:0:0:
312,52,224514,1,0,0:0:0:0:
452,40,224702,1,8,0:0:0:0:
200,48,225077,5,0,0:0:0:0:
152,112,225264,1,0,0:0:0:0:
136,132,225358,1,0,0:0:0:0:
124,152,225452,2,0,L|104:216,1,50
292,304,226014,2,0,L|232:280,1,50,0|8,0:0|0:0,0:0:0:0:
396,184,226577,6,0,P|396:144|384:120,1,50
312,192,226952,2,0,P|288:152|268:144,1,50
248,240,227327,2,0,P|212:220|184:224,1,50
64,160,227702,2,0,P|104:160|128:176,1,50,8|0,0:0|0:0,0:0:0:0:
124,76,228077,2,0,P|156:88|164:112,1,50
328,124,228452,6,0,P|356:96|360:68,1,50,4|0,0:0|0:0,0:0:0:0:
280,52,228827,1,0,0:0:0:0:
252,44,229014,1,0,0:0:0:0:
328,224,229202,6,0,P|356:252|384:256,1,50,12|0,0:0|0:0,0:0:0:0:
400,176,229577,1,0,0:0:0:0:
408,148,229764,1,0,0:0:0:0:
216,184,229952,6,0,P|188:156|160:152,1,50,4|0,0:0|0:0,0:0:0:0:
144,232,230327,1,0,0:0:0:0:
136,260,230514,1,0,0:0:0:0:
280,320,230702,5,12,0:0:0:0:
304,312,230795,1,0,0:0:0:0:
324,296,230889,1,0,0:0:0:0:
336,276,230983,1,0,0:0:0:0:
340,252,231077,1,4,0:0:0:0:
336,228,231170,1,0,0:0:0:0:
324,208,231264,1,0,0:0:0:0:
304,192,231358,1,0,0:0:0:0:
284,180,231452,6,0,P|240:144|184:140,1,100
168,268,232014,2,0,P|200:232|208:212,1,50,0|8,0:0|0:0,0:0:0:0:
200,136,232389,1,0,0:0:0:0:
336,96,232577,2,0,P|308:72|276:64,1,50
392,204,232952,2,0,P|408:232|408:272,1,50
260,300,233327,1,0,0:0:0:0:
96,192,233514,1,0,0:0:0:0:
260,300,233702,1,8,0:0:0:0:
264,128,234077,6,0,P|228:112|200:112,2,50
180,244,234827,1,0,0:0:0:0:
364,244,235014,2,0,P|376:208|376:176,1,50,0|8,0:0|0:0,0:0:0:0:
56,152,235577,5,0,0:0:0:0:
212,108,235764,1,0,0:0:0:0:
180,244,235952,2,0,L|168:308,1,50
308,264,236327,2,0,L|324:216,1,50
180,244,236702,1,8,0:0:0:0:
380,128,237077,5,0,0:0:0:0:
268,112,237264,1,0,0:0:0:0:
244,124,237358,1,0,0:0:0:0:
232,148,237452,2,0,P|232:184|256:204,1,50
64,128,237827,1,0,0:0:0:0:
80,296,238014,1,0,0:0:0:0:
248,312,238202,1,8,0:0:0:0:
184,200,238389,2,0,L|144:244,2,50
356,208,238952,6,0,P|364:172|360:140,1,50
268,84,239327,2,0,P|256:124|264:152,1,50
256,280,239702,2,0,P|248:240|256:216,2,50,8|0|0,0:0|0:0|0:0,0:0:0:0:
324,348,240264,1,0,0:0:0:0:
256,192,240452,12,4,241952,0:0:0:0:
204,88,242702,6,0,L|172:64,1,25
176,152,242889,2,0,L|140:136,1,25
168,220,243077,2,0,L|136:216,1,25
168,288,243264,2,0,L|140:304,2,25
356,252,243827,2,0,P|392:228|396:208,2,50,0|0|8,0:0|0:0|0:0,0:0:0:0:
320,156,244577,2,0,P|280:136|268:132,1,50
204,212,244952,5,0,0:0:0:0:
112,132,245139,1,0,0:0:0:0:
224,104,245327,2,0,P|248:84|288:80,1,50
132,200,245702,1,8,0:0:0:0:
200,328,245889,1,0,0:0:0:0:
336,256,246077,2,0,P|356:224|352:156,1,100
220,188,246827,6,0,P|264:188|288:192,2,50,0|0|8,0:0|0:0|0:0,0:0:0:0:
412,232,247577,1,0,0:0:0:0:
324,295,247952,1,0,0:0:0:0:
221,262,248139,1,0,0:0:0:0:
324,228,248327,1,0,0:0:0:0:
261,316,248514,1,0,0:0:0:0:
261,208,248702,1,0,0:0:0:0:
140,168,249077,2,0,P|144:124|160:104,2,50
272,80,249827,6,0,P|240:68|224:68,2,50,0|0|8,0:0|0:0|0:0,0:0:0:0:
392,176,250577,2,0,P|416:188|440:224,2,50
344,260,251139,2,0,P|376:272|392:288,2,50
296,340,251702,2,0,P|328:352|344:372,2,50,8|0|0,0:0|0:0|0:0,0:0:0:0:
248,204,252264,1,0,0:0:0:0:
392,176,252452,5,0,0:0:0:0:
399,127,252639,1,0,0:0:0:0:
372,87,252827,1,0,0:0:0:0:
300,156,253014,1,0,0:0:0:0:
372,88,253202,1,8,0:0:0:0:
168,112,253577,1,0,0:0:0:0:
172,276,253952,2,0,P|136:288|120:304,1,50
248,268,254327,2,0,P|280:264|312:280,1,50
200,196,254702,1,8,0:0:0:0:
148,128,255077,2,0,P|120:108|100:112,1,50
292,80,255452,5,0,0:0:0:0:
360,168,255639,1,0,0:0:0:0:
404,72,255827,1,0,0:0:0:0:
292,80,256014,1,0,0:0:0:0:
236,164,256202,2,0,P|216:204|160:232,1,100,8|0,0:0|0:0,0:0:0:0:
136,136,256952,5,0,0:0:0:0:
112,288,257139,2,0,P|140:304|172:300,1,50
24,248,257514,1,0,0:0:0:0:
136,136,257702,2,0,P|112:104|84:96,1,50,8|0,0:0|0:0,0:0:0:0:
216,184,258077,2,0,P|248:172|268:176,1,50
136,232,258452,5,0,0:0:0:0:
280,292,258827,2,0,P|320:280|336:268,2,50,0|0|8,0:0|0:0|0:0,0:0:0:0:
264,188,259577,1,0,0:0:0:0:
408,132,259764,1,0,0:0:0:0:
336,160,259952,2,0,L|364:224,2,50
400,284,260514,1,0,0:0:0:0:
304,92,260702,5,8,0:0:0:0:
244,48,260889,1,0,0:0:0:0:
188,96,261077,1,0,0:0:0:0:
212,168,261264,1,0,0:0:0:0:
288,164,261452,1,0,0:0:0:0:
246,113,261827,5,0,0:0:0:0:
248,264,262014,2,0,P|288:272|304:292,1,50,0|8,0:0|0:0,0:0:0:0:
112,192,262577,1,0,0:0:0:0:
400,216,262952,2,0,P|408:172|396:148,2,50
304,116,263514,1,0,0:0:0:0:
304,116,263702,2,0,P|264:104|220:156,1,100
256,192,264452,12,4,265952,0:0:0:0:
336,208,266327,6,0,P|344:168|336:144,1,50
344,72,266702,1,4,0:0:0:0:
416,144,267077,1,4,0:0:0:0:
156,136,267452,5,4,0:0:0:0:
104,184,268202,1,4,0:0:0:0:
52,228,268952,1,4,0:0:0:0:
320,328,269702,2,0,P|376:292|392:256,1,100,8|0,0:0|0:0,0:0:0:0:
300,236,270452,2,0,P|248:212|232:172,1,100,8|0,0:0|0:0,0:0:0:0:
320,148,271014,2,0,B|388:92|464:148,1,150,8|0,0:0|0:0,0:0:0:0:
128,208,271952,2,0,P|140:244|188:288,1,100,8|0,0:0|0:0,0:0:0:0:
272,312,272514,1,8,0:0:0:0:
272,312,272702,1,0,0:0:0:0:
264,152,272889,2,0,P|216:156|200:168,1,50,8|0,0:0|0:0,0:0:0:0:
392,164,273264,1,0,0:0:0:0:
264,152,273452,6,0,L|192:136,1,50
156,168,273827,1,0,0:0:0:0:
112,216,274014,1,0,0:0:0:0:
96,280,274202,1,0,0:0:0:0:
148,320,274389,1,0,0:0:0:0:
204,296,274577,2,8,L|260:332,2,50,0|0|4,0:0|0:0|0:0,0:0:0:0:
324,188,275327,1,8,0:0:0:0:
184,104,275514,2,0,P|116:132|64:64,1,150,0|0,0:0|0:0,0:0:0:0:
244,232,276452,1,4,0:0:0:0:
384,120,277202,6,0,L|424:80,2,50,2|2|2,0:0|0:0|0:0,0:0:0:0:
440,180,277764,1,0,0:0:0:0:
420,256,277952,2,0,L|464:288,2,50,2|2|2,0:0|0:0|0:0,0:0:0:0:
376,320,278514,1,0,0:0:0:0:
440,180,278702,2,0,L|372:184,1,50,8|0,0:0|0:0,0:0:0:0:
116,168,279452,6,0,P|148:136|208:124,1,100,8|0,0:0|0:0,0:0:0:0:
200,228,280014,1,0,0:0:0:0:
116,64,280202,1,8,0:0:0:0:
296,96,280577,2,0,P|344:124|368:184,1,100,0|8,0:0|0:0,0:0:0:0:
264,200,281327,1,0,0:0:0:0:
224,248,281514,1,0,0:0:0:0:
192,296,281702,2,0,P|228:336|280:352,1,100,8|0,0:0|0:0,0:0:0:0:
72,192,282452,6,0,P|84:152|64:80,1,100,8|0,0:0|0:0,0:0:0:0:
36,32,283014,1,0,0:0:0:0:
72,192,283202,2,0,P|72:244|120:292,1,100,8|0,0:0|0:0,0:0:0:0:
240,200,283952,1,8,0:0:0:0:
120,100,284327,2,0,L|76:64,2,50,0|0|8,0:0|0:0|0:0,0:0:0:0:
320,132,285077,2,0,P|376:148|420:136,1,100,0|8,0:0|0:0,0:0:0:0:
376,52,285827,5,0,0:0:0:0:
376,52,286014,1,0,0:0:0:0:
380,240,286202,1,4,0:0:0:0:
152,236,286577,2,0,L|216:208,1,50
40,284,286952,1,4,0:0:0:0:
324,180,287327,2,0,P|304:132|296:128,2,50,0|0|4,0:0|0:0|0:0,0:0:0:0:
200,124,288077,1,4,0:0:0:0:
256,192,288452,12,4,289952,0:0:0:0:
280,208,290702,5,0,0:0:0:0:
216,168,290889,1,0,0:0:0:0:
348,244,291077,1,0,0:0:0:0:
152,128,291264,1,0,0:0:0:0:
256,192,291452,12,4,292952,0:0:0:0:
324,220,293327,5,0,0:0:0:0:
244,304,293702,1,4,0:0:0:0:
220,304,293795,1,0,0:0:0:0:
196,300,293889,1,0,0:0:0:0:
176,288,293983,1,0,0:0:0:0:
160,272,294077,1,4,0:0:0:0:
148,248,294170,1,0,0:0:0:0:
148,224,294264,1,0,0:0:0:0:
152,200,294358,1,0,0:0:0:0:
168,168,294452,6,0,P|208:140|216:40,1,150.000005722046
124,72,295014,1,0,0:0:0:0:
124,72,295108,1,0,0:0:0:0:
124,72,295202,1,8,0:0:0:0:
312,312,295577,2,0,P|340:280|336:164,1,150.000005722046
260,228,296139,1,0,0:0:0:0:
460,276,296327,1,0,0:0:0:0:
412,192,296514,1,0,0:0:0:0:
192,244,296702,1,8,0:0:0:0:
208,104,297077,6,0,P|272:92|296:104,2,75.0000028610231
256,192,297639,1,0,0:0:0:0:
68,192,297827,2,0,P|88:132|124:116,2,75.0000028610231,0|0|8,0:0|0:0|0:0,0:0:0:0:
264,304,298577,1,0,0:0:0:0:
400,232,298764,1,0,0:0:0:0:
272,160,298952,1,0,0:0:0:0:
144,164,299139,2,0,L|104:156,2,37.5000014305115
140,288,299514,2,0,L|76:344,1,75.0000028610231,0|8,0:0|0:0,0:0:0:0:
176,88,300077,6,0,P|212:64|256:64,1,75.0000028610231
272,68,300358,1,0,0:0:0:0:
296,84,300452,1,0,0:0:0:0:
228,208,300639,2,0,P|192:248|184:288,1,75.0000028610231
292,288,301014,1,0,0:0:0:0:
136,180,301202,1,8,0:0:0:0:
384,168,301577,6,0,P|416:144|428:104,1,75.0000028610231
344,220,301952,2,0,P|375:244|417:244,1,75.0000028610231
284,196,302327,2,0,P|269:233|280:273,1,75.0000028610231,0|0,0:0|0:0,0:0:0:0:
280,128,302702,2,0,P|232:135|200:162,1,75.0000028610231,8|0,0:0|0:0,0:0:0:0:
344,112,303077,2,0,P|329:74|294:52,1,75.0000028610231,0|0,0:0|0:0,0:0:0:0:
80,152,303452,6,0,P|104:112|148:88,1,75.0000028610231,4|0,0:0|0:0,0:0:0:0:
180,188,303827,1,0,0:0:0:0:
216,236,304014,1,0,0:0:0:0:
280,324,304202,2,0,P|316:288|316:248,1,75.0000028610231,12|0,0:0|0:0,0:0:0:0:
216,236,304577,1,0,0:0:0:0:
180,188,304764,1,0,0:0:0:0:
340,152,304952,2,0,P|388:120|400:88,1,75.0000028610231,4|0,0:0|0:0,0:0:0:0:
304,220,305327,2,0,P|300:264|268:296,2,75.0000028610231,0|0|12,0:0|0:0|0:0,0:0:0:0:
132,152,306077,5,4,0:0:0:0:
340,72,306264,2,0,L|296:96,2,37.5000014305115,0|0|4,0:0|0:0|0:0,0:0:0:0:
176,332,306827,1,0,0:0:0:0:
68,176,307014,1,0,0:0:0:0:
168,32,307202,2,0,P|216:40|240:56,1,75.0000028610231,8|0,0:0|0:0,0:0:0:0:
248,216,307577,2,0,P|216:248|176:252,2,75.0000028610231
336,128,308139,1,0,0:0:0:0:
356,104,308233,1,0,0:0:0:0:
380,84,308327,1,0,0:0:0:0:
440,168,308514,1,0,0:0:0:0:
256,36,308702,1,8,0:0:0:0:
224,240,309077,6,0,L|288:176,2,75.0000028610231
280,304,309639,1,0,0:0:0:0:
304,280,309733,1,0,0:0:0:0:
328,260,309827,1,0,0:0:0:0:
168,176,310014,2,0,L|228:120,1,75.0000028610231,0|8,0:0|0:0,0:0:0:0:
424,144,310577,1,0,0:0:0:0:
336,40,310764,2,0,P|272:32|244:52,1,75.0000028610231
296,116,311139,2,0,L|296:160,2,37.5000014305115
192,68,311514,1,0,0:0:0:0:
52,176,311702,1,8,0:0:0:0:
164,304,312077,6,0,P|216:308|260:296,1,75.0000028610231
264,288,312358,1,0,0:0:0:0:
284,268,312452,1,0,0:0:0:0:
376,136,312639,1,0,0:0:0:0:
280,76,312827,2,0,P|308:40|352:32,2,75.0000028610231,0|0|8,0:0|0:0|0:0,0:0:0:0:
136,180,313577,5,0,0:0:0:0:
252,112,313764,1,0,0:0:0:0:
252,112,313858,1,0,0:0:0:0:
252,112,313952,1,0,0:0:0:0:
248,208,314139,2,0,P|300:192|324:168,1,75.0000028610231
248,112,314514,2,0,P|208:96|164:108,1,75.0000028610231,0|8,0:0|0:0,0:0:0:0:
328,168,315077,1,0,0:0:0:0:
256,192,315452,12,4,316952,0:0:0:0:
372,220,317702,6,0,P|352:152|284:104,1,150.000005722046,4|4,0:0|0:0,0:0:0:0:
248,224,318264,1,0,0:0:0:0:
248,224,318358,1,0,0:0:0:0:
248,224,318452,1,4,0:0:0:0:
160,104,318827,2,0,P|116:80|56:92,2,100,0|0|8,0:0|0:0|0:0,0:0:0:0:
308,100,319577,1,0,0:0:0:0:
140,272,319952,6,0,P|112:320|72:344,1,100
44,248,320327,2,0,P|68:204|124:180,1,100
208,200,320702,1,8,0:0:0:0:
400,124,321077,2,0,P|372:80|324:52,1,100
288,168,321452,5,0,0:0:0:0:
172,52,321639,1,0,0:0:0:0:
172,52,321733,1,0,0:0:0:0:
172,52,321827,1,0,0:0:0:0:
112,200,322014,2,0,P|76:248|76:304,1,100,0|8,0:0|0:0,0:0:0:0:
280,280,322577,1,0,0:0:0:0:
432,196,322764,1,0,0:0:0:0:
280,280,322952,2,0,P|196:296|172:280,1,100
156,264,323233,2,0,L|124:216,1,50
240,160,323514,1,0,0:0:0:0:
136,60,323702,1,8,0:0:0:0:
408,120,324077,5,0,0:0:0:0:
356,280,324264,2,0,L|336:340,2,50
408,120,324639,1,0,0:0:0:0:
288,72,324827,2,0,P|224:68|188:104,2,100,0|0|8,0:0|0:0|0:0,0:0:0:0:
180,80,325577,6,0,P|128:60|72:72,1,100
120,168,325952,2,0,P|52:168|28:200,1,100
104,272,326327,1,0,0:0:0:0:
196,348,326514,2,0,P|224:304|220:248,1,100,0|8,0:0|0:0,0:0:0:0:
368,208,327077,1,0,0:0:0:0:
276,168,327264,1,0,0:0:0:0:
176,116,327452,6,0,P|136:80|80:76,1,100,4|0,0:0|0:0,0:0:0:0:
64,84,327827,1,0,0:0:0:0:
176,116,328014,1,0,0:0:0:0:
132,204,328202,2,0,P|96:244|92:300,1,100,12|0,0:0|0:0,0:0:0:0:
100,316,328577,1,0,0:0:0:0:
132,204,328764,1,0,0:0:0:0:
224,240,328952,2,0,P|264:276|320:280,1,100,4|0,0:0|0:0,0:0:0:0:
336,272,329327,1,0,0:0:0:0:
224,240,329514,1,0,0:0:0:0:
268,152,329702,2,0,P|304:112|308:56,1,100,12|0,0:0|0:0,0:0:0:0:
300,40,330077,1,4,0:0:0:0:
268,152,330264,5,0,0:0:0:0:
268,152,330358,1,0,0:0:0:0:
268,152,330452,1,4,0:0:0:0:
368,220,330827,2,0,P|412:196|440:152,1,100
348,120,331202,1,8,0:0:0:0:
368,220,331389,1,0,0:0:0:0:
288,288,331577,2,0,P|248:324|200:328,1,100
204,224,331952,2,0,P|172:180|112:156,2,100
112,256,332514,1,0,0:0:0:0:
252,136,332702,1,8,0:0:0:0:
396,196,333077,6,0,P|432:152|440:100,2,100
344,112,333639,1,0,0:0:0:0:
324,100,333733,1,0,0:0:0:0:
304,88,333827,1,0,0:0:0:0:
224,64,334014,1,0,0:0:0:0:
104,196,334202,1,8,0:0:0:0:
292,284,334577,2,0,P|252:320|200:328,1,100
204,220,334952,1,0,0:0:0:0:
304,172,335139,2,0,L|348:124,2,50
220,120,335514,2,0,P|152:104|120:120,1,100,0|8,0:0|0:0,0:0:0:0:
384,292,336077,6,0,P|420:240|420:192,1,100
412,180,336358,2,0,L|380:120,1,50
276,76,336639,1,0,0:0:0:0:
156,136,336827,1,0,0:0:0:0:
224,252,337014,1,0,0:0:0:0:
344,192,337202,1,8,0:0:0:0:
156,136,337389,2,0,P|88:128|32:160,2,100
112,248,337952,5,0,0:0:0:0:
344,192,338139,2,0,P|292:152|248:152,1,100
344,192,338514,1,0,0:0:0:0:
156,136,338702,1,8,0:0:0:0:
192,320,339077,1,0,0:0:0:0:
344,192,339264,1,0,0:0:0:0:
256,192,339452,12,4,340952,0:0:0:0:
348,192,342077,5,0,0:0:0:0:
260,96,342264,1,0,0:0:0:0:
216,212,342452,2,0,P|192:248|132:268,2,100,8|0|8,0:0|0:0|0:0,0:0:0:0:
120,108,343598,2,0,P|76:92|52:40,1,100,0|8,0:0|0:0,0:0:0:0:
180,144,344362,1,4,0:0:0:0:
276,108,344744,1,4,0:0:0:0:
380,96,345127,1,4,0:0:0:0:
256,192,345509,12,4,347611,0:0:0:0:
